<?xml version="1.0" standalone="no"?>
<!DOCTYPE svg PUBLIC "-//W3C//DTD SVG 1.1//EN" "http://www.w3.org/Graphics/SVG/1.1/DTD/svg11.dtd" >
<svg xmlns="http://www.w3.org/2000/svg">
<metadata>Generated by IcoMoon</metadata>
<defs>
<font id="icomoon" horiz-adv-x="1024">
<font-face units-per-em="1024" ascent="960" descent="-64" />
<missing-glyph horiz-adv-x="1024" />
<glyph unicode="&#x20;" horiz-adv-x="512" d="" />
<glyph unicode="&#xe900;" glyph-name="facebook-logo" horiz-adv-x="476" d="M316.68 624.45v88.27c-0.021 1.057-0.032 2.302-0.032 3.551 0 9.6 0.694 19.037 2.036 28.265l-0.125-1.051c1.502 8.107 4.435 15.32 8.549 21.7l-0.142-0.236c4.84 7.288 12.233 12.55 20.876 14.533l0.23 0.044c10.421 2.592 22.385 4.079 34.697 4.079 1.416 0 2.828-0.020 4.234-0.059l-0.207 0.005h88.001v176.45h-140.677c-6.566 0.67-14.19 1.052-21.902 1.052-59.161 0-113.072-22.474-153.663-59.351l0.188 0.168c-33.805-41.674-54.274-95.36-54.274-153.828 0-6.104 0.223-12.155 0.661-18.147l-0.047 0.801v-106.246h-105.351v-176.45h105.888v-512h211.329v512h140.677l18.602 176.45z" />
<glyph unicode="&#xe901;" glyph-name="left-arrow" horiz-adv-x="624" d="M484.073 10.473l-437.527 437.527 437.527 446.836 93.091-102.4-335.127-344.436 335.127-335.127z" />
<glyph unicode="&#xe902;" glyph-name="right-arrow" horiz-adv-x="624" d="M139.636 10.473l437.527 437.527-437.527 446.836-93.091-102.4 335.127-344.436-335.127-335.127z" />
<glyph unicode="&#xe903;" glyph-name="save" horiz-adv-x="600" d="M0 960v-1024l300.032 291.584 299.947-291.584v1024z" />
<glyph unicode="&#xe904;" glyph-name="search" horiz-adv-x="1010" d="M410.566 187.17c-202.868 0-362.264 164.226-362.264 362.264s159.396 362.264 362.264 362.264 362.264-164.226 362.264-362.264-164.226-362.264-362.264-362.264zM410.566 839.245c-159.396 0-289.811-130.415-289.811-289.811s130.415-289.811 289.811-289.811 289.811 130.415 289.811 289.811-130.415 289.811-289.811 289.811zM620.298 286.817l52.463 49.971 289.83-304.286-52.463-49.971-289.83 304.286z" />
<glyph unicode="&#xe905;" glyph-name="telegram" horiz-adv-x="1229" d="M482.188 285.181l-20.384-285.888c0.14-0.001 0.306-0.002 0.472-0.002 22.81 0 43.121 10.705 56.181 27.365l0.117 0.155 136.37 130.255 282.729-206.9c51.776-28.844 88.365-13.657 101.921 47.699l185.496 868.978c16.409 76.645-27.723 106.507-78.173 87.754l-1089.841-417.366c-74.402-28.844-73.281-70.325-12.638-89.181l278.652-86.633 647.3 404.932c30.576 20.384 58.197 8.969 35.367-11.211z" />
<glyph unicode="&#xe906;" glyph-name="twitter" horiz-adv-x="1260" d="M1260.355 838.816c-43.324-19.428-93.588-33.757-146.227-40.489l-2.679-0.28c53.531 32.145 93.752 81.786 113.126 140.873l0.516 1.817c-47.175-28.481-102.084-50.194-160.578-62.021l-3.311-0.559c-47.263 50.358-114.245 81.728-188.554 81.728-142.694 0-258.37-115.676-258.37-258.37 0-0.031 0-0.063 0-0.094v0.005c-0.008-0.776-0.013-1.692-0.013-2.61 0-19.946 2.195-39.379 6.357-58.071l-0.331 1.77c-215.367 10.932-404.791 113.442-531.483 269.060l-1.054 1.336c-22.219-37.369-35.352-82.391-35.352-130.48 0-89.166 45.151-167.787 113.836-214.247l0.912-0.581c-43.002 1.17-83.041 12.815-117.979 32.461l1.28-0.661v-2.854c0.161-124.615 88.103-228.645 205.302-253.582l1.699-0.303c-19.664-5.379-42.243-8.469-65.544-8.469-0.785 0-1.57 0.004-2.353 0.011l0.12-0.001c-1.247-0.024-2.717-0.038-4.19-0.038-15.83 0-31.283 1.61-46.206 4.674l1.475-0.253c34.387-103.339 128.936-177.076 241.113-179.986l0.338-0.007c-87.213-68.693-198.657-110.177-319.79-110.177-0.193 0-0.385 0-0.578 0h0.030c-1.163-0.010-2.538-0.016-3.914-0.016-20.425 0-40.554 1.265-60.314 3.72l2.362-0.239c111.33-72.728 247.648-115.99 394.069-115.99 0.809 0 1.617 0.001 2.426 0.004h-0.124c1.368-0.009 2.985-0.015 4.604-0.015 403.37 0 730.366 326.996 730.366 730.366 0 1.761-0.006 3.521-0.019 5.28l0.002-0.271c0 11.415 0 22.423-0.917 33.43 51.334 36.868 94.485 81.349 128.782 132.288l1.167 1.84z" />
<glyph unicode="&#xe907;" glyph-name="whatsapp" d="M512.171 960v0c-0.001 0-0.003 0-0.004 0-282.581 0-511.658-229.077-511.658-511.658 0-112.748 36.468-216.979 98.253-301.54l-1.009 1.449-64.085-190.547 196.529 62.889c79.288-52.904 176.77-84.422 281.614-84.422 282.723 0 511.915 229.192 511.915 511.915 0 282.595-228.986 511.708-511.533 511.914h-0.020zM810.040 236.945c-20.999-37.393-57.164-64.15-99.938-72.066l-0.89-0.137c-26.745-5.725-61.693-10.254-179.439 38.537-104.976 52.286-190.98 128.895-252.974 222.756l-1.488 2.397c-33.465 42.527-55.52 95.471-60.756 153.27l-0.083 1.133c-0.041 1.372-0.065 2.985-0.065 4.604 0 47.367 20.147 90.028 52.339 119.882l0.105 0.096c13.024 11.455 30.218 18.446 49.045 18.446 1.173 0 2.339-0.027 3.498-0.081l-0.164 0.006c6.323 0 12.048 0 17.089-0.598 15.039-0.598 22.558-1.538 32.555-25.634 12.39-29.736 42.724-103.22 46.056-111.081 2.82-4.535 4.491-10.038 4.491-15.932 0-4.242-0.866-8.282-2.43-11.952l0.075 0.199c-4.441-9.049-9.983-16.803-16.588-23.509l0.011 0.011c-7.519-8.545-14.697-15.381-22.302-24.694s-14.697-17.089-5.981-31.872c23.463-39.522 51.004-73.481 82.766-102.955l0.289-0.265c33.796-31.027 73.647-56.106 117.491-73.203l2.563-0.88c4.051-1.959 8.809-3.104 13.835-3.104 8.612 0 16.438 3.361 22.239 8.843l-0.015-0.014c13.244 15.619 26.385 32.887 38.609 50.83l1.381 2.147c5.076 8.369 14.137 13.875 24.484 13.875 4.455 0 8.672-1.021 12.429-2.841l-0.17 0.074c13.842-4.785 86.985-40.929 102.024-48.449s24.951-11.108 28.625-17.089c1.046-6.135 1.644-13.203 1.644-20.41 0-18.195-3.812-35.5-10.68-51.16l0.32 0.819z" />
<glyph unicode="&#xe908;" glyph-name="apple" horiz-adv-x="840" d="M278.459-64c-152.403 0.873-278.459 312.006-278.459 470.408 0 258.823 194.131 315.497 268.968 315.497 37.269-2.743 71.779-11.668 103.482-25.765l-1.971 0.783c16.795-7.484 36.302-13.206 56.693-16.214l1.235-0.15c15.696 3.101 29.608 7.76 42.66 13.94l-1.096-0.467c36.731 17.344 79.581 28.296 124.765 30.249l0.692 0.024h0.273c1.536 0.033 3.347 0.052 5.162 0.052 86.291 0 162.644-42.552 209.221-107.817l0.531-0.782 15.655-23.564-22.582-17.018c-53.445-32.934-89.026-90.375-91.031-156.262l-0.007-0.286c-0.042-1.432-0.065-3.118-0.065-4.809 0-69.154 39.731-129.028 97.612-158.041l1.019-0.463c14.128-8.509 28.746-17.237 28.746-36.437 0-12.491-99.82-281.132-244.859-281.132-30.215 0.634-58.569 7.976-83.833 20.588l1.14-0.515c-21.433 10.962-46.719 17.485-73.504 17.727l-0.079 0.001c-21.552-2.306-41.267-7.881-59.431-16.249l1.175 0.486c-29.669-13.309-64.161-21.808-100.427-23.539l-0.648-0.025zM610.647 960c3.764-136.366-93.602-230.622-190.912-224.677-0.125 2.757-0.197 5.99-0.197 9.24 0 110.718 82.924 202.068 190.053 215.331l1.056 0.107z" />
<glyph unicode="&#xe909;" glyph-name="android-logo" horiz-adv-x="866" d="M63.39 628.276c-0.352 0.007-0.767 0.011-1.183 0.011-17.151 0-32.651-7.065-43.751-18.442l-0.012-0.013c-11.383-11.006-18.449-26.415-18.449-43.474 0-0.3 0.002-0.599 0.007-0.898l-0.001 0.045v-264.615c-0.001-0.108-0.001-0.235-0.001-0.363 0-34.809 28.219-63.028 63.028-63.028 0.128 0 0.255 0 0.382 0.001h-0.020c0.377-0.008 0.82-0.013 1.265-0.013 17.028 0 32.405 7.071 43.353 18.438l0.018 0.019c11.21 11.171 18.146 26.624 18.146 43.697 0 0.439-0.005 0.878-0.014 1.315l0.001-0.065v264.615c-0.146 34.608-28.162 62.624-62.756 62.77h-0.014zM572.936 865.819l43.706 80.593c1.041 1.35 1.669 3.066 1.669 4.929 0 3.249-1.91 6.051-4.668 7.346l-0.050 0.021c-1.288 0.823-2.859 1.312-4.543 1.312-3.423 0-6.374-2.017-7.73-4.927l-0.022-0.052-44.326-81.265c-36.426 16.349-78.954 25.872-123.706 25.872s-87.279-9.523-125.666-26.653l1.96 0.782-44.326 81.058c-1.378 2.963-4.33 4.98-7.752 4.98-1.685 0-3.255-0.489-4.578-1.332l0.034 0.021c-2.808-1.316-4.717-4.118-4.717-7.367 0-1.863 0.628-3.578 1.683-4.948l-0.014 0.019 43.706-80.593c-43.667-22.095-79.431-54.215-105.227-93.47l-0.629-1.020c-24.672-36.966-39.37-82.417-39.37-131.3 0-0.463 0.001-0.926 0.004-1.388v0.071h569.216c0.002 0.387 0.004 0.844 0.004 1.302 0 48.889-14.699 94.344-39.918 132.189l0.548-0.873c-26.298 40.261-61.858 72.426-103.767 93.986l-1.521 0.711zM320.307 748.598c-4.208-4.367-10.107-7.080-16.639-7.080-0.108 0-0.215 0.001-0.322 0.002h0.016c-0.137-0.003-0.299-0.005-0.462-0.005-6.388 0-12.14 2.721-16.16 7.068l-0.013 0.015c-4.188 4.394-6.765 10.356-6.765 16.919s2.577 12.526 6.775 16.929l-0.009-0.010c4.051 4.361 9.817 7.082 16.218 7.082 0.147 0 0.293-0.001 0.439-0.004h-0.022c0.034 0 0.075 0 0.115 0 13.21 0 23.92-10.709 23.92-23.92 0-6.647-2.711-12.66-7.088-16.995l-0.002-0.002zM579.704 748.598c-4.042-4.361-9.801-7.082-16.196-7.082-0.155 0-0.309 0.002-0.462 0.005h0.023c-12.78 0.611-22.909 11.121-22.909 23.997s10.13 23.386 22.855 23.995l0.055 0.002c0.124 0.003 0.271 0.004 0.417 0.004 6.401 0 12.167-2.72 16.205-7.068l0.013-0.014c4.188-4.394 6.765-10.356 6.765-16.919s-2.577-12.526-6.775-16.929l0.009 0.010zM150.751 206.711c-0.001-0.154-0.002-0.336-0.002-0.519 0-37.092 30.069-67.161 67.161-67.161 0.182 0 0.365 0.001 0.547 0.002h45.538l0.62-139.488c-0.007-0.346-0.011-0.753-0.011-1.162 0-17.157 7.064-32.665 18.442-43.773l0.012-0.012c11.006-11.383 26.415-18.449 43.474-18.449 0.3 0 0.599 0.002 0.898 0.007l-0.045-0.001c0.108-0.001 0.235-0.001 0.363-0.001 34.809 0 63.028 28.219 63.028 63.028 0 0.128 0 0.255-0.001 0.382v-0.020 139.488h84.933v-139.488c0-35.009 28.381-63.39 63.39-63.39s63.39 28.381 63.39 63.39v0 139.488h46.135c0.001 0 0.001 0 0.002 0 37.092 0 67.161 30.069 67.161 67.161 0 0.182-0.001 0.363-0.002 0.544v-0.028 409.889h-565.031zM803.092 628.276c-0.279 0.005-0.607 0.007-0.936 0.007-16.976 0-32.331-6.939-43.384-18.134l-0.006-0.006c-11.385-10.966-18.457-26.343-18.457-43.371 0-0.445 0.005-0.889 0.014-1.331l-0.001 0.066v-264.615c-0.007-0.352-0.011-0.767-0.011-1.183 0-17.151 7.065-32.651 18.442-43.751l0.013-0.012c11.006-11.383 26.415-18.449 43.474-18.449 0.3 0 0.599 0.002 0.898 0.007l-0.045-0.001c0.108-0.001 0.235-0.001 0.363-0.001 34.809 0 63.028 28.219 63.028 63.028 0 0.128 0 0.255-0.001 0.382v-0.020 264.615c0.008 0.377 0.013 0.82 0.013 1.265 0 17.028-7.071 32.405-18.438 43.353l-0.019 0.018c-11.217 11.21-26.71 18.144-43.823 18.144-0.395 0-0.789-0.004-1.182-0.011l0.059 0.001z" />
<glyph unicode="&#xe90a;" glyph-name="instagram" d="M703.972 960h-384.008c-176.697-0.036-319.929-143.267-319.965-319.961v-384.011c0.036-176.697 143.267-319.929 319.961-319.965h384.011c176.697 0.036 319.929 143.267 319.965 319.961v384.011c-0.036 176.697-143.267 319.929-319.961 319.965h-0.003zM927.966 256.028c-0.143-123.651-100.343-223.85-223.98-223.994h-384.022c-123.651 0.143-223.85 100.343-223.994 223.98v384.022c0.143 123.651 100.343 223.85 223.98 223.994h384.022c123.651-0.143 223.85-100.343 223.994-223.98v-0.014zM511.968 704.016c-141.376 0-255.984-114.608-255.984-255.984s114.608-255.984 255.984-255.984c141.376 0 255.984 114.608 255.984 255.984v0c0 141.376-114.608 255.984-255.984 255.984v0zM511.968 288.018c-88.373 0-160.014 71.641-160.014 160.014s71.641 160.014 160.014 160.014c88.373 0 160.014-71.641 160.014-160.014v0c-0.108-88.33-71.684-159.906-160.004-160.014h-0.010zM821.333 723.197c0-18.852-15.283-34.135-34.135-34.135s-34.135 15.283-34.135 34.135c0 18.852 15.283 34.135 34.135 34.135s34.135-15.283 34.135-34.135z" />
<glyph unicode="&#xe90b;" glyph-name="youtube" horiz-adv-x="1036" d="M656.782 440.263l-245.589 169.529 280.064-151.040-34.475-18.489zM411.193 308.736v301.056l280.007-151.040zM1026.105 661.959c-5.248 40.313-19.925 76.426-41.737 107.112l0.492-0.73c-26.166 27.602-62.915 44.947-103.719 45.51l-0.103 0.001c-145.010 10.638-362.61 10.638-362.61 10.638h-0.455s-217.543 0-362.553-10.638c-40.929-0.548-77.701-17.896-103.818-45.446l-0.061-0.065c-21.304-29.959-35.962-66.073-41.061-105.192l-0.127-1.191c-6.116-51.523-9.864-111.754-10.349-172.761l-0.004-0.693v-81.294c0.483-61.754 4.231-122.044 11.083-181.389l-0.729 7.764c5.235-40.289 19.892-76.382 41.68-107.056l-0.493 0.73c29.983-27.789 70.050-45.070 114.145-45.794l0.145-0.002c82.944-8.192 352.37-10.752 352.37-10.752s217.771 0.341 362.837 11.378c40.908 0.565 77.657 17.909 103.761 45.446l0.061 0.065c21.292 29.944 35.948 66.037 41.060 105.132l0.128 1.194c6.109 51.498 9.857 111.708 10.349 172.694l0.004 0.703v81.18c-0.497 61.692-4.245 121.902-11.083 181.171l0.729-7.774z" />
<glyph unicode="&#xe90c;" glyph-name="menu" horiz-adv-x="1362" d="M0 960h1361.657v-78.769h-1361.657v78.769zM0 487.385h1361.657v-78.769h-1361.657v78.769zM0 14.769h1361.657v-78.769h-1361.657v78.769z" />
<glyph unicode="&#xe90d;" glyph-name="star-default" horiz-adv-x="1076" d="M538.349 960l166.344-336.991 371.887-54.053-269.263-262.838 63.543-370.354-332.511 175.068-332.688-174.655 63.543 370.354-269.086 262.661 371.887 54.053z" />
<glyph unicode="&#xe90e;" glyph-name="camera-icon" horiz-adv-x="1170" d="M688.576 514.857c26.482-26.479 42.862-63.061 42.862-103.469 0-80.808-65.508-146.316-146.316-146.316s-146.316 65.508-146.316 146.316c0 40.408 16.38 76.99 42.862 103.468v0c26.477 26.474 63.053 42.848 103.454 42.848s76.977-16.374 103.454-42.848v0zM1023.929 813.684h-101.104l-73.194 146.316h-529.23l-73.051-146.387h-100.962c-80.631-0.323-145.88-65.722-145.96-146.38v-0.008l-0.427-584.909c0.243-80.653 65.64-145.951 146.308-146.031h877.62c80.776 0.081 146.235 65.541 146.316 146.308v584.846c-0.121 80.745-65.565 146.164-146.308 146.245h-0.008zM585.123 118.842c-161.577 0-292.561 130.984-292.561 292.561s130.984 292.561 292.561 292.561c161.577 0 292.561-130.984 292.561-292.561v0c-0.202-161.496-131.066-292.359-292.542-292.561h-0.019z" />
<glyph unicode="&#xe90f;" glyph-name="play-icon" horiz-adv-x="690" d="M0 960.109v-1024l690.524 502.604z" />
<glyph unicode="&#xe910;" glyph-name="audio" horiz-adv-x="1215" d="M556.886 944.231l-319.977-194.693h-201.274c0 0 0 0 0 0-19.681 0-35.636-15.955-35.636-35.636 0-0.022 0-0.044 0-0.065v0.003-531.742c0-19.681 15.955-35.636 35.636-35.636v0h201.274l319.977-194.693c15.827-9.792 35.018-15.595 55.564-15.595 58.975 0 106.783 47.808 106.783 106.783 0 0.026 0 0.052 0 0.078v-0.004 809.999c0 0.004 0 0.008 0 0.012 0 58.975-47.808 106.783-106.783 106.783-20.547 0-39.738-5.803-56.024-15.859l0.46 0.264zM71.209 678.267h139.873v-460.533h-139.873zM648.024 43.031c0-0.022 0-0.048 0-0.074 0-19.647-15.927-35.574-35.574-35.574-6.866 0-13.278 1.945-18.715 5.315l0.152-0.088-311.409 189.54v491.513l311.409 189.54c5.285 3.282 11.697 5.227 18.563 5.227 19.647 0 35.574-15.927 35.574-35.574 0-0.026 0-0.052 0-0.078v0.004zM820.553 540.318c-6.435-6.446-10.414-15.346-10.414-25.175s3.979-18.728 10.414-25.175l-0.001 0.001c10.756-10.734 17.41-25.574 17.41-41.968s-6.654-31.235-17.409-41.967l-0.001-0.001c-5.81-6.32-9.372-14.787-9.372-24.086 0-19.681 15.955-35.636 35.636-35.636 9.299 0 17.766 3.562 24.111 9.395l-0.026-0.023c23.595 23.64 38.186 56.275 38.186 92.318s-14.591 68.678-38.188 92.32l0.002-0.002c-6.446 6.435-15.346 10.414-25.175 10.414s-18.728-3.979-25.175-10.414l0.001 0.001zM978.369 647.784c-6.443 6.443-15.343 10.428-25.175 10.428-19.663 0-35.602-15.94-35.602-35.602 0-9.831 3.985-18.732 10.428-25.175v0c38.162-38.258 61.759-91.059 61.759-149.372s-23.597-111.114-61.763-149.376l0.004 0.004c-6.443-6.443-10.428-15.343-10.428-25.175 0-19.663 15.94-35.602 35.602-35.602 9.831 0 18.732 3.985 25.175 10.428v0c51.031 51.151 82.587 121.751 82.587 199.722s-31.555 148.571-82.592 199.727l0.005-0.005zM1085.773 755.188c-6.536 7.11-15.882 11.55-26.264 11.55-19.681 0-35.636-15.955-35.636-35.636 0-10.382 4.44-19.728 11.525-26.241l0.026-0.023c66.665-65.287 107.994-156.22 107.994-256.807s-41.329-191.52-107.932-256.746l-0.062-0.061c-5.81-6.32-9.372-14.787-9.372-24.086 0-19.681 15.955-35.636 35.636-35.636 9.299 0 17.766 3.562 24.111 9.395l-0.026-0.023c79.997 77.965 129.617 186.766 129.617 307.157s-49.621 229.192-129.526 307.068l-0.091 0.088z" />
<glyph unicode="&#xe911;" glyph-name="time-stamp-09" d="M512 948.622c-276.486 0-500.622-224.136-500.622-500.622s224.136-500.622 500.622-500.622c276.486 0 500.622 224.136 500.622 500.622v0c0 276.486-224.136 500.622-500.622 500.622v0zM512 61.156c-213.648 0-386.844 173.196-386.844 386.844s173.196 386.844 386.844 386.844c213.648 0 386.844-173.196 386.844-386.844v0c0-213.648-173.196-386.844-386.844-386.844v0zM568.889 477.582v300.373h-113.778v-359.538l288.996-200.249 64.853 93.298-240.071 166.116z" />
<glyph unicode="&#xe912;" glyph-name="share-12" horiz-adv-x="693" d="M307.433 818.705v-540.337h77.635v526.362l100.149-100.149 54.344 55.121-200.297 200.297-200.297-200.297 55.121-55.121 113.346 114.123zM692.5 624.619v0.776h-77.635v-0.776h-98.596v-77.635h98.596v-533.35h-537.231v533.35h111.794v77.635h-111.794v0.776h-77.635v-689.395h692.5v610.984h0.776v77.635h-0.776z" />
<glyph unicode="&#xe913;" glyph-name="marker" horiz-adv-x="1136" d="M922.734 2.632h-319.445c-0.511 0.028-1.109 0.044-1.711 0.044-18.4 0-33.316-14.916-33.316-33.316s14.916-33.316 33.316-33.316c0.602 0 1.2 0.016 1.794 0.047l-0.083-0.004h319.445c0.511-0.028 1.109-0.044 1.711-0.044 18.4 0 33.316 14.916 33.316 33.316s-14.916 33.316-33.316 33.316c-0.602 0-1.2-0.016-1.794-0.047l0.083 0.004zM147.943 129.038l-138.010-136.076c-6.082-6.038-9.847-14.402-9.847-23.646 0-18.369 14.867-33.267 33.225-33.316h215.195c0.011 0 0.024 0 0.038 0 9.188 0 17.505 3.729 23.52 9.757l29.625 29.625zM236.903 395.038c-26.998-28.517-43.597-67.117-43.597-109.594 0-13.585 1.698-26.773 4.893-39.364l-0.237 1.103c1.855-7.208 2.92-15.482 2.92-24.006 0-15.687-3.607-30.531-10.038-43.748l0.261 0.594 161.656-161.656c12.623 6.17 27.467 9.777 43.153 9.777 8.523 0 16.798-1.065 24.698-3.069l-0.692 0.149c11.495-2.963 24.692-4.665 38.287-4.665 42.471 0 81.064 16.604 109.641 43.674l-0.073-0.068zM1103.554 816.188l-95.816 103.815c-22.744 24.687-55.232 40.099-91.32 40.099-31.677 0-60.581-11.875-82.503-31.416l0.123 0.108-548.788-487.87 328.587-329.027 490.156 536.218c20.186 22 32.557 51.454 32.557 83.798 0 32.572-12.546 62.214-33.070 84.356l0.073-0.080z" />
<glyph unicode="&#xe914;" glyph-name="go-to-top-13" horiz-adv-x="602" d="M601.804 659.098l-300.902 300.902-300.902-300.902 82.806-82.806 170.278 170.278v-810.569h116.629v790.743l149.285-150.451 82.806 82.806z" />
<glyph unicode="&#xe915;" glyph-name="text" horiz-adv-x="1244" d="M131.48 82.364h181.922l39.692-146.364h97.576l-178.614 614.4h-93.442l-178.614-614.4h90.961zM290.248 167.537h-135.615l20.673 75.25c19.019 67.807 33.904 118.249 47.134 176.96h1.654c12.404-57.884 27.564-109.153 46.307-177.787zM711.976 179.941h303.203l66.153-243.941h162.627l-297.69 1024h-155.736l-297.69-1024h151.602zM976.59 321.895h-226.024l34.455 125.416c31.699 113.012 56.506 197.082 78.557 294.934h2.756c20.673-96.474 45.48-181.922 77.179-296.312z" />
<glyph unicode="&#xe916;" glyph-name="progress-bar-check" horiz-adv-x="1358" d="M420.652-64l-420.652 404.863 117.286 121.797 303.366-292.088 819.877 789.427 117.286-121.797-937.163-902.203z" />
<glyph unicode="&#xe917;" glyph-name="like" horiz-adv-x="1069" d="M111.325 514.779c-61.446-0.092-111.233-49.879-111.325-111.316v-356.218c0.092-61.446 49.879-111.233 111.316-111.325h133.567c25.223 0.031 48.46 8.506 67.043 22.75l-0.264-0.194v556.304zM1068.546 347.831c0 0.054 0 0.118 0 0.182 0 27.314-11.094 52.038-29.021 69.91l-0.003 0.003c17.949 19.583 28.948 45.792 28.948 74.569 0 3.662-0.178 7.283-0.526 10.853l0.036-0.453c-7.279 57.165-55.617 100.912-114.173 100.912-0.676 0-1.35-0.006-2.024-0.017l0.101 0.001h-274.878c19.111 52.446 31.791 113.096 35.336 176.187l0.075 1.675c0.010 0.724 0.016 1.578 0.016 2.434 0 83.279-55.939 153.493-132.292 175.118l-1.282 0.31c-30.461-0.436-58.481-10.532-81.227-27.353l0.381 0.269c-4.955-4.137-8.085-10.316-8.085-17.227 0-0.055 0-0.109 0.001-0.164v0.008-150.94l-128.222-277.788-5.336-2.749v-476.994c32.621-15.301 70.687-24.834 110.819-26.261l0.507-0.014h408.597c0.438-0.007 0.955-0.011 1.474-0.011 47.82 0 87.986 32.769 99.27 77.076l0.153 0.709c1.57 6.642 2.47 14.269 2.47 22.105 0 16.313-3.899 31.715-10.817 45.324l0.263-0.57c32.895 16.743 55.037 50.349 55.037 89.126 0 16.224-3.876 31.542-10.752 45.080l0.261-0.567c32.817 16.768 54.895 50.333 54.895 89.055 0 0.070 0 0.14 0 0.21v-0.011z" />
<glyph unicode="&#xe918;" glyph-name="progress-bar-cancel" horiz-adv-x="1025" d="M0.511 22.275l938.088 938.088 86.063-86.063-938.088-938.088-86.063 86.063zM0.511 873.725l86.063 86.063 938.088-938.088-86.063-86.063-938.088 938.088z" />
<glyph unicode="&#xe919;" glyph-name="reply" d="M497.191 584.901h-124.298v186.447c-0.094 17.113-13.988 30.949-31.113 30.949-9.060 0-17.216-3.873-22.902-10.053l-311.001-341.88c-4.929-5.535-7.941-12.873-7.941-20.913s3.012-15.378 7.969-20.945l-0.028 0.032 310.745-341.858c5.706-6.202 13.862-10.074 22.922-10.074 17.153 0 31.064 13.881 31.114 31.022v186.531h65.221c0.572 0.002 1.248 0.003 1.926 0.003 195.897 0 373.184-79.678 501.221-208.395l0.031-0.031c5.628-5.616 13.397-9.089 21.977-9.089 17.167 0 31.086 13.903 31.114 31.063v0.003c-0.358 274.364-222.609 496.699-496.908 497.191h-0.047z" />
<glyph unicode="&#xe91a;" glyph-name="flag" horiz-adv-x="1022" d="M259.105-62.704l18.823 5.258c14.472 4.145 24.886 17.259 24.886 32.805 0 3.27-0.461 6.432-1.321 9.426l0.059-0.24-215.515 770.305c-5.149 18.105-21.538 31.141-40.972 31.141-4.079 0-8.024-0.574-11.759-1.647l0.3 0.074-2.439-0.686c-18.1-5.183-31.124-21.583-31.124-41.025 0-4.060 0.568-7.987 1.629-11.706l-0.073 0.3 215.286-770.381c4.145-14.472 17.259-24.886 32.805-24.886 3.27 0 6.432 0.461 9.426 1.321l-0.24-0.059zM1016.837 475.701c-71.694 36.166-133.409 79.189-188.199 129.619l0.576-0.524c-3.33 3.074-5.408 7.46-5.408 12.333 0 1.689 0.25 3.319 0.714 4.856l-0.031-0.119c24.714 88.904 46.303 197.585 60.346 308.618l1.229 11.911c2.134 17.985-7.621 23.243-17.833 10.898-200.349-239.901-547.475 43.972-754.149-174.134 2.28-4.185 4.257-9.045 5.674-14.137l0.118-0.495 139.612-500.074c206.98 215.439 552.962-66.682 753.235 172.762 10.212 12.346 12.193 34.903 4.039 38.104z" />
<glyph unicode="&#xe91b;" glyph-name="stockmarket-up" d="M520.576 768l-520.448-688.768h1080.576z" />
<glyph unicode="&#xe91c;" glyph-name="stockmarket-down" d="M560.128 79.232l520.448 688.768h-1080.576z" />
<glyph unicode="&#xe91d;" glyph-name="comments2-01" d="M512-41.82l-14.52 11.020c-6.731 5.637-12.138 12.619-15.847 20.554l-0.153 0.366-92.6 185.22c-1.006 1.984-3.031 3.32-5.368 3.32-0.004 0-0.008 0-0.012 0h-273.159c-41.036 0.034-74.294 33.285-74.34 74.316v588.484c0.046 41.039 33.302 74.295 74.336 74.34h803.344c41.035-0.046 74.286-33.304 74.32-74.337v-588.483c-0.046-41.027-33.293-74.274-74.316-74.32h-273.144c-0.004 0-0.008 0-0.012 0-2.337 0-4.362-1.336-5.352-3.286l-0.016-0.034-92.6-185.22c-3.862-8.301-9.269-15.283-15.907-20.844l-0.093-0.076zM110.34 867.8c-14.538-0.023-26.317-11.802-26.34-26.338v-588.482c0.023-14.534 11.804-26.309 26.339-26.32h273.121c0.058 0 0.126 0 0.194 0 20.969 0 39.13-12.023 47.965-29.552l0.141-0.308 80.24-160.46 80.24 160.46c8.986 17.838 27.154 29.86 48.131 29.86 0.060 0 0.119 0 0.179 0h273.131c14.527 0.023 26.297 11.793 26.32 26.318v588.482c-0.023 14.531-11.791 26.306-26.317 26.34h-0.003z" />
</font>
</defs>
</svg>
