<?xml version="1.0" standalone="no"?>
<!DOCTYPE svg PUBLIC "-//W3C//DTD SVG 1.1//EN" "http://www.w3.org/Graphics/SVG/1.1/DTD/svg11.dtd" >
<svg xmlns="http://www.w3.org/2000/svg" xmlns:xlink="http://www.w3.org/1999/xlink" version="1.1">
<metadata>
Created by FontForge 20170731 at Thu Oct  8 12:50:51 2020
 By Aleksey,,,
Copyright (c) Stefan Willerstorfer 2009-2014. All rights reserved.
</metadata>
<defs>
<font id="Sindelar-SemiboldItalic" horiz-adv-x="1155" >
  <font-face 
    font-family="Sindelar Semibold"
    font-weight="600"
    font-style="italic"
    font-stretch="normal"
    units-per-em="2048"
    panose-1="2 4 7 3 4 4 6 9 2 4"
    ascent="1556"
    descent="-492"
    x-height="1056"
    cap-height="1434"
    bbox="-506 -719 2572 1943"
    underline-thickness="161"
    underline-position="-431"
    slope="-8"
    unicode-range="U+0020-FB04"
  />
<missing-glyph horiz-adv-x="1189" 
d="M1016 1434v-1434h-842v1434h842zM854 1331h-518l259 -524zM276 162l275 555l-275 555v-1110zM913 1272l-274 -555l274 -555v1110zM336 102h518l-259 525z" />
    <glyph glyph-name="f_f" unicode="ff" horiz-adv-x="1376" 
d="M1588 1482q7 -21 7 -48q0 -61 -30.5 -93.5t-86.5 -32.5q-35 0 -64 13.5t-45.5 29t-41 29t-52.5 13.5q-87 0 -108 -152l-25 -185h260l-20 -137h-256l-127 -914q-33 -235 -125 -345.5t-253 -110.5q-90 0 -169 41l28 129q44 -23 88 -23q46 0 73.5 26.5t46.5 90t36 186.5
l129 920h-358l-128 -914q-33 -235 -124.5 -345.5t-252.5 -110.5q-94 0 -173 41l28 129q44 -23 92 -23q46 0 73.5 26.5t46.5 90t36 186.5l128 920h-123l13 113q51 16 134 21l6 36q31 211 154 309.5t343 98.5q143 0 278 -60q118 81 308 81q130 0 254 -36zM876 1056l8 54
q14 102 31 163q-30 10 -66.5 36.5t-74 45t-84.5 18.5q-135 0 -161 -186l-19 -131h366z" />
    <glyph glyph-name="fi" unicode="fi" horiz-adv-x="1253" 
d="M1010 182q0 -32 15 -44.5t52 -12.5q38 0 65 4l-7 -101q-121 -48 -223 -48q-97 0 -139.5 32.5t-42.5 110.5q0 41 8 84l105 594q8 46 8 68q0 29 -13 39.5t-46 10.5h-297l-128 -914q-33 -235 -124.5 -345.5t-252.5 -110.5q-94 0 -173 41l28 129q44 -23 92 -23
q46 0 73.5 26.5t46.5 90t36 186.5l128 920h-123l13 113q41 13 134 21l8 57q30 211 153.5 309.5t343.5 98.5q115 0 227 -23.5t164 -63.5q7 -21 7 -48q0 -63 -34.5 -96.5t-95.5 -33.5q-45 0 -89 22t-73.5 48t-73.5 48t-90 22q-136 0 -161 -185l-21 -152h408q57 10 97 10
q74 0 99 -16t25 -57q0 -58 -15 -142l-109 -619q-5 -33 -5 -50z" />
    <glyph glyph-name="fl" unicode="fl" horiz-adv-x="1261" 
d="M1189 1288l-168 -1056q-5 -32 -5 -49q0 -33 15 -45.5t52 -12.5t64 4l-7 -101q-121 -48 -222 -48q-97 0 -139 32.5t-42 112.5q0 39 7 82l174 1094q-19 9 -63.5 36.5t-81.5 41.5t-81 14q-136 0 -161 -185l-21 -152h239l-19 -137h-235l-128 -914q-33 -235 -124.5 -345.5
t-252.5 -110.5q-94 0 -173 41l28 129q44 -23 92 -23q46 0 73.5 26.5t46.5 90t36 186.5l129 920h-124l13 113q41 13 134 21l8 57q30 211 153.5 309.5t343.5 98.5q135 0 280 -39q58 12 91 12q47 0 65 -15t18 -56q0 -39 -15 -132z" />
    <glyph glyph-name="f_f_i" unicode="ffi" horiz-adv-x="1884" 
d="M1641 182q0 -32 15 -44.5t52 -12.5q38 0 65 4l-7 -101q-121 -48 -223 -48q-97 0 -139.5 32.5t-42.5 110.5q0 36 9 84l104 594q8 46 8 68q0 29 -13 39.5t-46 10.5h-297l-127 -914q-33 -235 -125 -345.5t-253 -110.5q-90 0 -169 41l28 129q44 -23 88 -23q46 0 73.5 26.5
t46.5 90t36 186.5l129 920h-358l-128 -914q-33 -235 -124.5 -345.5t-252.5 -110.5q-94 0 -173 41l28 129q44 -23 92 -23q46 0 73.5 26.5t46.5 90t36 186.5l128 920h-123l13 113q51 16 134 21l6 36q31 211 154 309.5t343 98.5q144 0 279 -60q122 81 354 81q115 0 227 -23.5
t164 -63.5q7 -21 7 -48q0 -63 -34.5 -96.5t-95.5 -33.5q-45 0 -89 22t-73.5 48t-73.5 48t-90 22q-136 0 -161 -185l-21 -152h408q57 10 97 10q75 0 100 -16t25 -57q0 -58 -15 -142l-109 -619q-6 -40 -6 -50zM876 1056l8 54q14 102 31 163q-30 10 -66.5 36.5t-74 45
t-84.5 18.5q-135 0 -161 -186l-19 -131h366z" />
    <glyph glyph-name="f_f_l" unicode="ffl" horiz-adv-x="1892" 
d="M1820 1288l-168 -1056q-5 -32 -5 -49q0 -33 15 -45.5t52 -12.5q38 0 65 4l-7 -101q-121 -48 -223 -48q-97 0 -139 32.5t-42 112.5q0 39 7 82l174 1094q-19 9 -63.5 36.5t-81.5 41.5t-81 14q-136 0 -161 -185l-21 -152h240l-20 -137h-235l-127 -914q-33 -235 -125 -345.5
t-253 -110.5q-90 0 -169 41l28 129q44 -23 88 -23q46 0 73.5 26.5t46.5 90t36 186.5l129 920h-358l-128 -914q-33 -235 -124.5 -345.5t-252.5 -110.5q-94 0 -173 41l28 129q44 -23 92 -23q46 0 73.5 26.5t46.5 90t36 186.5l129 920h-124l13 113q40 13 134 21l6 36
q31 211 154 309.5t343 98.5q144 0 279 -60q122 81 354 81q135 0 280 -39q58 12 92 12q47 0 64.5 -14.5t17.5 -56.5q0 -39 -15 -132zM876 1056l8 54q14 102 31 163q-30 10 -66.5 36.5t-74 45t-84.5 18.5q-135 0 -161 -186l-19 -131h366z" />
    <glyph glyph-name="f_b.liga" unicode="fb" horiz-adv-x="1837" 
d="M1460 1081q156 0 229 -88.5t73 -278.5q0 -148 -42 -284.5t-112 -236t-166.5 -159t-201.5 -59.5q-168 0 -254 107l-4 -8q-24 -56 -51.5 -77.5t-73.5 -21.5q-63 0 -130 35l182 1296q-14 7 -60 35t-80.5 40t-76.5 12q-136 0 -161 -185l-21 -152h237l-20 -137h-232l-128 -914
q-33 -235 -124.5 -345.5t-252.5 -110.5q-94 0 -173 41l28 129q44 -23 92 -23q46 0 73.5 26.5t46.5 90t36 186.5l129 920h-124l13 113q41 13 134 21l8 57q30 211 153.5 309.5t343.5 98.5q138 0 274 -37q52 10 83 10q45 0 62 -13.5t17 -47.5q0 -79 -50.5 -339t-119.5 -514h3
q154 504 441 504zM1163 126q80 0 153 84t117 223.5t44 292.5q0 96 -21 139.5t-67 43.5q-38 0 -89 -45.5t-101.5 -123t-94 -195t-63.5 -246.5l-14 -88q51 -85 136 -85z" />
    <glyph glyph-name="f_h.liga" unicode="fh" horiz-adv-x="1869" 
d="M1698 125q38 0 65 4l-7 -101q-121 -48 -223 -48q-97 0 -139.5 32.5t-42.5 110.5q0 36 9 84l99 563q6 36 6 63q0 40 -16 58t-49 18q-38 0 -91.5 -45.5t-106.5 -123t-98 -195.5t-63 -246l-42 -299h-273l183 1306q-14 7 -60 35t-80.5 40t-76.5 12q-136 0 -161 -185l-21 -152
h237l-20 -137h-232l-128 -914q-33 -235 -124.5 -345.5t-252.5 -110.5q-94 0 -173 41l28 129q44 -23 92 -23q46 0 73.5 26.5t46.5 90t36 186.5l129 920h-124l13 113q41 13 134 21l8 57q30 211 153.5 309.5t343.5 98.5q138 0 274 -37q52 10 83 10q45 0 62 -13.5t17 -47.5
q0 -80 -50 -340.5t-118 -512.5h2q34 107 76 194t97.5 159t126.5 111.5t152 39.5q132 0 200.5 -56.5t68.5 -163.5q0 -32 -6 -68l-99 -561q-5 -33 -5 -50q0 -32 15 -44.5t52 -12.5z" />
    <glyph glyph-name="f_j.liga" unicode="fj" horiz-adv-x="1226" 
d="M1015 1066q74 0 99 -16t25 -57q0 -35 -15 -142l-75 -537q-36 -257 -79 -384.5t-128 -215.5q-57 -59 -154.5 -103.5t-207.5 -61.5q-30 35 -30 92q0 78 80 104q19 6 63 12t63 19q30 20 46 86.5t50 308.5l88 630q7 49 7 67q0 30 -12.5 40.5t-45.5 10.5h-294l-128 -914
q-33 -235 -124.5 -345.5t-252.5 -110.5q-94 0 -173 41l28 129q44 -23 92 -23q46 0 73.5 26.5t46.5 90t36 186.5l129 920h-124l13 113q41 13 134 21l8 57q30 211 153.5 309.5t343.5 98.5q115 0 227 -23.5t164 -63.5q7 -21 7 -48q0 -63 -34.5 -96.5t-95.5 -33.5q-45 0 -89 22
t-73.5 48t-73.5 48t-90 22q-136 0 -161 -185l-21 -152h408q57 10 97 10z" />
    <glyph glyph-name="f_k.liga" unicode="fk" horiz-adv-x="1765" 
d="M1196 1420q0 -20 -16 -132l-181 -1288h-273l183 1306q-14 7 -60 35t-80.5 40t-76.5 12q-136 0 -161 -185l-21 -152h237l-20 -137h-232l-128 -914q-33 -235 -124.5 -345.5t-252.5 -110.5q-94 0 -173 41l28 129q44 -23 92 -23q46 0 73.5 26.5t46.5 90t36 186.5l129 920
h-124l13 113q41 13 134 21l8 57q30 211 153.5 309.5t343.5 98.5q136 0 276 -38q50 11 87 11q47 0 65 -15t18 -56zM1543 875q-31 0 -73.5 -41t-150.5 -175q51 -97 110 -219l101 -212q27 -57 52 -80.5t59 -23.5q25 0 42 5l-7 -101q-86 -49 -186 -49q-89 0 -137.5 47
t-113.5 195l-84 190q-29 67 -75 151l262 344q76 100 133 137.5t135 37.5q66 0 130 -25q16 -37 16 -80q0 -61 -30 -96.5t-82 -35.5q-27 0 -53.5 15.5t-47.5 15.5z" />
    <glyph glyph-name="f_f_b.liga" unicode="ffb" horiz-adv-x="2469" 
d="M2092 1081q156 0 228.5 -88.5t72.5 -278.5q0 -148 -42 -284.5t-112 -236t-166.5 -159t-201.5 -59.5q-168 0 -254 107l-3 -8q-24 -55 -51.5 -77t-74.5 -22q-63 0 -130 35l182 1296q-14 7 -60 35t-80.5 40t-76.5 12q-136 0 -161 -185l-21 -152h237l-19 -137h-233l-127 -914
q-33 -235 -125 -345.5t-253 -110.5q-90 0 -169 41l28 129q44 -23 88 -23q46 0 73.5 26.5t46.5 90t36 186.5l129 920h-358l-128 -914q-33 -235 -124.5 -345.5t-252.5 -110.5q-94 0 -173 41l28 129q44 -23 92 -23q46 0 73.5 26.5t46.5 90t36 186.5l129 920h-124l13 113
q40 13 134 21l6 36q31 211 154 309.5t343 98.5q144 0 279 -60q122 81 354 81q138 0 274 -37q52 10 83 10q45 0 62 -13.5t17 -47.5q0 -79 -50.5 -339t-119.5 -514h3q33 108 73.5 194.5t94.5 158.5t124 111.5t150 39.5zM876 1056l8 54q14 102 31 163q-30 10 -66.5 36.5t-74 45
t-84.5 18.5q-135 0 -161 -186l-19 -131h366zM1794 126q80 0 153 84t117 223.5t44 292.5q0 96 -21 139.5t-67 43.5q-38 0 -89 -45.5t-101.5 -123t-94 -195t-63.5 -246.5l-13 -88q51 -85 135 -85z" />
    <glyph glyph-name="f_f_h.liga" unicode="ffh" horiz-adv-x="2502" 
d="M2329 125q38 0 65 4l-7 -101q-121 -48 -223 -48q-97 0 -139.5 32.5t-42.5 110.5q0 36 9 84l99 563q7 42 7 63q0 40 -16 58t-49 18q-38 0 -91.5 -45.5t-107 -122.5t-98.5 -195.5t-63 -246.5l-42 -299h-273l183 1306q-14 7 -60 35t-80.5 40t-76.5 12q-136 0 -161 -185
l-21 -152h237l-19 -137h-233l-127 -914q-33 -235 -125 -345.5t-253 -110.5q-90 0 -169 41l28 129q44 -23 88 -23q46 0 73.5 26.5t46.5 90t36 186.5l129 920h-358l-128 -914q-33 -235 -124.5 -345.5t-252.5 -110.5q-94 0 -173 41l28 129q44 -23 92 -23q46 0 73.5 26.5
t46.5 90t36 186.5l129 920h-124l13 113q51 16 134 21l6 36q31 211 154 309.5t343 98.5q144 0 279 -60q122 81 354 81q138 0 274 -37q52 10 83 10q45 0 62 -13.5t17 -47.5q0 -80 -50 -340.5t-118 -512.5h3q34 107 76 194t97 159t126 111.5t152 39.5q132 0 201 -56.5
t69 -163.5q0 -26 -7 -68l-98 -561q-6 -40 -6 -50q0 -32 15 -44.5t52 -12.5zM876 1056l8 54q14 102 31 163q-30 10 -66.5 36.5t-74 45t-84.5 18.5q-135 0 -161 -186l-19 -131h366z" />
    <glyph glyph-name="f_f_j.liga" unicode="ffj" horiz-adv-x="1859" 
d="M1646 1066q75 0 100 -16t25 -57q0 -35 -15 -142l-76 -537q-36 -257 -79 -384.5t-128 -215.5q-57 -59 -154.5 -103.5t-207.5 -61.5q-29 34 -29 92q0 78 79 104q19 6 63.5 12t63.5 19q30 20 45.5 85.5t49.5 309.5l89 630q6 42 6 67q0 30 -12 40.5t-45 10.5h-295l-127 -914
q-33 -235 -125 -345.5t-253 -110.5q-90 0 -169 41l28 129q44 -23 88 -23q46 0 73.5 26.5t46.5 90t36 186.5l129 920h-358l-128 -914q-33 -235 -124.5 -345.5t-252.5 -110.5q-94 0 -173 41l28 129q44 -23 92 -23q46 0 73.5 26.5t46.5 90t36 186.5l128 920h-123l13 113
q40 13 134 21l6 36q31 211 154 309.5t343 98.5q144 0 279 -60q122 81 354 81q115 0 227 -23.5t164 -63.5q7 -21 7 -48q0 -63 -34.5 -96.5t-95.5 -33.5q-45 0 -89 22t-73.5 48t-73.5 48t-90 22q-136 0 -161 -185l-21 -152h408q57 10 97 10zM876 1056l8 54q14 102 31 163
q-30 10 -66.5 36.5t-74 45t-84.5 18.5q-135 0 -161 -186l-19 -131h366z" />
    <glyph glyph-name="f_f_k.liga" unicode="ffk" horiz-adv-x="2398" 
d="M1827 1420q0 -27 -15 -132l-182 -1288h-273l183 1306q-14 7 -60 35t-80.5 40t-76.5 12q-136 0 -161 -185l-21 -152h237l-19 -137h-233l-127 -914q-33 -235 -125 -345.5t-253 -110.5q-90 0 -169 41l28 129q44 -23 88 -23q46 0 73.5 26.5t46.5 90t36 186.5l129 920h-358
l-128 -914q-33 -235 -124.5 -345.5t-252.5 -110.5q-94 0 -173 41l28 129q44 -23 92 -23q46 0 73.5 26.5t46.5 90t36 186.5l129 920h-124l13 113q40 13 134 21l6 36q31 211 154 309.5t343 98.5q144 0 279 -60q122 81 354 81q136 0 276 -38q50 11 88 11q47 0 64.5 -14.5
t17.5 -56.5zM876 1056l8 54q14 102 31 163q-30 10 -66.5 36.5t-74 45t-84.5 18.5q-135 0 -161 -186l-19 -131h366zM2175 875q-32 0 -75 -41.5t-150 -174.5q51 -97 110 -219l102 -212q27 -57 51.5 -80t58.5 -23q29 0 42 4l-7 -101q-85 -48 -186 -48q-89 0 -137 46.5
t-113 194.5l-85 190q-29 67 -75 151l262 344q76 100 133 137.5t135 37.5q66 0 130 -25q17 -40 17 -80q0 -61 -30.5 -96.5t-82.5 -35.5q-27 0 -53 15.5t-47 15.5z" />
    <glyph glyph-name=".notdef" horiz-adv-x="1189" 
d="M1016 1434v-1434h-842v1434h842zM854 1331h-518l259 -524zM276 162l275 555l-275 555v-1110zM913 1272l-274 -555l274 -555v1110zM336 102h518l-259 525z" />
    <glyph glyph-name=".null" horiz-adv-x="0" 
 />
    <glyph glyph-name="nonmarkingreturn" horiz-adv-x="682" 
 />
    <glyph glyph-name="space" unicode=" " horiz-adv-x="458" 
 />
    <glyph glyph-name="exclam" unicode="!" horiz-adv-x="540" 
d="M159 477l76 996l316 11l-207 -1007h-185zM37 121q0 85 54.5 139.5t139.5 54.5q64 0 102.5 -40.5t38.5 -107.5q0 -85 -54.5 -139.5t-139.5 -54.5q-64 0 -102.5 40.5t-38.5 107.5z" />
    <glyph glyph-name="quotedbl" unicode="&#x22;" horiz-adv-x="786" 
d="M239 1516h212q-26 -171 -101 -512h-173q33 325 62 512zM596 1516h213q-24 -155 -102 -512h-172q35 344 61 512z" />
    <glyph glyph-name="numbersign" unicode="#" horiz-adv-x="1271" 
d="M1030 879l-102 -324h185l-19 -143h-212l-130 -412h-183l131 412h-292l-131 -412h-182l130 412h-188l19 143h215l102 324h-185l19 143h212l130 412h183l-131 -412h292l131 412h182l-130 -412h189l-20 -143h-215zM848 879h-292l-103 -324h292z" />
    <glyph glyph-name="dollar" unicode="$" horiz-adv-x="1095" 
d="M667 1337q-97 0 -155.5 -63t-58.5 -168q0 -59 30 -107.5t77.5 -84.5t105 -70.5t115 -73t105 -84t77.5 -112.5t30 -149q0 -197 -120.5 -317.5t-333.5 -137.5l-27 -195h-135l27 194q-122 8 -228 38.5t-169 77.5q7 154 46 319l157 6q-5 -152 57.5 -232.5t186.5 -80.5
q111 0 183 71t72 180q0 62 -29.5 113t-76.5 88t-104 72t-114.5 73t-104.5 81.5t-76.5 108.5t-29.5 144q0 188 118.5 305.5t320.5 131.5l27 194h135l-27 -195q91 -6 198.5 -29t149.5 -23l-55 -338l-151 -6q-6 140 -59.5 204.5t-163.5 64.5z" />
    <glyph glyph-name="percent" unicode="%" horiz-adv-x="1845" 
d="M381 -102h-183l1295 1638h182zM120 990q0 209 111 334.5t298 125.5q149 0 225.5 -75t76.5 -221q0 -213 -111.5 -339.5t-298.5 -126.5q-143 0 -222 79.5t-79 222.5zM514 1331q-80 0 -135 -103.5t-55 -252.5q0 -81 29.5 -124.5t83.5 -43.5q78 0 134 107t56 254
q0 163 -113 163zM1043 285q0 210 111 335.5t297 125.5q149 0 226 -75t77 -221q0 -213 -111.5 -339.5t-299.5 -126.5q-143 0 -221.5 79t-78.5 222zM1436 626q-80 0 -134.5 -103t-54.5 -252q0 -81 29.5 -124.5t83.5 -43.5q78 0 133.5 107t55.5 254q0 162 -113 162z" />
    <glyph glyph-name="ampersand" unicode="&#x26;" horiz-adv-x="1554" 
d="M1180 274q105 -92 166 -127.5t133 -48.5l-15 -90q-60 -20 -150 -20q-75 0 -148 27t-163 89q-196 -137 -428 -137q-249 0 -381.5 102.5t-132.5 295.5q0 162 88 275.5t256 171.5q-63 129 -63 252q0 185 105.5 293.5t286.5 108.5q140 0 215.5 -64t75.5 -183
q0 -282 -327 -414q138 -213 349 -411q43 94 43 242q0 188 152 188q58 0 99 -27q3 -14 3 -44q0 -264 -164 -479zM718 1330q-60 0 -97 -61t-37 -162q0 -111 53 -210q177 96 177 288q0 145 -96 145zM336 400q0 -137 77.5 -213t216.5 -76q140 0 250 87q-127 109 -234.5 240
t-174.5 260q-135 -100 -135 -298z" />
    <glyph glyph-name="quotesingle" unicode="'" horiz-adv-x="430" 
d="M239 1516h212q-26 -171 -101 -512h-173q33 325 62 512z" />
    <glyph glyph-name="parenleft" unicode="(" horiz-adv-x="606" 
d="M424 -410h-148q-213 348 -213 761q0 339 117 623.5t372 569.5h154q-411 -602 -411 -1222q0 -194 34 -387t95 -345z" />
    <glyph glyph-name="parenright" unicode=")" horiz-adv-x="606" 
d="M169 1544h148q213 -348 213 -761q0 -339 -117 -623.5t-372 -569.5h-154q412 604 412 1223q0 193 -34.5 386t-95.5 345z" />
    <glyph glyph-name="asterisk" unicode="*" horiz-adv-x="989" 
d="M991 1139q-170 -51 -345 -68q110 -116 188 -252q-70 -62 -161 -107q-80 140 -120 296q-95 -160 -215 -296q-78 40 -138 111q126 142 272 253q-163 16 -320 69q25 82 83 165q147 -50 282 -137q-3 60 -3 94q0 134 18 247q48 8 99 8t94 -8q-27 -171 -89 -334q163 87 323 136
q31 -87 32 -177z" />
    <glyph glyph-name="plus" unicode="+" horiz-adv-x="1081" 
d="M999 486h-388l-61 -427h-175l60 427h-388l22 157h388l60 426h176l-60 -426h389z" />
    <glyph glyph-name="comma" unicode="," horiz-adv-x="512" 
d="M214 315q67 0 102.5 -45.5t35.5 -129.5q0 -160 -108 -294t-259 -161q-39 24 -42 74q148 67 181 218q-48 11 -76 49t-28 95q0 85 54.5 139.5t139.5 54.5z" />
    <glyph glyph-name="hyphen" unicode="-" horiz-adv-x="790" 
d="M675 655l-25 -181h-549l25 181h549z" />
    <glyph glyph-name="period" unicode="." horiz-adv-x="505" 
d="M21 121q0 85 54.5 139.5t139.5 54.5q64 0 103 -40.5t39 -107.5q0 -85 -54.5 -139.5t-139.5 -54.5q-64 0 -103 40.5t-39 107.5z" />
    <glyph glyph-name="slash" unicode="/" horiz-adv-x="778" 
d="M118 -377h-202l727 1856h201z" />
    <glyph glyph-name="zero" unicode="0" horiz-adv-x="1173" 
d="M70 420q0 307 161 494t424 187q209 0 319 -112t110 -325q0 -310 -161 -499.5t-425 -189.5q-202 0 -315 117.5t-113 327.5zM635 942q-83 0 -151.5 -72t-107 -195t-38.5 -271q0 -128 48 -198.5t133 -70.5q81 0 149.5 74t108 199.5t39.5 271.5q0 262 -181 262z" />
    <glyph glyph-name="one" unicode="1" horiz-adv-x="823" 
d="M715 104l-16 -104h-688l16 104l111 17q57 8 81 29.5t32 69.5l101 632q-87 -35 -183 -54l-48 -9l-4 111l380 189h165l-137 -869q-3 -18 -3 -31q0 -32 23.5 -46.5t89.5 -25.5z" />
    <glyph glyph-name="two" unicode="2" horiz-adv-x="1015" 
d="M339 179q98 9 237 9h299l-30 -188h-852l25 153q323 179 470 326.5t147 293.5q0 74 -47 117t-128 43q-138 0 -286 -119l-29 159q165 128 414 128q169 0 267.5 -75t98.5 -204q0 -367 -586 -643z" />
    <glyph glyph-name="three" unicode="3" horiz-adv-x="1050" 
d="M637 411q125 -28 190.5 -103t65.5 -193q0 -221 -152 -348t-417 -127q-228 0 -376 96q-2 15 -2 34q0 68 32.5 106t91.5 38q34 0 60.5 -14t44.5 -34.5t38 -41t53.5 -34.5t78.5 -14q112 0 186 92.5t74 233.5q0 221 -319 221q-52 0 -91 -8l12 149q232 0 342 71t110 221
q0 87 -50.5 132t-144.5 45q-137 0 -285 -119l-30 159q165 128 414 128q185 0 285.5 -76t100.5 -219q0 -152 -82 -255t-230 -140z" />
    <glyph glyph-name="four" unicode="4" horiz-adv-x="1124" 
d="M977 23h-159l-50 -359h-267l51 359h-592l16 118l745 938h246l-125 -885h159zM582 194l79 560l-447 -560h368z" />
    <glyph glyph-name="five" unicode="5" horiz-adv-x="1056" 
d="M391 861l-105 -425q109 99 273 99q161 0 255.5 -99.5t94.5 -267.5q0 -252 -153 -390t-421 -138q-228 0 -376 96q-2 15 -2 34q0 68 32.5 106t90.5 38q34 0 60.5 -14t44.5 -34.5t38 -41t53.5 -34.5t78.5 -14q114 0 191 101t77 256q0 105 -52 164.5t-144 59.5
q-112 0 -214 -108l-144 47l189 780h751l-31 -215h-587z" />
    <glyph glyph-name="six" unicode="6" horiz-adv-x="1136" 
d="M836 1282q-188 0 -304.5 -145t-168.5 -444q53 96 144 146.5t210 50.5q154 0 237 -92.5t83 -262.5q0 -254 -150 -407t-400 -153q-398 0 -398 462q0 466 197 733t542 267q171 0 289 -59l-42 -149q-112 53 -239 53zM613 718q-111 0 -184.5 -107t-73.5 -267q0 -103 42 -160.5
t117 -57.5q107 0 176.5 109t69.5 276q0 99 -38.5 153t-108.5 54z" />
    <glyph glyph-name="seven" unicode="7" horiz-adv-x="964" 
d="M997 1076l-12 -136l-188 -311q-140 -232 -228.5 -403t-165.5 -362q-36 -88 -72 -209q-40 -11 -108 -11q-73 0 -105.5 27.5t-32.5 90.5q0 100 105 303q205 400 540 803h-651l30 208h888z" />
    <glyph glyph-name="eight" unicode="8" horiz-adv-x="1122" 
d="M756 785q57 -34 94.5 -62.5t77 -70.5t59 -94t19.5 -115q0 -208 -151.5 -338t-392.5 -130q-195 0 -301 85t-106 242q0 310 318 424q-56 38 -93 75t-63 93.5t-26 124.5q0 194 132.5 306t361.5 112q176 0 273 -75.5t97 -212.5q0 -266 -299 -364zM673 1300q-89 0 -146 -60
t-57 -156q0 -70 41.5 -122t119.5 -102q192 90 192 283q0 75 -39.5 116t-110.5 41zM476 112q112 0 180.5 70.5t68.5 184.5q0 40 -13 75.5t-31.5 62t-51 54t-60 46t-69.5 43.5q-104 -50 -158 -134t-54 -195q0 -95 51 -151t137 -56z" />
    <glyph glyph-name="nine" unicode="9" horiz-adv-x="1118" 
d="M618 1101q399 0 399 -461q0 -466 -197 -733t-542 -267q-173 0 -289 58l42 150q112 -53 239 -53q188 0 304.5 144.5t168.5 443.5q-53 -96 -144 -146.5t-210 -50.5q-154 0 -237 92.5t-83 262.5q0 254 149.5 407t399.5 153zM493 358q111 0 184.5 107t73.5 267q0 103 -42 161
t-117 58q-107 0 -176.5 -109t-69.5 -276q0 -99 38.5 -153.5t108.5 -54.5z" />
    <glyph glyph-name="colon" unicode=":" horiz-adv-x="567" 
d="M149 782q0 85 54.5 139.5t139.5 54.5q64 0 102.5 -40.5t38.5 -107.5q0 -85 -54.5 -139.5t-139.5 -54.5q-64 0 -102.5 40.5t-38.5 107.5zM45 121q0 85 54.5 139.5t139.5 54.5q64 0 102.5 -40.5t38.5 -107.5q0 -85 -54.5 -139.5t-139.5 -54.5q-64 0 -102.5 40.5
t-38.5 107.5z" />
    <glyph glyph-name="semicolon" unicode=";" horiz-adv-x="569" 
d="M342 976q64 0 103 -40.5t39 -107.5q0 -85 -54.5 -139.5t-139.5 -54.5q-64 0 -103 40.5t-39 107.5q0 85 54.5 139.5t139.5 54.5zM238 315q67 0 103 -45.5t36 -129.5q0 -160 -108.5 -294t-259.5 -161q-39 24 -42 74q148 67 181 218q-48 11 -76 49t-28 95q0 85 54.5 139.5
t139.5 54.5z" />
    <glyph glyph-name="less" unicode="&#x3c;" horiz-adv-x="913" 
d="M839 874l-569 -276l490 -276l-24 -182l-686 401l18 124l799 401z" />
    <glyph glyph-name="equal" unicode="=" horiz-adv-x="1202" 
d="M1083 658h-952l22 154h952zM1038 335h-952l22 155h952z" />
    <glyph glyph-name="greater" unicode="&#x3e;" horiz-adv-x="913" 
d="M861 665l-17 -124l-800 -401l28 192l569 276l-490 276l25 182z" />
    <glyph glyph-name="question" unicode="?" horiz-adv-x="997" 
d="M634 1501q174 0 276 -79.5t102 -215.5q0 -83 -27 -149t-70 -108.5t-95 -78t-104.5 -67t-95.5 -65t-70 -82t-27 -109.5q0 -37 4 -65l-178 -18q-14 47 -14 116q0 64 22.5 118.5t59 94t80.5 76t88 71t80.5 71t59 85.5t22.5 106q0 76 -40.5 118t-112.5 42q-76 0 -119.5 -42.5
t-65.5 -137.5q-19 -85 -55.5 -121.5t-101.5 -36.5q-45 0 -78 22.5t-47 63.5q38 184 172.5 287.5t334.5 103.5zM245 121q0 85 54.5 139.5t139.5 54.5q64 0 102.5 -41t38.5 -108q0 -85 -54.5 -139t-139.5 -54q-64 0 -102.5 40.5t-38.5 107.5z" />
    <glyph glyph-name="at" unicode="@" horiz-adv-x="1900" 
d="M1046 1260q339 0 546.5 -176.5t207.5 -463.5q0 -185 -65.5 -332.5t-182.5 -230t-265 -82.5q-115 0 -177 44t-62 125q0 72 51 251h-2q-122 -415 -363 -415q-123 0 -177.5 71.5t-54.5 230.5q0 163 56 302.5t151.5 221.5t207.5 82q134 0 205 -89l2 6q21 47 45 65t65 18
q58 0 116 -31l-85 -537q-17 -112 -17 -142q0 -101 87 -101q109 0 182 150.5t73 376.5q0 244 -149 385.5t-406 141.5q-227 0 -400.5 -106.5t-268.5 -301t-95 -448.5q0 -279 152.5 -425t443.5 -146q208 0 373 47l19 -105q-208 -70 -429 -70q-375 0 -578 181.5t-203 516.5
q0 174 46.5 327.5t134 273.5t208.5 206.5t276.5 132.5t331.5 46zM803 130q29 0 68.5 36.5t78 98.5t72.5 155.5t49 194.5l12 81q-39 61 -98 61q-60 0 -115.5 -69t-89 -181.5t-33.5 -235.5q0 -76 12.5 -108.5t43.5 -32.5z" />
    <glyph glyph-name="A" unicode="A" horiz-adv-x="1384" 
d="M1290 104l-8 -104h-576l16 104l53 8q53 9 74.5 29.5t21.5 66.5q0 28 -10 85l-22 122h-439l-56 -122q-42 -90 -42 -122q0 -26 21.5 -38t72.5 -22l40 -7l-16 -104h-503l16 104l53 9q53 9 83 42t81 138l555 1146h212l225 -1146q21 -105 40.5 -136.5t70.5 -43.5zM814 553
l-100 549l-251 -549h351z" />
    <glyph glyph-name="B" unicode="B" horiz-adv-x="1271" 
d="M909 772q124 -26 192 -106t68 -202q0 -224 -159 -349t-443 -125q-77 0 -214 5t-229 5h-120l16 104l64 13q46 9 64.5 29t25.5 70l140 1001q4 28 4 36q0 31 -18 44.5t-69 24.5l-38 8l7 104h127q91 0 230 4.5t215 4.5q230 0 340.5 -70.5t110.5 -218.5q0 -140 -87 -244.5
t-227 -137.5zM937 1122q0 189 -197 189q-81 0 -142 -10l-66 -469q50 -5 123 -5q129 0 205.5 79.5t76.5 215.5zM555 122q154 0 240 91t86 252q0 104 -62 165t-168 61q-88 0 -139 -5l-65 -458q-2 -12 -2 -33q0 -41 24.5 -57t85.5 -16z" />
    <glyph glyph-name="C" unicode="C" horiz-adv-x="1280" 
d="M873 1466q118 0 243.5 -25.5t188.5 -25.5q-15 -175 -52 -367l-158 -10q0 154 -54.5 219.5t-181.5 65.5q-136 0 -243.5 -100.5t-167.5 -279t-60 -402.5q0 -208 78 -319t224 -111q138 0 216.5 72t119.5 235l150 -9l-47 -338q-225 -104 -467 -104q-278 0 -425 152t-147 439
q0 269 97.5 475.5t275.5 319.5t410 113z" />
    <glyph glyph-name="D" unicode="D" horiz-adv-x="1452" 
d="M772 1443q303 0 462 -147.5t159 -428.5q0 -260 -103 -459.5t-290.5 -308.5t-432.5 -109q-77 0 -214 5t-229 5h-120l16 104l64 13q46 9 64.5 29t25.5 70l140 1001q4 28 4 36q0 31 -18 44.5t-69 24.5l-38 8l7 104h127q91 0 230 4.5t215 4.5zM563 122q154 0 275.5 96
t188.5 267t67 387q0 210 -90.5 324.5t-256.5 114.5q-81 0 -142 -10l-150 -1073q-3 -18 -3 -33q0 -41 25 -57t86 -16z" />
    <glyph glyph-name="E" unicode="E" horiz-adv-x="1236" 
d="M1193 1071l-162 -10q2 104 -10 152.5t-45 67.5t-105 19h-266l-71 -506h219q49 0 70.5 21.5t44.5 89.5l13 41l136 4l-65 -458l-134 4v71q-1 49 -21 71t-63 22h-219l-60 -432q0 -3 -1.5 -12.5t-1.5 -14.5q0 -39 27 -53t97 -14h164q104 0 146.5 45t79.5 194l161 -10
q-17 -185 -67 -363h-1056l16 104l64 13q46 9 64.5 29t25.5 70l140 1001q4 28 4 36q0 31 -18 44.5t-69 24.5l-38 8l7 104h1030q-1 -180 -37 -363z" />
    <glyph glyph-name="F" unicode="F" horiz-adv-x="1196" 
d="M1192 1067l-162 -10q2 80 -3 124.5t-23.5 72.5t-48.5 37t-84 9h-266l-76 -543h246q49 0 70.5 21.5t44.5 89.5l14 41l136 4l-65 -458l-134 4l-1 71q-1 49 -21 71t-63 22h-246l-54 -383q-4 -24 -4 -46q0 -34 18 -48.5t68 -22.5l96 -16l-16 -107h-614l16 104l64 13
q46 9 64.5 29t25.5 70l140 1001q4 28 4 36q0 31 -18 44.5t-69 24.5l-38 8l7 104h1030q-1 -173 -38 -367z" />
    <glyph glyph-name="G" unicode="G" horiz-adv-x="1419" 
d="M1396 709l-15 -103l-61 -11q-46 -8 -64 -29.5t-25 -72.5l-62 -440q-250 -86 -507 -86q-278 0 -425 152t-147 439q0 202 57 371t160.5 287.5t252 184t327.5 65.5q128 0 265 -25.5t198 -25.5q-15 -175 -52 -367l-158 -10q0 152 -63.5 218.5t-204.5 66.5q-142 0 -253 -100.5
t-171 -278.5t-60 -403q0 -200 79.5 -310t224.5 -110q124 0 229 37l48 335q3 21 3 36q0 31 -18 44t-69 24l-38 9l8 103h541z" />
    <glyph glyph-name="H" unicode="H" horiz-adv-x="1519" 
d="M1555 1434l-16 -104l-76 -11q-45 -7 -63.5 -29t-25.5 -73l-141 -1001q-3 -21 -3 -35q0 -31 17.5 -44t69.5 -23l51 -10l-16 -104h-564l16 104l65 13q43 9 60.5 29t24.5 70l63 447h-502l-63 -447q-3 -21 -3 -36q0 -30 17.5 -43t66.5 -23l50 -10l-15 -104h-564l16 104l64 13
q46 9 64.5 29t25.5 70l140 1001q4 28 4 36q0 31 -18 44.5t-69 24.5l-38 8l7 104h570l-16 -104l-72 -10q-44 -6 -63 -29t-26 -74l-58 -411h502l58 411q3 21 3 36q0 32 -18 46t-68 23l-39 8l16 104h566z" />
    <glyph glyph-name="I" unicode="I" horiz-adv-x="741" 
d="M758 1330l-76 -11q-45 -7 -63.5 -29t-25.5 -73l-140 -1001q-4 -28 -4 -35q0 -31 17.5 -44t69.5 -23l51 -10l-16 -104h-567l16 104l64 13q46 9 64.5 29t25.5 70l140 1001q4 28 4 36q0 31 -18 44.5t-69 24.5l-38 8l7 104h574z" />
    <glyph glyph-name="J" unicode="J" horiz-adv-x="706" 
d="M-119 -406q-30 35 -30 92q0 82 79 108q19 6 66 12t66 19q30 20 45.5 84.5t49.5 306.5l142 1001q3 21 3 36q0 31 -17.5 44.5t-66.5 24.5l-38 8l7 104h574l-16 -104l-76 -11q-45 -7 -63.5 -29t-25.5 -73l-124 -879q-35 -252 -77.5 -370.5t-129.5 -208.5
q-57 -59 -156 -103.5t-212 -61.5z" />
    <glyph glyph-name="K" unicode="K" horiz-adv-x="1320" 
d="M1408 1434l-16 -104q-78 -22 -125 -56t-159 -149l-311 -320q50 -77 71 -119l218 -444q61 -125 155 -140l-15 -96q-67 -20 -140 -20q-114 0 -175.5 46t-123.5 177l-120 252q-78 164 -141 260l411 445q77 83 77 118q0 32 -59 41l-29 5l8 104h474zM449 180q0 -30 16.5 -42.5
t63.5 -22.5l51 -11l-16 -104h-560l16 104l64 13q46 9 64.5 29t25.5 70l140 1001q4 28 4 36q0 31 -18 44.5t-69 24.5l-38 8l7 104h574l-16 -104l-76 -11q-45 -7 -63.5 -29t-25.5 -73l-140 -1001q-4 -28 -4 -36z" />
    <glyph glyph-name="L" unicode="L" horiz-adv-x="1185" 
d="M758 1330l-75 -11q-45 -7 -64 -29t-26 -73l-138 -989q0 -3 -1.5 -12.5t-1.5 -14.5q0 -39 27 -53t97 -14h139q100 0 143.5 60.5t83.5 232.5l167 -10q-24 -234 -75 -417h-1030l16 104l64 13q46 9 64.5 29t25.5 70l140 1001q4 28 4 36q0 31 -18 44.5t-69 24.5l-38 8l7 104
h574z" />
    <glyph glyph-name="M" unicode="M" horiz-adv-x="1925" 
d="M1915 1434l-16 -104l-75 -11q-47 -7 -67 -29.5t-23 -72.5l-65 -1001q-4 -57 10 -73.5t74 -28.5l51 -10l-16 -104h-556l16 104l65 13q43 8 60 29.5t21 69.5l38 502q20 266 45 444q-92 -214 -246 -528l-311 -634h-210l-114 609q-64 343 -85 547q-26 -179 -84 -439
l-111 -501q-5 -20 -5 -40q0 -27 18 -40t64 -22l50 -10l-15 -104h-459l16 104l65 13q44 9 60.5 27t28.5 72l223 1001q6 24 6 40q0 27 -19.5 40.5t-70.5 24.5l-38 8l8 104h472l189 -1079l522 1079h484z" />
    <glyph glyph-name="N" unicode="N" horiz-adv-x="1484" 
d="M1538 1434l-16 -104l-76 -11q-45 -7 -63.5 -29t-25.5 -73l-171 -1217h-268l-343 839q-63 155 -103 349q-9 -169 -29 -311l-93 -661q-3 -21 -3 -35q0 -31 17.5 -44t68.5 -23l51 -10l-16 -104h-464l16 104l64 13q46 9 64.5 29t25.5 70l140 1001q4 28 4 36q0 31 -18 44.5
t-69 24.5l-38 8l7 104h424l343 -839q56 -137 95 -308q9 148 26 270l93 660q3 21 3 36q0 31 -17.5 44.5t-68.5 24.5l-38 8l7 104h471z" />
    <glyph glyph-name="O" unicode="O" horiz-adv-x="1505" 
d="M872 1466q273 0 423 -156t150 -442q0 -268 -97.5 -472.5t-275.5 -316.5t-411 -112q-266 0 -418 164.5t-152 450.5q0 264 96.5 464.5t274 310t410.5 109.5zM850 1323q-132 0 -237.5 -99.5t-164.5 -276t-59 -397.5q0 -207 78 -323t216 -116q130 0 236.5 103.5t167 284
t60.5 400.5q0 204 -77 314t-220 110z" />
    <glyph glyph-name="P" unicode="P" horiz-adv-x="1247" 
d="M499 545l-43 -305q-4 -24 -4 -46q0 -34 18 -48.5t68 -22.5l96 -16l-16 -107h-614l16 104l64 13q46 9 64.5 29t25.5 70l140 1001q4 28 4 36q0 31 -18 44.5t-69 24.5l-38 8l7 104h127q91 0 230 4.5t215 4.5q241 0 358.5 -89.5t117.5 -271.5q0 -259 -163.5 -400.5
t-463.5 -141.5q-72 0 -122 5zM960 1074q0 237 -213 237q-81 0 -142 -10l-87 -620q50 -5 122 -5q149 0 234.5 106.5t85.5 291.5z" />
    <glyph glyph-name="Q" unicode="Q" horiz-adv-x="1505" 
d="M1324 -23q50 0 77 -26.5t27 -76.5q0 -48 -19 -96q-93 -42 -196 -42q-143 0 -246.5 64t-152.5 181q-76 -14 -153 -14q-266 0 -418 164.5t-152 450.5q0 264 96.5 464.5t274 310t410.5 109.5q273 0 423 -156t150 -442q0 -309 -128.5 -530.5t-353.5 -313.5q71 -79 186 -79
q40 0 92.5 16t82.5 16zM389 550q0 -207 78 -323t216 -116q130 0 236.5 103.5t167 284t60.5 400.5q0 204 -77 314t-220 110q-132 0 -237.5 -99.5t-164.5 -276t-59 -397.5z" />
    <glyph glyph-name="R" unicode="R" horiz-adv-x="1323" 
d="M1118 188q20 -46 45.5 -64t72.5 -20l-15 -96q-64 -22 -163 -22q-112 0 -161 37.5t-79 146.5l-85 310q-23 83 -58 114.5t-107 31.5q-32 0 -62 -3l-57 -407q-3 -21 -3 -36q0 -30 16.5 -42.5t63.5 -22.5l50 -11l-16 -104h-556l16 104l64 13q46 9 64.5 29t25.5 70l140 1001
q4 28 4 36q0 31 -18 44.5t-69 24.5l-38 8l7 104h127q91 0 230 4.5t215 4.5q232 0 343.5 -77t111.5 -237q0 -169 -96.5 -278.5t-271.5 -144.5q50 -18 84.5 -60.5t66.5 -121.5q23 -58 56.5 -176t51.5 -160zM649 765q131 0 212 92.5t81 244.5q0 209 -199 209q-81 0 -142 -10
l-74 -531q50 -5 122 -5z" />
    <glyph glyph-name="S" unicode="S" horiz-adv-x="1114" 
d="M673 1466q99 0 184.5 -13.5t147 -27t101.5 -13.5l-55 -338l-151 -6q-6 140 -59.5 204.5t-163.5 64.5q-98 0 -156.5 -63t-58.5 -168q0 -59 30 -107.5t77.5 -84.5t105 -70.5t115 -73t105 -84t77.5 -112.5t30 -149q0 -213 -139.5 -335.5t-381.5 -122.5q-139 0 -265 32
t-199 86q7 154 46 319l156 6q-5 -152 57.5 -232.5t186.5 -80.5q111 0 183.5 71t72.5 180q0 62 -29.5 113t-76.5 88t-104 72t-114.5 73t-104.5 81.5t-76.5 108.5t-29.5 144q0 200 132.5 319t356.5 119z" />
    <glyph glyph-name="T" unicode="T" horiz-adv-x="1323" 
d="M184 1434h1188q-1 -179 -40 -384l-169 -10q2 48 2 66q0 120 -29.5 157t-122.5 37h-115l-149 -1060q-5 -32 -5 -48q0 -35 18 -50t67 -23l79 -14l-16 -105h-624l16 105l93 16q46 8 65.5 33t27.5 86l149 1060h-115q-72 0 -109.5 -20.5t-62 -72.5t-51.5 -167l-167 10
q18 197 70 384z" />
    <glyph glyph-name="U" unicode="U" horiz-adv-x="1441" 
d="M730 1330l-76 -11q-45 -7 -63.5 -29t-25.5 -73l-99 -704q-10 -73 -10 -121q0 -282 244 -282q141 0 220 93t107 295l101 719q4 28 4 36q0 32 -18 45.5t-69 23.5l-42 8l15 104h484l-15 -104l-76 -11q-45 -7 -63.5 -29t-25.5 -73l-104 -738q-35 -254 -179.5 -383
t-391.5 -129q-236 0 -352 104.5t-116 316.5q0 67 10 137l97 692q3 21 3 36q0 31 -18 44.5t-69 24.5l-38 8l8 104h574z" />
    <glyph glyph-name="V" unicode="V" horiz-adv-x="1384" 
d="M1497 1434l-16 -104l-53 -7q-50 -7 -80 -40t-84 -142l-562 -1145h-198l-232 1145q-22 109 -41.5 141t-69.5 41l-37 7l8 104h580l-16 -104l-53 -7q-53 -7 -75 -28t-22 -68q0 -31 11 -86l147 -781l364 781q42 92 42 124q0 27 -21.5 39.5t-72.5 19.5l-41 6l16 104h506z" />
    <glyph glyph-name="W" unicode="W" horiz-adv-x="2048" 
d="M2161 1434l-15 -104l-53 -7q-53 -7 -85 -42.5t-79 -139.5l-518 -1145h-198l-132 975l-435 -975h-197l-172 1145q-16 104 -36.5 138t-73.5 44l-37 7l7 104h574l-16 -104l-53 -7q-54 -7 -74 -26.5t-20 -70.5q0 -24 7 -85l95 -747l445 1040h187l132 -1040l318 747
q42 96 42 128q0 26 -21 37t-73 18l-40 6l16 104h505z" />
    <glyph glyph-name="X" unicode="X" horiz-adv-x="1255" 
d="M1345 1434l-16 -104l-34 -4q-57 -7 -87 -32.5t-107 -132.5l-301 -415l201 -474q42 -99 64 -124.5t74 -37.5l28 -6l-15 -104h-559l16 104l35 6q47 8 67.5 23.5t20.5 44.5t-19 76l-127 317l-224 -317q-45 -63 -45 -94q0 -36 73 -48l53 -8l-16 -104h-493l16 104l35 6
q60 10 90 35.5t103 126.5l306 423l-198 466q-44 103 -65.5 128.5t-71.5 35.5l-25 5l8 104h562l-16 -104l-34 -4q-89 -10 -89 -68q0 -29 20 -78l124 -310l219 310q45 63 45 96q0 39 -74 48l-53 6l16 104h493z" />
    <glyph glyph-name="Y" unicode="Y" horiz-adv-x="1327" 
d="M1431 1434l-16 -104l-38 -5q-44 -5 -68 -18t-52.5 -47t-85.5 -119l-365 -545l-51 -356q-5 -32 -5 -48q0 -35 18 -50t67 -23l79 -14l-16 -105h-624l16 105l93 16q46 8 65.5 33.5t27.5 85.5l51 356l-239 545q-29 67 -43.5 97.5t-31.5 51t-29 25.5t-38 10l-25 5l8 104h587
l-16 -104l-50 -6q-50 -6 -73.5 -23t-23.5 -50q0 -31 23 -85l168 -388l252 388q48 74 48 107q0 41 -77 50l-55 7l16 104h503z" />
    <glyph glyph-name="Z" unicode="Z" horiz-adv-x="1226" 
d="M1242 1321l-903 -1187h386q52 0 86 12.5t59.5 46.5t42 80t35.5 126l166 -10q-18 -204 -70 -389h-1053l5 113l903 1187h-353q-72 0 -109.5 -20.5t-62 -72.5t-51.5 -167l-167 10q18 197 70 384h1020z" />
    <glyph glyph-name="bracketleft" unicode="[" horiz-adv-x="585" 
d="M659 1544l-19 -134h-176l-236 -1686h175l-19 -134h-396l275 1954h396z" />
    <glyph glyph-name="backslash" unicode="\" horiz-adv-x="770" 
d="M574 -377h-192l-204 1856h191z" />
    <glyph glyph-name="bracketright" unicode="]" horiz-adv-x="585" 
d="M-87 -410l19 134h176l236 1686h-175l19 134h396l-275 -1954h-396z" />
    <glyph glyph-name="asciicircum" unicode="^" horiz-adv-x="1093" 
d="M826 614l-172 620l-376 -620h-209l530 840h177l254 -840h-204z" />
    <glyph glyph-name="underscore" unicode="_" horiz-adv-x="1024" 
d="M888 -352h-1024l23 161h1024z" />
    <glyph glyph-name="grave" unicode="`" horiz-adv-x="1024" 
d="M366 1556l383 -242q-27 -80 -62 -122l-412 193q27 90 91 171z" />
    <glyph glyph-name="a" unicode="a" horiz-adv-x="1177" 
d="M935 183q0 -33 15 -45.5t51 -12.5q38 0 65 4l-7 -101q-121 -48 -208 -48q-82 0 -121 29t-39 92q0 93 86 378h-2q-151 -504 -444 -504q-147 0 -212 87.5t-65 279.5q0 148 40.5 284.5t109 236t162.5 159t196 59.5q161 0 246 -111l5 12q24 55 51.5 77t74.5 22q63 0 130 -35
l-129 -814q-5 -32 -5 -49zM405 147q38 0 88.5 45.5t100.5 123t93.5 195t63.5 246.5l13 88q-50 85 -129 85q-77 0 -147.5 -84.5t-112.5 -223.5t-42 -292q0 -97 16.5 -140t55.5 -43z" />
    <glyph glyph-name="b" unicode="b" horiz-adv-x="1171" 
d="M793 1081q156 0 228.5 -88.5t72.5 -278.5q0 -148 -42 -284.5t-112 -236t-166.5 -159t-201.5 -59.5q-168 0 -254 107l-3 -8q-24 -55 -51.5 -77t-74.5 -22q-62 0 -129 35l172 1228q7 45 7 73q0 25 -7.5 34t-26.5 9q-37 0 -84 -16v101q50 32 130 55.5t148 23.5
q75 0 97.5 -17t22.5 -71q0 -79 -51 -338.5t-120 -514.5h3q33 108 73.5 194.5t94.5 158.5t124 111.5t150 39.5zM496 126q80 0 153 84.5t116.5 223.5t43.5 292q0 96 -21 139.5t-67 43.5q-38 0 -89 -45.5t-101 -123t-93.5 -195t-63.5 -246.5l-14 -88q51 -85 136 -85z" />
    <glyph glyph-name="c" unicode="c" horiz-adv-x="962" 
d="M431 -25q-181 0 -277 109t-96 314q0 306 164 494.5t433 188.5q174 0 296 -82q8 -20 8 -54q0 -65 -35 -103t-95 -38q-43 0 -71 22t-39.5 48t-34.5 48t-58 22q-75 0 -139.5 -72t-102.5 -193.5t-38 -259.5q0 -134 51 -204.5t148 -70.5q133 0 254 101l38 -128
q-96 -74 -192 -108t-214 -34z" />
    <glyph glyph-name="d" unicode="d" horiz-adv-x="1202" 
d="M1131 1288l-168 -1056q-5 -32 -5 -49q0 -33 15 -45.5t52 -12.5t64 4l-7 -101q-121 -48 -208 -48q-82 0 -121 29t-39 92q0 93 86 378h-2q-151 -504 -444 -504q-156 0 -228.5 88.5t-72.5 278.5q0 148 42 284.5t112 236t166.5 159t201.5 59.5q157 0 242 -105q9 117 32 262
q8 51 8 73q0 25 -8 34t-27 9q-36 0 -83 -16v101q50 32 132.5 55.5t151.5 23.5q77 0 100 -17t23 -71q0 -49 -15 -142zM426 147q38 0 89 45.5t101.5 123t94 195t63.5 246.5l13 88q-51 85 -135 85q-80 0 -153 -84t-117 -223.5t-44 -292.5q0 -96 21 -139.5t67 -43.5z" />
    <glyph glyph-name="e" unicode="e" horiz-adv-x="1044" 
d="M394 435q-38 0 -55 2v-18q0 -278 230 -278q154 0 275 101l39 -125q-96 -75 -195.5 -108.5t-232.5 -33.5q-197 0 -297 108t-100 315q0 306 164 494.5t433 188.5q344 0 344 -253q0 -186 -159.5 -289.5t-445.5 -103.5zM617 944q-93 0 -167 -108t-100 -273q28 -2 37 -2
q160 0 256 70.5t96 189.5q0 123 -122 123z" />
    <glyph glyph-name="f" unicode="f" horiz-adv-x="743" 
d="M957 1482q7 -21 7 -48q0 -61 -30.5 -93.5t-86.5 -32.5q-35 0 -64 13.5t-45.5 29t-41 29t-52.5 13.5q-87 0 -108 -152l-26 -185h260l-19 -137h-256l-128 -914q-33 -235 -124.5 -345.5t-252.5 -110.5q-94 0 -173 41l28 129q44 -23 92 -23q46 0 73.5 26.5t46.5 90t36 186.5
l129 920h-124l13 113q41 13 134 21l12 91q52 374 446 374q130 0 254 -36z" />
    <glyph glyph-name="g" unicode="g" horiz-adv-x="1087" 
d="M1117 1064q7 -22 7 -51q0 -109 -111 -109q-64 0 -180 48q53 -34 83 -91t30 -122q0 -161 -132.5 -266t-335.5 -105q-86 0 -154 21q-49 -35 -49 -79q0 -39 34 -60t112 -32l190 -26q177 -25 252 -80t75 -160q0 -183 -157.5 -293t-419.5 -110q-200 0 -311.5 67t-111.5 187
q0 198 251 261q-124 51 -124 168q0 136 170 199q-132 86 -132 249q0 182 129.5 291.5t346.5 109.5q107 0 192 -40q170 2 346 23zM496 495q90 0 146 79t56 207q0 83 -36 127.5t-103 44.5q-92 0 -147 -75.5t-55 -200.5q0 -82 38 -132t101 -50zM675 -129q0 48 -30.5 76
t-105 46.5t-221.5 34.5q-148 -62 -148 -193q0 -77 59 -121.5t160 -44.5q126 0 206 56.5t80 145.5z" />
    <glyph glyph-name="h" unicode="h" horiz-adv-x="1202" 
d="M1031 125q37 0 64 4l-7 -101q-121 -48 -222 -48q-97 0 -139.5 32.5t-42.5 110.5q0 41 8 84l99 563q7 42 7 63q0 40 -16 58t-49 18q-38 0 -91.5 -45.5t-106.5 -123t-98 -195.5t-63 -246l-42 -299h-274l174 1238q7 45 7 73q0 25 -7.5 34t-26.5 9q-37 0 -84 -16v101
q50 32 130 55.5t148 23.5q75 0 97.5 -17t22.5 -71q0 -80 -50.5 -340t-118.5 -513h3q34 107 76 194t97.5 159t126.5 111.5t152 39.5q132 0 200.5 -56.5t68.5 -163.5q0 -32 -6 -68l-99 -561q-5 -33 -5 -50q0 -32 15 -44.5t52 -12.5z" />
    <glyph glyph-name="i" unicode="i" horiz-adv-x="636" 
d="M248 1348q0 77 49 125t129 48q59 0 95.5 -35t36.5 -90q0 -77 -49.5 -125t-129.5 -48q-58 0 -94.5 34.5t-36.5 90.5zM392 1081q77 0 100 -17t23 -71q0 -52 -16 -142l-108 -619q-6 -40 -6 -50q0 -32 15 -44.5t52 -12.5q38 0 65 4l-7 -101q-121 -48 -223 -48
q-97 0 -139.5 32.5t-42.5 110.5q0 36 9 84l104 594q9 48 9 73q0 24 -8.5 33.5t-27.5 9.5q-36 0 -83 -16v101q50 32 132.5 55.5t151.5 23.5z" />
    <glyph glyph-name="j" unicode="j" horiz-adv-x="600" 
d="M241 1348q0 77 49.5 125t129.5 48q58 0 94.5 -34.5t36.5 -90.5q0 -77 -49.5 -125t-129.5 -48q-58 0 -94.5 34.5t-36.5 90.5zM101 901v101q49 32 132 55t152 23q77 0 100 -16.5t23 -70.5q0 -35 -15 -142l-76 -537q-36 -257 -79 -384.5t-128 -215.5q-57 -59 -154.5 -103.5
t-210.5 -61.5q-30 35 -30 92q0 78 79 104q19 6 65.5 12t65.5 19q30 20 46 86.5t50 308.5l88 630q7 46 7 74q0 24 -7.5 33t-24.5 9q-36 0 -83 -16z" />
    <glyph glyph-name="k" unicode="k" horiz-adv-x="1099" 
d="M528 1430q0 -37 -15 -142l-181 -1288h-274l174 1238q7 45 7 73q0 25 -7.5 34t-26.5 9q-37 0 -84 -16v101q50 32 132.5 55.5t151.5 23.5q77 0 100 -17t23 -71zM876 875q-32 0 -75 -41.5t-150 -174.5q51 -97 110 -219l102 -212q27 -56 52 -79.5t59 -23.5q28 0 41 4l-7 -101
q-85 -48 -186 -48q-89 0 -137 46.5t-113 194.5l-85 190q-29 67 -75 151l262 344q76 100 133 137.5t135 37.5q66 0 130 -25q17 -40 17 -80q0 -61 -30 -96.5t-82 -35.5q-27 0 -53.5 15.5t-47.5 15.5z" />
    <glyph glyph-name="l" unicode="l" horiz-adv-x="602" 
d="M422 1518q77 0 100 -17t23 -71q0 -49 -15 -142l-168 -1056q-4 -25 -4 -49q0 -33 15 -45.5t51 -12.5q38 0 65 4l-7 -101q-121 -48 -223 -48q-97 0 -139 32.5t-42 112.5q0 32 8 82l163 1031q8 51 8 73q0 25 -8 34t-27 9q-37 0 -84 -16v101q50 32 132.5 55.5t151.5 23.5z
" />
    <glyph glyph-name="m" unicode="m" horiz-adv-x="1830" 
d="M1659 125q38 0 65 4l-7 -101q-121 -48 -223 -48q-97 0 -139.5 32.5t-42.5 110.5q0 36 9 84l99 563q7 36 7 66q0 39 -13.5 56t-43.5 17q-29 0 -69.5 -28t-85 -83.5t-85.5 -127.5t-75 -169.5t-50 -201.5l-46 -299h-274l135 770q7 36 7 66q0 39 -13.5 56t-43.5 17
q-29 0 -69.5 -28t-85 -83.5t-85.5 -127.5t-75 -169.5t-50 -201.5l-46 -299h-273l126 801q7 45 7 73q0 25 -8 34t-27 9q-36 0 -83 -16v101q49 32 129.5 55.5t141.5 23.5q55 0 77.5 -19t22.5 -65q0 -44 -26.5 -168t-63.5 -252h3q34 107 76.5 194t98.5 159t128 111.5t154 39.5
q213 0 213 -160q0 -84 -73 -344h3q27 85 59 157t74 137.5t89.5 110.5t107.5 72t126 27q127 0 194.5 -56.5t67.5 -162.5q0 -27 -7 -69l-98 -561q-6 -40 -6 -50q0 -32 15 -44.5t52 -12.5z" />
    <glyph glyph-name="n" unicode="n" horiz-adv-x="1234" 
d="M1062 125q38 0 65 4l-7 -101q-121 -48 -223 -48q-97 0 -139.5 32.5t-42.5 110.5q0 36 9 84l99 563q7 36 7 66q0 39 -13.5 56t-43.5 17q-38 0 -92 -45.5t-108 -123t-101 -195.5t-67 -246l-46 -299h-273l126 801q7 45 7 73q0 25 -8 34t-27 9q-36 0 -83 -16v101
q49 32 129.5 55.5t141.5 23.5q55 0 77.5 -19t22.5 -65q0 -44 -26.5 -168t-63.5 -252h3q27 85 59 157t74.5 137.5t90 110.5t108 72t127.5 27q127 0 194.5 -56.5t67.5 -162.5q0 -27 -7 -69l-98 -561q-6 -40 -6 -50q0 -32 15 -44.5t52 -12.5z" />
    <glyph glyph-name="o" unicode="o" 
d="M58 400q0 305 164 493t431 188q208 0 314 -105t106 -311q0 -310 -163.5 -500t-432.5 -190q-202 0 -310.5 110.5t-108.5 314.5zM631 944q-82 0 -148.5 -77.5t-104 -211t-37.5 -294.5q0 -118 41.5 -183.5t116.5 -65.5q80 0 147.5 79.5t106 215.5t38.5 296q0 118 -41 179.5
t-119 61.5z" />
    <glyph glyph-name="p" unicode="p" horiz-adv-x="1210" 
d="M833 1081q156 0 229 -88.5t73 -278.5q0 -197 -71 -368t-191.5 -271t-260.5 -100q-158 0 -243 108q-12 -172 -37 -355l-22 -158h-273l173 1231q7 45 7 73q0 25 -7.5 34t-26.5 9q-36 0 -83 -16v101q49 32 129 55.5t141 23.5q55 0 77.5 -19t22.5 -65q0 -96 -83 -420h3
q151 504 443 504zM536 126q80 0 153 84t117 223.5t44 292.5q0 96 -21 139.5t-67 43.5q-38 0 -89 -45.5t-101.5 -123t-94 -195t-63.5 -246.5l-14 -88q51 -85 136 -85z" />
    <glyph glyph-name="q" unicode="q" horiz-adv-x="1169" 
d="M958 1081q63 0 130 -35l-207 -1476h-273l14 102q50 358 177 807h-3q-33 -108 -73.5 -194.5t-94.5 -158.5t-124 -111.5t-150 -39.5q-156 0 -228.5 88.5t-72.5 278.5q0 148 42 284.5t112 236t166.5 159t201.5 59.5q167 0 254 -108l3 9q24 55 51.5 77t74.5 22zM426 147
q38 0 89 45.5t101.5 123t94 195t63.5 246.5l13 88q-51 85 -135 85q-80 0 -153 -84t-117 -223.5t-44 -292.5q0 -96 21 -139.5t67 -43.5z" />
    <glyph glyph-name="r" unicode="r" horiz-adv-x="884" 
d="M901 1039q7 -21 7 -59q0 -81 -32.5 -124t-93.5 -43q-41 0 -73.5 22.5t-57.5 22.5q-40 0 -87.5 -74t-87.5 -196.5t-59 -255.5l-47 -332h-271l113 801q7 45 7 73q0 25 -8 34t-27 9q-36 0 -83 -16v101q49 32 129.5 55.5t141.5 23.5q55 0 77.5 -19t22.5 -65t-25.5 -171
t-61.5 -249h3q142 504 350 504q92 0 163 -42z" />
    <glyph glyph-name="s" unicode="s" horiz-adv-x="921" 
d="M826 770l-130 -7q-7 202 -166 202q-61 0 -100 -40.5t-39 -104.5q0 -42 23 -77.5t59 -62t80.5 -52.5t88.5 -55t80 -63t59 -83.5t23 -109.5q0 -157 -116.5 -249.5t-314.5 -92.5q-240 0 -364 102q6 116 35 234l134 6q7 -226 190 -226q70 0 115.5 44.5t45.5 112.5
q0 43 -22.5 80t-58.5 64.5t-79 54t-86.5 55.5t-79.5 62.5t-58.5 82t-22.5 106.5q0 151 108 239.5t292 88.5q91 0 194.5 -24.5t154.5 -24.5z" />
    <glyph glyph-name="t" unicode="t" horiz-adv-x="759" 
d="M498 919l-96 -633q-3 -22 -3 -42q0 -101 100 -101q69 0 149 54l25 -118q-147 -104 -324 -104q-123 0 -179.5 46t-56.5 146q0 35 6 75l104 677h-119l13 113q19 6 77.5 15.5t77.5 9.5q48 113 101 199q25 41 44 54t54 13q31 0 81 -11l-39 -256h287l-20 -137h-282z" />
    <glyph glyph-name="u" unicode="u" horiz-adv-x="1228" 
d="M985 183q0 -33 15 -45.5t51 -12.5q38 0 65 4l-7 -101q-121 -48 -209 -48q-82 0 -121 29t-39 92q0 90 87 378h-3q-153 -504 -457 -504q-258 0 -258 233q0 38 10 98l86 495q9 48 9 73q0 24 -8.5 33.5t-27.5 9.5q-36 0 -83 -16v101q50 32 132.5 55.5t151.5 23.5
q77 0 99.5 -17t22.5 -71q0 -58 -15 -142l-93 -530q-10 -56 -10 -95q0 -42 13.5 -60.5t41.5 -18.5q44 0 98 45.5t105.5 123t95 194.5t63.5 247l46 299h274l-131 -824q-4 -25 -4 -49z" />
    <glyph glyph-name="v" unicode="v" horiz-adv-x="1087" 
d="M958 1081q59 0 87 -29t28 -89q0 -138 -143.5 -400.5t-387.5 -572.5q-91 1 -192 20l-118 713q-21 123 -38 158.5t-54 35.5t-82 -16l-6 101q47 32 124 55.5t133 23.5q60 0 91 -22t51.5 -81t40.5 -185l43 -272q29 -182 35 -260q111 164 191.5 337t80.5 252q0 67 -54 67
q-28 0 -73 -16l-7 101q47 32 121.5 55.5t128.5 23.5z" />
    <glyph glyph-name="w" unicode="w" horiz-adv-x="1714" 
d="M1571 1081q59 0 87 -29t28 -89q0 -147 -140.5 -422t-357.5 -551q-82 1 -184 20l-84 491q-18 105 -27 185q-142 -407 -339 -696q-104 2 -204 20l-118 713q-21 123 -38 158.5t-54 35.5t-82 -16l-6 101q47 32 124 55.5t133 23.5q60 0 91.5 -21.5t52 -79t36.5 -176.5l36 -258
q20 -144 28 -281q185 363 289 779q115 24 231 24q31 -84 60 -276l41 -263q26 -165 35 -263q103 156 174.5 325t71.5 259q0 67 -54 67q-28 0 -73 -16l-7 101q47 32 121.5 55.5t128.5 23.5z" />
    <glyph glyph-name="x" unicode="x" horiz-adv-x="1071" 
d="M1068 1059q16 -38 16 -84q0 -58 -27 -91t-74 -33q-16 0 -41 6t-43 6q-63 0 -124 -96t-88 -229l85 -257q32 -97 56 -126.5t71 -29.5q32 0 51 4l-7 -107q-84 -42 -190 -42q-96 0 -142.5 39.5t-77.5 147.5l-71 247q-25 -197 -115 -318t-216 -121q-81 0 -144 22
q-16 38 -16 83q0 58 27 91.5t74 33.5q16 0 41 -6t43 -6q62 0 122 93t88 224l-87 262q-28 86 -49.5 115.5t-55.5 29.5q-29 0 -74 -16l-7 101q49 34 114 56.5t118 22.5q80 0 119.5 -40t73.5 -157l73 -252q23 201 114 325t219 124q81 0 144 -22z" />
    <glyph glyph-name="y" unicode="y" horiz-adv-x="1116" 
d="M960 1081q59 0 87 -29t28 -89q0 -176 -109 -444t-295 -549q-148 -224 -285.5 -322.5t-302.5 -98.5q-59 0 -103 12q-16 35 -16 85q0 61 31.5 94.5t88.5 33.5q29 0 65.5 -13.5t60.5 -13.5q77 0 122 78t45 215q0 185 -112 622q-41 162 -64 208.5t-62 46.5q-36 0 -81 -16
l-7 101q47 32 124 55.5t133 23.5q43 0 70 -11.5t51.5 -48t44 -95.5t44.5 -164q81 -337 81 -582q0 -50 -2 -72q106 186 176.5 389t70.5 327q0 52 -12 72.5t-42 20.5q-28 0 -73 -16l-7 101q47 32 121.5 55.5t128.5 23.5z" />
    <glyph glyph-name="z" unicode="z" horiz-adv-x="1015" 
d="M288 115h291q70 0 106.5 44.5t68.5 163.5l142 -9q-9 -148 -52 -314q-101 -3 -302 -3q-63 0 -156 4.5t-145 4.5q-111 0 -163 -28q-66 49 -90 144q158 168 358 418l320 401h-240q-72 0 -107.5 -41.5t-68.5 -164.5l-142 9q9 146 52 312h795q29 -46 33 -106l-439 -549
q-136 -172 -261 -286z" />
    <glyph glyph-name="braceleft" unicode="{" horiz-adv-x="663" 
d="M738 1544l-19 -129h-42q-64 0 -94 -35.5t-42 -122.5l-46 -328q-19 -138 -84 -230t-165 -124q72 -32 112 -108t40 -181q0 -38 -6 -80l-46 -329q-4 -28 -4 -56q0 -54 23.5 -77.5t75.5 -23.5h41l-19 -130h-162q-95 0 -140 50.5t-45 156.5q0 45 7 94l47 334q6 45 6 83
q0 92 -36 139.5t-106 47.5l21 146q84 0 138 68.5t73 199.5l47 334q22 156 85.5 228.5t179.5 72.5h160z" />
    <glyph glyph-name="bar" unicode="|" horiz-adv-x="448" 
d="M169 -430h-186l281 1989h186z" />
    <glyph glyph-name="braceright" unicode="}" horiz-adv-x="663" 
d="M474 827q0 -186 142 -186l-21 -146q-84 0 -138 -69.5t-73 -200.5l-47 -334q-22 -156 -85.5 -228.5t-179.5 -72.5h-160l19 130h42q64 0 94.5 35t42.5 122l45 329q19 138 84 229.5t165 123.5q-72 32 -112 108t-40 181q0 39 6 81l46 328q4 28 4 56q0 54 -23.5 78t-75.5 24
h-40l18 129h162q95 0 140.5 -50.5t45.5 -155.5q0 -39 -8 -95l-47 -334q-6 -45 -6 -82z" />
    <glyph glyph-name="asciitilde" unicode="~" horiz-adv-x="1183" 
d="M816 608q67 0 118.5 23.5t106.5 79.5l25 -125q-127 -139 -295 -139q-71 0 -132.5 13t-97.5 28.5t-85.5 28.5t-99.5 13q-67 0 -118.5 -23.5t-106.5 -79.5l-25 125q128 140 295 140q71 0 132.5 -13t97.5 -29t85.5 -29t99.5 -13z" />
    <glyph glyph-name="uni00A0" unicode="&#xa0;" horiz-adv-x="458" 
 />
    <glyph glyph-name="exclamdown" unicode="&#xa1;" horiz-adv-x="524" 
d="M138 889q0 85 54.5 139.5t139.5 54.5q64 0 103 -40.5t39 -107.5q0 -85 -54.5 -139.5t-139.5 -54.5q-64 0 -103 40.5t-39 107.5zM351 579l-75 -996l-317 -11l207 1007h185z" />
    <glyph glyph-name="cent" unicode="&#xa2;" horiz-adv-x="995" 
d="M631 944q-75 0 -139.5 -72t-102.5 -193.5t-38 -259.5q0 -134 51 -204.5t149 -70.5q71 0 130 24t123 77l39 -128q-139 -108 -287 -132l-29 -210h-137l28 201q-173 5 -264 113.5t-91 308.5q0 280 138.5 463t370.5 214l29 206h137l-29 -202q142 -9 248 -80q8 -20 8 -54
q0 -65 -35 -103t-95 -38q-36 0 -60.5 14.5t-37.5 35t-25.5 41t-32 35t-48.5 14.5z" />
    <glyph glyph-name="sterling" unicode="&#xa3;" horiz-adv-x="1228" 
d="M807 1337q-94 0 -147.5 -75.5t-76.5 -243.5l-27 -194h338l-19 -143h-340q-35 -216 -85.5 -347t-124.5 -202q87 9 175 9h217q101 0 144.5 58t83.5 228l167 -10q-24 -234 -75 -417h-1056l18 114q107 14 165.5 138t101.5 429h-162l19 143h164l24 173q66 469 489 469
q119 0 239.5 -27t159.5 -27l-55 -338l-151 -6q-6 141 -49.5 205t-136.5 64z" />
    <glyph glyph-name="currency" unicode="&#xa4;" horiz-adv-x="1142" 
d="M1018 641q0 -254 -156 -399l115 -166l-156 -102l-102 179q-97 -38 -216 -38t-205 39l-155 -180l-126 116l159 161q-64 87 -64 221q0 250 153 392l-114 167l155 102l103 -179q97 38 217 38q121 0 204 -34l152 175l126 -116l-153 -154q63 -86 63 -222zM521 254
q67 0 123.5 55t89 148.5t32.5 202.5q0 194 -156 194q-105 0 -175.5 -116t-70.5 -284q0 -96 41 -148t116 -52z" />
    <glyph glyph-name="yen" unicode="&#xa5;" horiz-adv-x="1421" 
d="M1473 1434l-16 -104l-38 -5q-44 -5 -67.5 -18t-52 -47t-85.5 -119l-219 -326h224l-18 -125h-290l-63 -94l-6 -43h340l-18 -125h-340l-27 -188q-4 -25 -4 -48q0 -35 18 -50t67 -23l79 -14l-16 -105h-624l15 105l94 16q46 8 65 33.5t27 85.5l27 188h-339l17 125h340l6 43
l-41 94h-285l17 125h213l-143 326q-30 68 -44 97.5t-30.5 51t-28.5 26t-38 9.5l-25 5l7 104h587l-15 -104l-51 -6q-50 -6 -73.5 -23t-23.5 -50q0 -31 23 -85l169 -388l252 388q48 74 48 107q0 41 -77 50l-56 7l16 104h503z" />
    <glyph glyph-name="brokenbar" unicode="&#xa6;" horiz-adv-x="479" 
d="M368 862h-186l98 697h186zM186 -430h-186l98 696h186z" />
    <glyph glyph-name="section" unicode="&#xa7;" horiz-adv-x="1013" 
d="M632 1343q-61 0 -99.5 -41t-38.5 -105q0 -48 24 -91t62 -78t84 -69t92.5 -71.5t84.5 -78.5t62 -96.5t24 -118.5q0 -130 -75 -221t-212 -130q68 -58 105.5 -120.5t37.5 -143.5q0 -157 -116.5 -249t-314.5 -92q-242 0 -365 101q6 111 36 234l134 6q7 -226 189 -226
q70 0 115.5 44.5t45.5 112.5q0 49 -23.5 93.5t-60.5 80t-82 70.5t-90.5 72.5t-82.5 78.5t-60.5 95t-23.5 115q0 133 77.5 223t217.5 123q-73 60 -113.5 124t-40.5 146q0 151 108 239t292 88q91 0 194 -24t154 -24l-44 -263l-130 -6q-7 202 -167 202zM685 514q0 52 -30 102
t-65.5 81.5t-97.5 77.5q-80 -11 -126 -60t-46 -122q0 -33 12.5 -64.5t28.5 -54.5t49 -52.5t54.5 -46t64.5 -47.5q73 19 114.5 68t41.5 118z" />
    <glyph glyph-name="dieresis" unicode="&#xa8;" horiz-adv-x="1024" 
d="M172 1351q0 67 44.5 109.5t113.5 42.5q50 0 82 -33t32 -85q0 -67 -44.5 -110t-113.5 -43q-50 0 -82 33.5t-32 85.5zM580 1351q0 67 44.5 109.5t113.5 42.5q50 0 82 -33t32 -85q0 -67 -44.5 -110t-113.5 -43q-50 0 -82 33.5t-32 85.5z" />
    <glyph glyph-name="copyright" unicode="&#xa9;" horiz-adv-x="1724" 
d="M107 717q0 218 103.5 395.5t279.5 276t387 98.5q220 0 396 -99t275 -275t99 -396q0 -218 -103.5 -395.5t-279.5 -276t-387 -98.5t-387 98.5t-279.5 276t-103.5 395.5zM261 717q0 -134 48 -252t130.5 -201t196 -131t241.5 -48t241.5 48t196 131t130.5 201t48 252t-48 252
t-130.5 201t-196 131t-241.5 48t-241.5 -48t-196 -131t-130.5 -201t-48 -252zM914 1069q66 0 134.5 -13t97.5 -13q2 -48 2 -95q0 -50 -2 -88l-102 -6q-15 128 -124 128q-158 0 -158 -264q0 -265 158 -265q120 0 135 135l99 -6v-170q-100 -47 -240 -47q-178 0 -268 91.5
t-90 261.5q0 166 99.5 258.5t258.5 92.5z" />
    <glyph glyph-name="ordfeminine" unicode="&#xaa;" horiz-adv-x="854" 
d="M742 873q0 -21 9.5 -28.5t33.5 -7.5q18 0 42 4l-5 -74q-88 -35 -153 -35q-111 0 -111 83q0 57 60 245h-3q-97 -331 -298 -331q-104 0 -149 57.5t-45 186.5q0 130 45 240.5t122.5 175.5t168.5 65q112 0 172 -71l1 3q19 40 38 54t54 14q55 0 106 -27l-85 -525
q-3 -18 -3 -29zM379 857q49 0 117 110t91 262l10 70q-30 43 -75 43q-72 0 -128 -116t-56 -262q0 -57 9.5 -82t31.5 -25zM95 598h667l-16 -111h-667z" />
    <glyph glyph-name="guillemotleft" unicode="&#xab;" horiz-adv-x="1093" 
d="M598 862l-292 -333q109 -219 182 -347l-121 -79q-46 25 -130 138t-186 287q324 370 435 425zM1052 862l-292 -333q109 -219 182 -347l-122 -79q-46 25 -129.5 137.5t-185.5 287.5q324 370 435 425z" />
    <glyph glyph-name="logicalnot" unicode="&#xac;" horiz-adv-x="1042" 
d="M851 182h-176l45 330h-615l22 154h792z" />
    <glyph glyph-name="registered" unicode="&#xae;" horiz-adv-x="1724" 
d="M877 1487q220 0 396 -99t275 -275t99 -396q0 -218 -103.5 -395.5t-279.5 -276t-387 -98.5t-387 98.5t-279.5 276t-103.5 395.5t103.5 395.5t279.5 276t387 98.5zM877 85q128 0 241.5 48t196 131t130.5 201t48 252t-48 252t-130.5 201t-196 131t-241.5 48t-241.5 -48
t-196 -131t-130.5 -201t-48 -252t48 -252t130.5 -201t196 -131t241.5 -48zM1168 495q13 -25 23 -34.5t26 -12.5l11 -2l-2 -60q-45 -12 -109 -12q-66 0 -95.5 22t-58.5 93l-44 109q-16 38 -33.5 52t-50.5 14q-11 0 -27 -2v-163q0 -26 6.5 -35t29.5 -13l23 -4l-2 -66h-305
l2 66l26 5q22 5 28.5 13.5t6.5 33.5v436q0 26 -7 35t-34 14l-20 4l-2 66h76q49 0 122.5 2t116.5 2q148 0 216.5 -42t68.5 -134q0 -60 -39 -102.5t-110 -60.5q55 -16 86 -74q13 -25 37 -77.5t34 -72.5zM862 749q52 0 80.5 29.5t28.5 83.5q0 114 -103 114q-26 0 -62 -4v-219
q34 -4 56 -4z" />
    <glyph glyph-name="macron" unicode="&#xaf;" horiz-adv-x="1024" 
d="M779 1286h-555l21 148h555z" />
    <glyph glyph-name="degree" unicode="&#xb0;" horiz-adv-x="714" 
d="M162 1229q0 142 94.5 235.5t237.5 93.5q115 0 178 -62t63 -175q0 -142 -94.5 -236t-237.5 -94q-110 0 -175.5 64.5t-65.5 173.5zM472 1423q-64 0 -107 -49.5t-43 -121.5q0 -60 27 -93t76 -33q62 0 106 50.5t44 121.5q0 125 -103 125z" />
    <glyph glyph-name="plusminus" unicode="&#xb1;" horiz-adv-x="1099" 
d="M1018 773l-23 -157h-353l-48 -338h-175l47 338h-354l22 157h354l47 338h176l-47 -338h354zM52 184h883l-22 -157h-883z" />
    <glyph glyph-name="twosuperior" unicode="&#xb2;" horiz-adv-x="681" 
d="M308 877q83 10 192 10h156l-19 -142h-560l16 109q221 173 309 287.5t88 226.5q0 55 -29.5 85t-82.5 30q-88 0 -177 -77l-14 126q51 39 128.5 61.5t159.5 22.5q117 0 177 -53.5t60 -156.5q0 -144 -98 -272t-306 -257z" />
    <glyph glyph-name="threesuperior" unicode="&#xb3;" horiz-adv-x="710" 
d="M537 1195q164 -36 164 -180q0 -134 -99 -209t-274 -75q-149 0 -249 53q-3 18 -3 26q0 49 23.5 76.5t64.5 27.5q28 0 49.5 -13.5t33.5 -29t35 -29t54 -13.5q66 0 105 48t39 128q0 126 -185 126q-29 0 -67 -7l8 108q142 0 209 39.5t67 123.5q0 100 -119 100q-84 0 -173 -65
l-15 113q109 73 275 73q123 0 189 -47.5t66 -137.5q0 -92 -51 -152.5t-147 -83.5z" />
    <glyph glyph-name="acute" unicode="&#xb4;" horiz-adv-x="1024" 
d="M275 1314l383 242q64 -81 91 -171l-412 -193q-35 42 -62 122z" />
    <glyph glyph-name="uni00B5" unicode="&#xb5;" horiz-adv-x="1298" 
d="M1024 183q0 -33 15 -45.5t52 -12.5t64 4l-7 -101q-121 -48 -208 -48q-82 0 -121 29t-39 92q0 93 86 378h-2q-151 -504 -454 -504q-20 0 -35 4q-13 -139 -28 -251l-18 -134l-276 -40l175 1247q8 51 8 73q0 25 -8 34t-27 9q-36 0 -83 -16v101q50 32 132.5 55.5t151.5 23.5
q77 0 100 -17t23 -71q0 -37 -15 -142l-69 -485q-13 -87 -13 -137q0 -46 12.5 -64t41.5 -18q42 0 95.5 45.5t104.5 123t94.5 195t63.5 246.5l46 299h273l-130 -824q-5 -32 -5 -49z" />
    <glyph glyph-name="paragraph" unicode="&#xb6;" horiz-adv-x="1212" 
d="M789 1434l-252 -1792h-160l127 897q-181 0 -288 107t-107 287q0 224 144 362.5t376 138.5h160zM1250 1434l-16 -104l-75 -11q-45 -7 -63.5 -29t-25.5 -73l-222 -1575h-160l252 1792h310z" />
    <glyph glyph-name="periodcentered" unicode="&#xb7;" horiz-adv-x="526" 
d="M92 563q0 85 54.5 139.5t139.5 54.5q64 0 102.5 -40.5t38.5 -107.5q0 -85 -54.5 -139.5t-139.5 -54.5q-64 0 -102.5 40.5t-38.5 107.5z" />
    <glyph glyph-name="cedilla" unicode="&#xb8;" horiz-adv-x="1024" 
d="M639 46l-92 -153q84 0 133 -42t49 -114q0 -109 -71.5 -170.5t-198.5 -61.5q-99 0 -164 61q15 51 44 91q53 -44 120 -44q44 0 68.5 23.5t24.5 67.5q0 41 -33 64.5t-92 23.5l-18 55l109 199h121z" />
    <glyph glyph-name="onesuperior" unicode="&#xb9;" horiz-adv-x="569" 
d="M568 825l-12 -80h-468l11 80l60 9q42 6 61.5 19.5t23.5 42.5l78 547q-60 -21 -126 -31l-27 -5l-2 79l261 120h128l-102 -710q-1 -6 -1 -17q0 -21 15 -30t56 -16z" />
    <glyph glyph-name="ordmasculine" unicode="&#xba;" horiz-adv-x="804" 
d="M117 1010q0 201 111.5 322.5t297.5 121.5q297 0 297 -274q0 -205 -112.5 -328t-299.5 -123q-143 0 -218.5 72.5t-75.5 208.5zM511 1352q-73 0 -124.5 -110t-51.5 -264q0 -71 24.5 -109.5t68.5 -38.5q72 0 124.5 113.5t52.5 266.5q0 142 -94 142zM699 487h-631l16 111h631
z" />
    <glyph glyph-name="guillemotright" unicode="&#xbb;" horiz-adv-x="1093" 
d="M128 873l122 80q46 -25 129.5 -137.5t185.5 -287.5q-324 -370 -435 -425l-112 91l292 333q-105 210 -182 346zM582 873l121 80q46 -25 130 -138t186 -287q-324 -370 -435 -425l-112 91l292 333q-105 210 -182 346z" />
    <glyph glyph-name="onequarter" unicode="&#xbc;" horiz-adv-x="1691" 
d="M1541 1536l-1294 -1638h-183l1294 1638h183zM534 582h-469l11 79l61 9q42 6 61.5 19.5t23.5 42.5l77 547q-61 -21 -125 -31l-28 -5l-1 79l261 120h127l-101 -710q-2 -12 -2 -17q0 -21 15 -30t56 -16l45 -7zM1583 213h-96l-31 -213h-197l30 213h-368l12 88l453 552h191
l-73 -519h96zM1319 334l45 320l-269 -320h224z" />
    <glyph glyph-name="onehalf" unicode="&#xbd;" horiz-adv-x="1687" 
d="M1541 1536l-1294 -1638h-183l1294 1638h183zM534 582h-469l11 79l61 9q42 6 61.5 19.5t23.5 42.5l77 547q-61 -21 -125 -31l-28 -5l-1 79l261 120h127l-101 -710q-2 -12 -2 -17q0 -21 15 -30t56 -16l45 -7zM1210 131q83 10 191 10h156l-18 -141h-561l16 109
q221 174 309 287.5t88 225.5q0 55 -29.5 85t-82.5 30q-88 0 -176 -76l-15 126q51 39 129 61t160 22q117 0 177 -53t60 -156q0 -144 -98 -272.5t-306 -257.5z" />
    <glyph glyph-name="threequarters" unicode="&#xbe;" horiz-adv-x="1830" 
d="M1681 1536l-1295 -1638h-182l1294 1638h183zM678 851q0 -134 -98.5 -209t-273.5 -75q-150 0 -250 53q-2 12 -2 26q0 49 23 76.5t64 27.5q28 0 49.5 -13.5t33.5 -29t35 -29t54 -13.5q66 0 105 48.5t39 128.5q0 125 -185 125q-28 0 -67 -7l8 108q143 0 210 39.5t67 123.5
q0 100 -120 100q-84 0 -173 -65l-15 113q109 73 276 73q123 0 188.5 -47.5t65.5 -137.5q0 -92 -50.5 -152.5t-146.5 -83.5q163 -36 163 -180zM1723 213h-97l-30 -213h-197l29 213h-367l12 88l453 552h191l-74 -519h97zM1459 334l45 320l-269 -320h224z" />
    <glyph glyph-name="questiondown" unicode="&#xbf;" horiz-adv-x="987" 
d="M389 889q0 85 54 139.5t139 54.5q64 0 103 -40.5t39 -107.5q0 -85 -54.5 -139.5t-139.5 -54.5q-64 0 -102.5 40.5t-38.5 107.5zM335 -445q-174 0 -276 79.5t-102 215.5q0 83 27 149t70 108.5t95 78t104.5 67t95.5 65t70 82t27 109.5q0 37 -4 65l178 18q14 -47 14 -116
q0 -64 -22.5 -118.5t-59 -94t-80.5 -76t-88 -71t-80.5 -71t-59 -85.5t-22.5 -106q0 -76 40.5 -118t112.5 -42q76 0 119.5 42.5t65.5 137.5q19 85 55 121.5t101 36.5q45 0 78.5 -23t47.5 -63q-38 -184 -172.5 -287.5t-334.5 -103.5z" />
    <glyph glyph-name="Agrave" unicode="&#xc0;" horiz-adv-x="1384" 
d="M655 1901l384 -243q-26 -77 -63 -121l-412 193q27 90 91 171zM1290 104l-8 -104h-576l16 104l53 8q53 9 74.5 29.5t21.5 66.5q0 28 -10 85l-22 122h-439l-56 -122q-42 -90 -42 -122q0 -26 21.5 -38t72.5 -22l40 -7l-16 -104h-503l16 104l53 9q53 9 83 42t81 138l555 1146
h212l225 -1146q21 -105 40.5 -136.5t70.5 -43.5zM814 553l-100 549l-251 -549h351z" />
    <glyph glyph-name="Aacute" unicode="&#xc1;" horiz-adv-x="1384" 
d="M1098 1730l-413 -193q-36 42 -62 121l383 243q66 -84 92 -171zM1290 104l-8 -104h-576l16 104l53 8q53 9 74.5 29.5t21.5 66.5q0 28 -10 85l-22 122h-439l-56 -122q-42 -90 -42 -122q0 -26 21.5 -38t72.5 -22l40 -7l-16 -104h-503l16 104l53 9q53 9 83 42t81 138
l555 1146h212l225 -1146q21 -105 40.5 -136.5t70.5 -43.5zM814 553l-100 549l-251 -549h351z" />
    <glyph glyph-name="Acircumflex" unicode="&#xc2;" horiz-adv-x="1384" 
d="M839 1693l-255 -142q-40 45 -58 112l340 236l273 -240q-28 -62 -78 -108zM1290 104l-8 -104h-576l16 104l53 8q53 9 74.5 29.5t21.5 66.5q0 28 -10 85l-22 122h-440l-55 -122q-42 -90 -42 -122q0 -26 21.5 -38t72.5 -22l40 -7l-16 -104h-503l16 104l53 9q53 9 83 42
t81 138l555 1146h212l225 -1146q21 -105 40.5 -136.5t70.5 -43.5zM814 553l-100 549l-251 -549h351z" />
    <glyph glyph-name="Atilde" unicode="&#xc3;" horiz-adv-x="1384" 
d="M694 1658q-86 0 -153 -71l-19 108q33 53 93 88t119 35q67 0 138 -31t112 -31q85 0 152 71l20 -108q-33 -53 -93 -88t-119 -35q-67 0 -138 31t-112 31zM1290 104l-8 -104h-576l16 104l53 8q53 9 74.5 29.5t21.5 66.5q0 28 -10 85l-22 122h-439l-56 -122q-42 -90 -42 -122
q0 -26 21.5 -38t72.5 -22l40 -7l-16 -104h-503l16 104l53 9q53 9 83 42t81 138l555 1146h212l225 -1146q21 -105 40.5 -136.5t70.5 -43.5zM814 553l-100 549l-251 -549h351z" />
    <glyph glyph-name="Adieresis" unicode="&#xc4;" horiz-adv-x="1384" 
d="M613 1577q-50 0 -82 33t-32 85q0 67 44 110t113 43q50 0 82.5 -33.5t32.5 -85.5q0 -67 -44.5 -109.5t-113.5 -42.5zM1021 1577q-50 0 -82 33t-32 85q0 67 44.5 110t113.5 43q50 0 82 -33.5t32 -85.5q0 -67 -44.5 -109.5t-113.5 -42.5zM1290 104l-8 -104h-576l16 104l53 8
q53 9 74.5 29.5t21.5 66.5q0 28 -10 85l-22 122h-439l-56 -122q-42 -90 -42 -122q0 -26 21.5 -38t72.5 -22l40 -7l-16 -104h-503l16 104l53 9q53 9 83 42t81 138l555 1146h212l225 -1146q21 -105 40.5 -136.5t70.5 -43.5zM814 553l-100 549l-251 -549h351z" />
    <glyph glyph-name="Aring" unicode="&#xc5;" horiz-adv-x="1384" 
d="M814 1536q-79 0 -126.5 47.5t-47.5 126.5q0 100 64.5 163.5t167.5 63.5q79 0 126.5 -48t47.5 -127q0 -100 -64.5 -163t-167.5 -63zM858 1838q-46 0 -75 -31.5t-29 -81.5q0 -90 74 -90q46 0 75 31.5t29 81.5q0 90 -74 90zM1290 104l-8 -104h-576l16 104l53 8
q53 9 74.5 29.5t21.5 66.5q0 28 -10 85l-22 122h-439l-56 -122q-42 -90 -42 -122q0 -26 21.5 -38t72.5 -22l40 -7l-16 -104h-503l16 104l53 9q53 9 83 42t81 138l555 1146h212l225 -1146q21 -105 40.5 -136.5t70.5 -43.5zM814 553l-100 549l-251 -549h351z" />
    <glyph glyph-name="AE" unicode="&#xc6;" horiz-adv-x="1884" 
d="M1840 1071l-162 -10q2 104 -10 152.5t-45 67.5t-105 19h-266l-71 -506h219q49 0 70.5 21.5t44.5 89.5l13 41l136 4l-65 -458l-134 4v71q-1 49 -21 71t-63 22h-219l-60 -432q0 -3 -1.5 -12.5t-1.5 -14.5q0 -39 27 -53t97 -14h164q104 0 147 45t80 194l160 -10
q-17 -185 -67 -363h-1049l16 104l65 13q46 9 64 29t25 70l34 240h-384l-108 -180q-51 -87 -51 -116q0 -20 16.5 -31t54.5 -18l41 -7l-16 -104h-486l16 104l53 9q50 8 80 32t69 89l593 971q34 54 34 76q0 29 -65 39l-60 10l8 104h1220q-1 -180 -37 -363zM882 598l99 695
l-418 -695h319z" />
    <glyph glyph-name="Ccedilla" unicode="&#xc7;" horiz-adv-x="1280" 
d="M859 1323q-136 0 -243.5 -100.5t-167.5 -279t-60 -402.5q0 -208 78 -319t224 -111q138 0 216.5 72t119.5 235l150 -9l-47 -338q-195 -90 -409 -102l-46 -76q84 0 133.5 -42t49.5 -114q0 -109 -71.5 -170.5t-198.5 -61.5q-99 0 -164 61q15 51 44 91q53 -44 120 -44
q44 0 68.5 23.5t24.5 67.5q0 41 -33 64.5t-92 23.5l-18 55l67 122q-251 16 -382.5 166.5t-131.5 422.5q0 269 97.5 475.5t275.5 319.5t410 113q118 0 243.5 -25.5t188.5 -25.5q-15 -175 -52 -367l-158 -10q0 154 -54.5 219.5t-181.5 65.5z" />
    <glyph glyph-name="Egrave" unicode="&#xc8;" horiz-adv-x="1236" 
d="M609 1901l384 -243q-26 -77 -63 -121l-412 193q27 90 91 171zM1193 1071l-162 -10q2 104 -10 152.5t-45 67.5t-105 19h-266l-71 -506h219q49 0 70.5 21.5t44.5 89.5l13 41l136 4l-65 -458l-134 4v71q-1 49 -21 71t-63 22h-219l-60 -432q0 -3 -1.5 -12.5t-1.5 -14.5
q0 -39 27 -53t97 -14h164q104 0 146.5 45t79.5 194l161 -10q-17 -185 -67 -363h-1056l16 104l64 13q46 9 64.5 29t25.5 70l140 1001q4 28 4 36q0 31 -18 44.5t-69 24.5l-38 8l7 104h1030q-1 -180 -37 -363z" />
    <glyph glyph-name="Eacute" unicode="&#xc9;" horiz-adv-x="1236" 
d="M1051 1730l-413 -193q-36 42 -62 121l383 243q66 -84 92 -171zM1193 1071l-162 -10q2 104 -10 152.5t-45 67.5t-105 19h-266l-71 -506h219q49 0 70.5 21.5t44.5 89.5l13 41l136 4l-65 -458l-134 4v71q-1 49 -21 71t-63 22h-219l-60 -432q0 -3 -1.5 -12.5t-1.5 -14.5
q0 -39 27 -53t97 -14h164q104 0 146.5 45t79.5 194l161 -10q-17 -185 -67 -363h-1056l16 104l64 13q46 9 64.5 29t25.5 70l140 1001q4 28 4 36q0 31 -18 44.5t-69 24.5l-38 8l7 104h1030q-1 -180 -37 -363z" />
    <glyph glyph-name="Ecircumflex" unicode="&#xca;" horiz-adv-x="1236" 
d="M784 1693l-255 -142q-40 45 -58 112l340 236l273 -240q-28 -62 -78 -108zM1193 1071l-162 -10q2 104 -10 152.5t-45 67.5t-105 19h-266l-71 -506h219q49 0 70.5 21.5t44.5 89.5l13 41l136 4l-65 -458l-134 4v71q-1 49 -21 71t-63 22h-219l-60 -432q0 -3 -1.5 -12.5
t-1.5 -14.5q0 -39 27 -53t97 -14h164q104 0 146.5 45t79.5 194l161 -10q-17 -185 -67 -363h-1056l16 104l64 13q46 9 64.5 29t25.5 70l140 1001q4 28 4 36q0 31 -18 44.5t-69 24.5l-38 8l7 104h1030q-1 -180 -37 -363z" />
    <glyph glyph-name="Edieresis" unicode="&#xcb;" horiz-adv-x="1236" 
d="M558 1577q-50 0 -82 33t-32 85q0 67 44.5 110t113.5 43q50 0 82 -33.5t32 -85.5q0 -67 -44.5 -109.5t-113.5 -42.5zM967 1577q-50 0 -82.5 33t-32.5 85q0 67 44.5 110t113.5 43q50 0 82.5 -33.5t32.5 -85.5q0 -67 -44.5 -109.5t-113.5 -42.5zM1193 1071l-162 -10
q2 104 -10 152.5t-45 67.5t-105 19h-266l-71 -506h219q49 0 70.5 21.5t44.5 89.5l13 41l136 4l-65 -458l-134 4v71q-1 49 -21 71t-63 22h-219l-60 -432q0 -3 -1.5 -12.5t-1.5 -14.5q0 -39 27 -53t97 -14h164q104 0 146.5 45t79.5 194l161 -10q-17 -185 -67 -363h-1056
l16 104l64 13q46 9 64.5 29t25.5 70l140 1001q4 28 4 36q0 31 -18 44.5t-69 24.5l-38 8l7 104h1030q-1 -180 -37 -363z" />
    <glyph glyph-name="Igrave" unicode="&#xcc;" horiz-adv-x="741" 
d="M343 1901l383 -243q-26 -79 -62 -121l-412 193q27 90 91 171zM758 1330l-76 -11q-45 -7 -63.5 -29t-25.5 -73l-140 -1001q-4 -28 -4 -35q0 -31 17.5 -44t69.5 -23l51 -10l-16 -104h-567l16 104l64 13q46 9 64.5 29t25.5 70l140 1001q4 28 4 36q0 31 -18 44.5t-69 24.5
l-38 8l7 104h574z" />
    <glyph glyph-name="Iacute" unicode="&#xcd;" horiz-adv-x="741" 
d="M293 1658l383 243q64 -81 91 -171l-412 -193q-36 42 -62 121zM758 1330l-76 -11q-45 -7 -63.5 -29t-25.5 -73l-140 -1001q-4 -28 -4 -35q0 -31 17.5 -44t69.5 -23l51 -10l-16 -104h-567l16 104l64 13q46 9 64.5 29t25.5 70l140 1001q4 28 4 36q0 31 -18 44.5t-69 24.5
l-38 8l7 104h574z" />
    <glyph glyph-name="Icircumflex" unicode="&#xce;" horiz-adv-x="741" 
d="M524 1693l-255 -142q-40 45 -58 112l339 236l274 -240q-28 -62 -78 -108zM200 1434h574l-16 -104l-76 -11q-45 -7 -63.5 -29t-25.5 -73l-140 -1001q-4 -28 -4 -35q0 -31 17.5 -44t69.5 -23l51 -10l-16 -104h-567l16 104l64 13q46 9 64.5 29t25.5 70l140 1001q4 28 4 36
q0 31 -18 44.5t-69 24.5l-38 8z" />
    <glyph glyph-name="Idieresis" unicode="&#xcf;" horiz-adv-x="741" 
d="M184 1695q0 67 44 110t113 43q50 0 82.5 -33.5t32.5 -85.5q0 -67 -44.5 -109.5t-113.5 -42.5q-50 0 -82 33t-32 85zM592 1695q0 67 44.5 110t113.5 43q50 0 82 -33.5t32 -85.5q0 -67 -44.5 -109.5t-113.5 -42.5q-50 0 -82 33t-32 85zM758 1330l-76 -11q-45 -7 -63.5 -29
t-25.5 -73l-140 -1001q-4 -28 -4 -35q0 -31 17.5 -44t69.5 -23l51 -10l-16 -104h-567l16 104l64 13q46 9 64.5 29t25.5 70l140 1001q4 28 4 36q0 31 -18 44.5t-69 24.5l-38 8l7 104h574z" />
    <glyph glyph-name="Eth" unicode="&#xd0;" horiz-adv-x="1452" 
d="M772 1443q303 0 462 -147.5t159 -428.5q0 -260 -103 -459.5t-290.5 -308.5t-432.5 -109q-77 0 -214 5t-229 5h-120l16 104l64 13q46 9 64.5 29t25.5 70l63 454h-127l19 130h127l58 417q4 28 4 36q0 31 -18 44.5t-69 24.5l-38 8l7 104h127q91 0 230 4.5t215 4.5zM563 122
q154 0 275.5 96t188.5 267t67 387q0 210 -90.5 324.5t-256.5 114.5q-81 0 -142 -10l-70 -501h241l-19 -130h-241l-61 -442q-3 -18 -3 -33q0 -41 25 -57t86 -16z" />
    <glyph glyph-name="Ntilde" unicode="&#xd1;" horiz-adv-x="1484" 
d="M760 1658q-85 0 -152 -71l-20 108q33 53 93 88t119 35q67 0 138.5 -31t112.5 -31q85 0 152 71l20 -108q-33 -53 -93 -88t-119 -35q-67 0 -138.5 31t-112.5 31zM1538 1434l-16 -104l-76 -11q-45 -7 -63.5 -29t-25.5 -73l-171 -1217h-268l-343 839q-63 155 -103 349
q-9 -169 -29 -311l-93 -661q-3 -21 -3 -35q0 -31 17.5 -44t68.5 -23l51 -10l-16 -104h-464l16 104l64 13q46 9 64.5 29t25.5 70l140 1001q4 28 4 36q0 31 -18 44.5t-69 24.5l-38 8l7 104h424l343 -839q56 -137 95 -308q9 148 26 270l93 660q3 21 3 36q0 31 -17.5 44.5
t-68.5 24.5l-38 8l7 104h471z" />
    <glyph glyph-name="Ograve" unicode="&#xd2;" horiz-adv-x="1505" 
d="M735 1901l384 -243q-26 -77 -63 -121l-412 193q27 90 91 171zM872 1466q273 0 423 -156t150 -442q0 -268 -97.5 -472.5t-275.5 -316.5t-411 -112q-266 0 -418 164.5t-152 450.5q0 264 96.5 464.5t274 310t410.5 109.5zM850 1323q-132 0 -237.5 -99.5t-164.5 -276
t-59 -397.5q0 -207 78 -323t216 -116q130 0 236.5 103.5t167 284t60.5 400.5q0 204 -77 314t-220 110z" />
    <glyph glyph-name="Oacute" unicode="&#xd3;" horiz-adv-x="1505" 
d="M692 1658l384 243q64 -81 91 -171l-413 -193q-36 42 -62 121zM872 1466q273 0 423 -156t150 -442q0 -268 -97.5 -472.5t-275.5 -316.5t-411 -112q-266 0 -418 164.5t-152 450.5q0 264 96.5 464.5t274 310t410.5 109.5zM850 1323q-132 0 -237.5 -99.5t-164.5 -276
t-59 -397.5q0 -207 78 -323t216 -116q130 0 236.5 103.5t167 284t60.5 400.5q0 204 -77 314t-220 110z" />
    <glyph glyph-name="Ocircumflex" unicode="&#xd4;" horiz-adv-x="1505" 
d="M906 1693l-255 -142q-40 45 -58 112l340 236l273 -240q-29 -63 -77 -108zM872 1466q273 0 423 -156t150 -442q0 -268 -97.5 -472.5t-275.5 -316.5t-411 -112q-266 0 -418 164.5t-152 450.5q0 264 96.5 464.5t274 310t410.5 109.5zM683 111q130 0 236.5 103.5t167 284
t60.5 400.5q0 204 -77 314t-220 110q-132 0 -237.5 -99.5t-164.5 -276t-59 -397.5q0 -207 78 -323t216 -116z" />
    <glyph glyph-name="Otilde" unicode="&#xd5;" horiz-adv-x="1505" 
d="M1052 1756q85 0 152 71l19 -108q-33 -53 -92.5 -88t-118.5 -35q-67 0 -138.5 31t-112.5 31q-85 0 -152 -71l-20 108q33 53 93 88t119 35q67 0 138.5 -31t112.5 -31zM872 1466q273 0 423 -156t150 -442q0 -268 -97.5 -472.5t-275.5 -316.5t-411 -112q-266 0 -418 164.5
t-152 450.5q0 264 96.5 464.5t274 310t410.5 109.5zM850 1323q-132 0 -237.5 -99.5t-164.5 -276t-59 -397.5q0 -207 78 -323t216 -116q130 0 236.5 103.5t167 284t60.5 400.5q0 204 -77 314t-220 110z" />
    <glyph glyph-name="Odieresis" unicode="&#xd6;" horiz-adv-x="1505" 
d="M566 1695q0 67 44.5 110t113.5 43q50 0 82 -33.5t32 -85.5q0 -67 -44 -109.5t-113 -42.5q-50 0 -82.5 33t-32.5 85zM974 1695q0 67 44.5 110t113.5 43q50 0 82.5 -33.5t32.5 -85.5q0 -67 -44.5 -109.5t-113.5 -42.5q-50 0 -82.5 33t-32.5 85zM872 1466q273 0 423 -156
t150 -442q0 -268 -97.5 -472.5t-275.5 -316.5t-411 -112q-266 0 -418 164.5t-152 450.5q0 264 96.5 464.5t274 310t410.5 109.5zM850 1323q-132 0 -237.5 -99.5t-164.5 -276t-59 -397.5q0 -207 78 -323t216 -116q130 0 236.5 103.5t167 284t60.5 400.5q0 204 -77 314
t-220 110z" />
    <glyph glyph-name="multiply" unicode="&#xd7;" horiz-adv-x="1001" 
d="M605 564l260 -313l-124 -114l-261 313l-338 -309l-94 115l337 308l-261 314l124 114l261 -314l338 309l95 -115z" />
    <glyph glyph-name="Oslash" unicode="&#xd8;" horiz-adv-x="1505" 
d="M1326 1511l-91 -148q210 -154 210 -495q0 -268 -97.5 -472.5t-275.5 -316.5t-411 -112q-136 0 -246 46l-95 -156l-110 65l94 154q-213 162 -213 506q0 264 96.5 464.5t274 310t410.5 109.5q139 0 251 -43l94 154zM850 1323q-132 0 -237.5 -99.5t-164.5 -276t-59 -397.5
q0 -162 47 -268l586 984q-69 57 -172 57zM683 111q130 0 236.5 103.5t167 284t60.5 400.5q0 157 -45 257l-586 -986q68 -59 167 -59z" />
    <glyph glyph-name="Ugrave" unicode="&#xd9;" horiz-adv-x="1441" 
d="M672 1901l384 -243q-26 -77 -63 -121l-412 193q27 90 91 171zM730 1330l-76 -11q-45 -7 -63.5 -29t-25.5 -73l-99 -704q-10 -73 -10 -121q0 -282 244 -282q141 0 220 93t107 295l101 719q4 28 4 36q0 32 -18 45.5t-69 23.5l-42 8l15 104h484l-15 -104l-76 -11
q-45 -7 -63.5 -29t-25.5 -73l-104 -738q-35 -254 -179.5 -383t-391.5 -129q-236 0 -352 104.5t-116 316.5q0 67 10 137l97 692q3 21 3 36q0 31 -18 44.5t-69 24.5l-38 8l8 104h574z" />
    <glyph glyph-name="Uacute" unicode="&#xda;" horiz-adv-x="1441" 
d="M709 1658l384 243q64 -81 91 -171l-412 -193q-37 44 -63 121zM730 1330l-76 -11q-45 -7 -63.5 -29t-25.5 -73l-99 -704q-10 -73 -10 -121q0 -282 244 -282q141 0 220 93t107 295l101 719q4 28 4 36q0 32 -18 45.5t-69 23.5l-42 8l15 104h484l-15 -104l-76 -11
q-45 -7 -63.5 -29t-25.5 -73l-104 -738q-35 -254 -179.5 -383t-391.5 -129q-236 0 -352 104.5t-116 316.5q0 67 10 137l97 692q3 21 3 36q0 31 -18 44.5t-69 24.5l-38 8l8 104h574z" />
    <glyph glyph-name="Ucircumflex" unicode="&#xdb;" horiz-adv-x="1441" 
d="M906 1693l-255 -142q-40 45 -58 112l340 236l273 -240q-29 -63 -77 -108zM1502 1434l-15 -104l-76 -11q-45 -7 -63.5 -29t-25.5 -73l-104 -738q-35 -254 -179.5 -383t-391.5 -129q-236 0 -352 104.5t-116 316.5q0 67 10 137l97 692q3 21 3 36q0 31 -18 44.5t-69 24.5
l-38 8l8 104h574l-16 -104l-76 -11q-45 -7 -63.5 -29t-25.5 -73l-99 -704q-10 -73 -10 -121q0 -282 244 -282q141 0 220 93t107 295l101 719q4 28 4 36q0 32 -18 45.5t-69 23.5l-42 8l15 104h484z" />
    <glyph glyph-name="Udieresis" unicode="&#xdc;" horiz-adv-x="1441" 
d="M566 1695q0 67 44.5 110t113.5 43q50 0 82 -33.5t32 -85.5q0 -67 -44 -109.5t-113 -42.5q-50 0 -82.5 33t-32.5 85zM974 1695q0 67 44.5 110t113.5 43q50 0 82.5 -33.5t32.5 -85.5q0 -67 -44.5 -109.5t-113.5 -42.5q-50 0 -82.5 33t-32.5 85zM730 1330l-76 -11
q-45 -7 -63.5 -29t-25.5 -73l-99 -704q-10 -73 -10 -121q0 -282 244 -282q141 0 220 93t107 295l101 719q4 28 4 36q0 32 -18 45.5t-69 23.5l-42 8l15 104h484l-15 -104l-76 -11q-45 -7 -63.5 -29t-25.5 -73l-104 -738q-35 -254 -179.5 -383t-391.5 -129q-236 0 -352 104.5
t-116 316.5q0 67 10 137l97 692q3 21 3 36q0 31 -18 44.5t-69 24.5l-38 8l8 104h574z" />
    <glyph glyph-name="Yacute" unicode="&#xdd;" horiz-adv-x="1327" 
d="M1126 1730l-412 -193q-37 44 -63 121l384 243q64 -81 91 -171zM1431 1434l-16 -104l-38 -5q-44 -5 -68 -18t-52.5 -47t-85.5 -119l-365 -545l-51 -356q-5 -32 -5 -48q0 -35 18 -50t67 -23l79 -14l-16 -105h-624l16 105l93 16q46 8 65.5 33.5t27.5 85.5l51 356l-239 545
q-29 67 -43.5 97.5t-31.5 51t-29 25.5t-38 10l-25 5l8 104h587l-16 -104l-50 -6q-50 -6 -73.5 -23t-23.5 -50q0 -31 23 -85l168 -388l252 388q48 74 48 107q0 41 -77 50l-55 7l16 104h503z" />
    <glyph glyph-name="Thorn" unicode="&#xde;" horiz-adv-x="1245" 
d="M464 298l-8 -58q-4 -24 -4 -47q0 -35 18 -50.5t68 -23.5l78 -14l-16 -105h-596l16 104l64 13q46 9 64.5 29t25.5 70l140 1001q4 28 4 36q0 31 -18 44.5t-69 24.5l-38 8l7 104h574l-16 -104l-76 -11q-45 -7 -63.5 -29t-25.5 -73l-9 -64q94 2 147 2q242 0 360.5 -84
t118.5 -257q0 -252 -162.5 -387t-462.5 -135q-63 0 -121 6zM706 1023q-80 0 -141 -10l-82 -579q49 -5 121 -5q149 0 233.5 100t84.5 278q0 216 -216 216z" />
    <glyph glyph-name="germandbls" unicode="&#xdf;" horiz-adv-x="1226" 
d="M904 808q0 -47 23.5 -91t57 -81t67 -76.5t57 -93t23.5 -114.5q0 -168 -107.5 -272.5t-280.5 -104.5t-289 81q6 103 30 203l114 5q8 -86 39.5 -126.5t89.5 -40.5q64 0 103 48t39 126q0 53 -22.5 100t-55 84t-65 74.5t-55 87t-22.5 106.5t22 112t53.5 100l63 90t53.5 100
t22 112q0 64 -31.5 101t-86.5 37q-104 0 -161.5 -103t-91.5 -350l-129 -917q-33 -235 -124.5 -345.5t-252.5 -110.5q-95 0 -174 41l28 129q44 -23 93 -23q67 0 98 61t57 242l129 920h-113l13 122q29 9 133 12q49 241 179 353t357 112q158 0 242.5 -61t84.5 -174
q0 -64 -21.5 -118.5t-52.5 -94t-62 -77.5t-52.5 -85t-21.5 -100z" />
    <glyph glyph-name="agrave" unicode="&#xe0;" horiz-adv-x="1177" 
d="M520 1556l384 -242q-26 -78 -63 -122l-412 193q27 90 91 171zM935 183q0 -33 15 -45.5t51 -12.5q38 0 65 4l-7 -101q-121 -48 -208 -48q-82 0 -121 29t-39 92q0 93 86 378h-2q-151 -504 -444 -504q-147 0 -212 87.5t-65 279.5q0 148 40.5 284.5t109 236t162.5 159
t196 59.5q161 0 246 -111l5 12q24 55 51.5 77t74.5 22q63 0 130 -35l-129 -814q-5 -32 -5 -49zM405 147q38 0 88.5 45.5t100.5 123t93.5 195t63.5 246.5l13 88q-50 85 -129 85q-77 0 -147.5 -84.5t-112.5 -223.5t-42 -292q0 -97 16.5 -140t55.5 -43z" />
    <glyph glyph-name="aacute" unicode="&#xe1;" horiz-adv-x="1177" 
d="M989 1385l-412 -193q-37 44 -63 122l384 242q64 -81 91 -171zM935 183q0 -33 15 -45.5t51 -12.5q38 0 65 4l-7 -101q-121 -48 -208 -48q-82 0 -121 29t-39 92q0 93 86 378h-2q-151 -504 -444 -504q-147 0 -212 87.5t-65 279.5q0 148 40.5 284.5t109 236t162.5 159
t196 59.5q161 0 246 -111l5 12q24 55 51.5 77t74.5 22q63 0 130 -35l-129 -814q-5 -32 -5 -49zM405 147q38 0 88.5 45.5t100.5 123t93.5 195t63.5 246.5l13 88q-50 85 -129 85q-77 0 -147.5 -84.5t-112.5 -223.5t-42 -292q0 -97 16.5 -140t55.5 -43z" />
    <glyph glyph-name="acircumflex" unicode="&#xe2;" horiz-adv-x="1177" 
d="M667 1349l-255 -143q-40 45 -58 112l340 237l273 -241q-28 -62 -78 -108zM935 183q0 -33 15 -45.5t51 -12.5q38 0 65 4l-7 -101q-121 -48 -208 -48q-82 0 -121 29t-39 92q0 93 86 378h-2q-151 -504 -444 -504q-147 0 -212 87.5t-65 279.5q0 148 40.5 284.5t109 236
t162.5 159t196 59.5q161 0 246 -111l5 12q24 55 51.5 77t74.5 22q63 0 130 -35l-129 -814q-5 -32 -5 -49zM405 147q38 0 88.5 45.5t100.5 123t93.5 195t63.5 246.5l13 88q-50 85 -129 85q-77 0 -147.5 -84.5t-112.5 -223.5t-42 -292q0 -97 16.5 -140t55.5 -43z" />
    <glyph glyph-name="atilde" unicode="&#xe3;" horiz-adv-x="1177" 
d="M524 1314q-85 0 -152 -71l-20 108q33 53 93 88t119 35q67 0 138 -31t112 -31q86 0 153 71l19 -108q-33 -53 -92.5 -88t-118.5 -35q-67 0 -138.5 31t-112.5 31zM935 183q0 -33 15 -45.5t51 -12.5q38 0 65 4l-7 -101q-121 -48 -208 -48q-82 0 -121 29t-39 92q0 93 86 378
h-2q-151 -504 -444 -504q-147 0 -212 87.5t-65 279.5q0 148 40.5 284.5t109 236t162.5 159t196 59.5q161 0 246 -111l5 12q24 55 51.5 77t74.5 22q63 0 130 -35l-129 -814q-5 -32 -5 -49zM405 147q38 0 88.5 45.5t100.5 123t93.5 195t63.5 246.5l13 88q-50 85 -129 85
q-77 0 -147.5 -84.5t-112.5 -223.5t-42 -292q0 -97 16.5 -140t55.5 -43z" />
    <glyph glyph-name="adieresis" unicode="&#xe4;" horiz-adv-x="1177" 
d="M443 1232q-50 0 -82 33.5t-32 85.5q0 67 44.5 109.5t113.5 42.5q50 0 82 -33t32 -85q0 -67 -44.5 -110t-113.5 -43zM852 1232q-50 0 -82.5 33.5t-32.5 85.5q0 67 44.5 109.5t113.5 42.5q50 0 82.5 -33t32.5 -85q0 -67 -44.5 -110t-113.5 -43zM935 183q0 -33 15 -45.5
t51 -12.5q38 0 65 4l-7 -101q-121 -48 -208 -48q-82 0 -121 29t-39 92q0 93 86 378h-2q-151 -504 -444 -504q-147 0 -212 87.5t-65 279.5q0 148 40.5 284.5t109 236t162.5 159t196 59.5q161 0 246 -111l5 12q24 55 51.5 77t74.5 22q63 0 130 -35l-129 -814q-5 -32 -5 -49z
M405 147q38 0 88.5 45.5t100.5 123t93.5 195t63.5 246.5l13 88q-50 85 -129 85q-77 0 -147.5 -84.5t-112.5 -223.5t-42 -292q0 -97 16.5 -140t55.5 -43z" />
    <glyph glyph-name="aring" unicode="&#xe5;" horiz-adv-x="1177" 
d="M644 1191q-79 0 -126.5 48t-47.5 127q0 100 65 163t168 63q79 0 126.5 -47.5t47.5 -126.5q0 -100 -65 -163.5t-168 -63.5zM688 1493q-46 0 -75 -31.5t-29 -81.5q0 -90 74 -90q46 0 75.5 31.5t29.5 81.5q0 43 -19.5 66.5t-55.5 23.5zM935 183q0 -33 15 -45.5t51 -12.5
q38 0 65 4l-7 -101q-121 -48 -208 -48q-82 0 -121 29t-39 92q0 93 86 378h-2q-151 -504 -444 -504q-147 0 -212 87.5t-65 279.5q0 148 40.5 284.5t109 236t162.5 159t196 59.5q161 0 246 -111l5 12q24 55 51.5 77t74.5 22q63 0 130 -35l-129 -814q-5 -32 -5 -49zM405 147
q38 0 88.5 45.5t100.5 123t93.5 195t63.5 246.5l13 88q-50 85 -129 85q-77 0 -147.5 -84.5t-112.5 -223.5t-42 -292q0 -97 16.5 -140t55.5 -43z" />
    <glyph glyph-name="ae" unicode="&#xe6;" horiz-adv-x="1597" 
d="M950 460q-30 0 -57 3q-1 -15 -1 -44q0 -278 230 -278q154 0 275 101l39 -125q-96 -75 -195.5 -108.5t-232.5 -33.5q-261 0 -351 188q-59 -90 -151.5 -139t-207.5 -49q-137 0 -210.5 65.5t-73.5 186.5q0 186 129 290.5t359 104.5q70 0 134 -9l20 126q8 51 8 85
q0 138 -103 138q-37 0 -69.5 -17.5t-58 -43t-51.5 -51t-59.5 -43t-72.5 -17.5q-47 0 -72 24.5t-25 70.5q0 41 17 81q197 115 424 115q217 0 266 -136q138 136 348 136q344 0 344 -253q0 -175 -158 -271.5t-444 -96.5zM1170 944q-90 0 -162 -100t-101 -255q26 -2 36 -2
q161 0 255 63t94 171q0 123 -122 123zM405 147q120 0 209 184q-3 31 -3 67q0 55 5 94q-51 7 -92 7q-115 0 -179 -57.5t-64 -161.5q0 -62 33 -97.5t91 -35.5z" />
    <glyph glyph-name="ccedilla" unicode="&#xe7;" horiz-adv-x="962" 
d="M626 944q-75 0 -139.5 -72t-102.5 -193.5t-38 -259.5q0 -134 51 -204.5t148 -70.5q133 0 254 101l38 -128q-162 -126 -348 -140l-51 -84q84 0 133 -42t49 -114q0 -109 -71.5 -170.5t-198.5 -61.5q-99 0 -164 61q15 51 44 91q53 -44 121 -44q44 0 68 23.5t24 67.5
q0 41 -33 64.5t-92 23.5l-18 55l72 132q-153 17 -233.5 124t-80.5 295q0 306 164 494.5t433 188.5q174 0 296 -82q8 -20 8 -54q0 -65 -35 -103t-95 -38q-43 0 -71 22t-39.5 48t-34.5 48t-58 22z" />
    <glyph glyph-name="egrave" unicode="&#xe8;" horiz-adv-x="1044" 
d="M488 1556l384 -242q-26 -78 -63 -122l-412 193q27 90 91 171zM394 435q-38 0 -55 2v-18q0 -278 230 -278q154 0 275 101l39 -125q-96 -75 -195.5 -108.5t-232.5 -33.5q-197 0 -297 108t-100 315q0 306 164 494.5t433 188.5q344 0 344 -253q0 -186 -159.5 -289.5
t-445.5 -103.5zM617 944q-93 0 -167 -108t-100 -273q28 -2 37 -2q160 0 256 70.5t96 189.5q0 123 -122 123z" />
    <glyph glyph-name="eacute" unicode="&#xe9;" horiz-adv-x="1044" 
d="M940 1385l-412 -193q-35 42 -62 122l383 242q64 -81 91 -171zM394 435q-38 0 -55 2v-18q0 -278 230 -278q154 0 275 101l39 -125q-96 -75 -195.5 -108.5t-232.5 -33.5q-197 0 -297 108t-100 315q0 306 164 494.5t433 188.5q344 0 344 -253q0 -186 -159.5 -289.5
t-445.5 -103.5zM617 944q-93 0 -167 -108t-100 -273q28 -2 37 -2q160 0 256 70.5t96 189.5q0 123 -122 123z" />
    <glyph glyph-name="ecircumflex" unicode="&#xea;" horiz-adv-x="1044" 
d="M651 1349l-254 -143q-41 46 -59 112l340 237l274 -241q-28 -62 -78 -108zM394 435q-38 0 -55 2v-18q0 -278 230 -278q154 0 275 101l39 -125q-96 -75 -195.5 -108.5t-232.5 -33.5q-197 0 -297 108t-100 315q0 306 164 494.5t433 188.5q344 0 344 -253
q0 -186 -159.5 -289.5t-445.5 -103.5zM617 944q-93 0 -167 -108t-100 -273q28 -2 37 -2q160 0 256 70.5t96 189.5q0 123 -122 123z" />
    <glyph glyph-name="edieresis" unicode="&#xeb;" horiz-adv-x="1044" 
d="M428 1232q-50 0 -82.5 33.5t-32.5 85.5q0 67 44.5 109.5t113.5 42.5q50 0 82.5 -33t32.5 -85q0 -67 -44.5 -110t-113.5 -43zM836 1232q-50 0 -82 33.5t-32 85.5q0 67 44 109.5t113 42.5q50 0 82.5 -33t32.5 -85q0 -67 -44.5 -110t-113.5 -43zM394 435q-38 0 -55 2v-18
q0 -278 230 -278q154 0 275 101l39 -125q-96 -75 -195.5 -108.5t-232.5 -33.5q-197 0 -297 108t-100 315q0 306 164 494.5t433 188.5q344 0 344 -253q0 -186 -159.5 -289.5t-445.5 -103.5zM617 944q-93 0 -167 -108t-100 -273q28 -2 37 -2q160 0 256 70.5t96 189.5
q0 123 -122 123z" />
    <glyph glyph-name="igrave" unicode="&#xec;" horiz-adv-x="636" 
d="M224 1556l384 -242q-26 -78 -63 -122l-412 193q27 90 91 171zM392 1081q77 0 100 -17t23 -71q0 -52 -16 -142l-108 -619q-6 -40 -6 -50q0 -32 15 -44.5t52 -12.5q38 0 65 4l-7 -101q-121 -48 -223 -48q-97 0 -139.5 32.5t-42.5 110.5q0 36 9 84l104 594q9 48 9 73
q0 24 -8.5 33.5t-27.5 9.5q-36 0 -83 -16v101q50 32 132.5 55.5t151.5 23.5z" />
    <glyph glyph-name="iacute" unicode="&#xed;" horiz-adv-x="636" 
d="M189 1314l383 242q64 -81 91 -171l-412 -193q-35 42 -62 122zM392 1081q77 0 100 -17t23 -71q0 -52 -16 -142l-108 -619q-6 -40 -6 -50q0 -32 15 -44.5t52 -12.5q38 0 65 4l-7 -101q-121 -48 -223 -48q-97 0 -139.5 32.5t-42.5 110.5q0 36 9 84l104 594q9 48 9 73
q0 24 -8.5 33.5t-27.5 9.5q-36 0 -83 -16v101q50 32 132.5 55.5t151.5 23.5z" />
    <glyph glyph-name="icircumflex" unicode="&#xee;" horiz-adv-x="636" 
d="M426 1555l274 -241q-28 -62 -78 -108l-222 143l-255 -143q-39 44 -58 113zM385 182q0 -32 15 -44.5t52 -12.5q38 0 65 4l-7 -101q-121 -48 -223 -48q-97 0 -139.5 32.5t-42.5 110.5q0 36 9 84l104 594q9 48 9 73q0 24 -8.5 33.5t-27.5 9.5q-36 0 -83 -16v101
q50 32 132.5 55.5t151.5 23.5q77 0 100 -17t23 -71q0 -52 -16 -142l-108 -619q-6 -40 -6 -50z" />
    <glyph glyph-name="idieresis" unicode="&#xef;" horiz-adv-x="636" 
d="M62 1351q0 67 44 109.5t113 42.5q50 0 82.5 -33t32.5 -85q0 -67 -44.5 -110t-113.5 -43q-50 0 -82 33.5t-32 85.5zM470 1351q0 67 44.5 109.5t113.5 42.5q50 0 82 -33t32 -85q0 -67 -44.5 -110t-113.5 -43q-50 0 -82 33.5t-32 85.5zM392 1081q77 0 100 -17t23 -71
q0 -52 -16 -142l-108 -619q-6 -40 -6 -50q0 -32 15 -44.5t52 -12.5q38 0 65 4l-7 -101q-121 -48 -223 -48q-97 0 -139.5 32.5t-42.5 110.5q0 36 9 84l104 594q9 48 9 73q0 24 -8.5 33.5t-27.5 9.5q-36 0 -83 -16v101q50 32 132.5 55.5t151.5 23.5z" />
    <glyph glyph-name="eth" unicode="&#xf0;" horiz-adv-x="1163" 
d="M970 1438l-126 -89q231 -194 231 -574q0 -389 -152 -594.5t-439 -205.5q-208 0 -316 110t-108 321q0 292 147 467t392 175q205 0 266 -162h2q-36 232 -201 363l-171 -119l-66 100l126 88q-97 46 -215 68l56 132q195 -18 338 -94l167 117zM503 112q78 0 140.5 72t97.5 197
t35 277q0 126 -39.5 186t-122.5 60q-121 0 -195.5 -145.5t-74.5 -373.5q0 -133 41 -203t118 -70z" />
    <glyph glyph-name="ntilde" unicode="&#xf1;" horiz-adv-x="1234" 
d="M577 1314q-86 0 -153 -71l-19 108q33 53 93 88t119 35q67 0 138 -31t112 -31q85 0 152 71l20 -108q-33 -53 -93 -88t-119 -35q-67 0 -138 31t-112 31zM1062 125q38 0 65 4l-7 -101q-121 -48 -223 -48q-97 0 -139.5 32.5t-42.5 110.5q0 36 9 84l99 563q7 36 7 66
q0 39 -13.5 56t-43.5 17q-38 0 -92 -45.5t-108 -123t-101 -195.5t-67 -246l-46 -299h-273l126 801q7 45 7 73q0 25 -8 34t-27 9q-36 0 -83 -16v101q49 32 129.5 55.5t141.5 23.5q55 0 77.5 -19t22.5 -65q0 -44 -26.5 -168t-63.5 -252h3q27 85 59 157t74.5 137.5t90 110.5
t108 72t127.5 27q127 0 194.5 -56.5t67.5 -162.5q0 -27 -7 -69l-98 -561q-6 -40 -6 -50q0 -32 15 -44.5t52 -12.5z" />
    <glyph glyph-name="ograve" unicode="&#xf2;" 
d="M543 1556l384 -242q-26 -78 -63 -122l-412 193q27 90 91 171zM58 400q0 305 164 493t431 188q208 0 314 -105t106 -311q0 -310 -163.5 -500t-432.5 -190q-202 0 -310.5 110.5t-108.5 314.5zM631 944q-82 0 -148.5 -77.5t-104 -211t-37.5 -294.5q0 -118 41.5 -183.5
t116.5 -65.5q80 0 147.5 79.5t106 215.5t38.5 296q0 118 -41 179.5t-119 61.5z" />
    <glyph glyph-name="oacute" unicode="&#xf3;" 
d="M466 1314l383 242q64 -81 91 -171l-412 -193q-35 42 -62 122zM58 400q0 305 164 493t431 188q208 0 314 -105t106 -311q0 -310 -163.5 -500t-432.5 -190q-202 0 -310.5 110.5t-108.5 314.5zM631 944q-82 0 -148.5 -77.5t-104 -211t-37.5 -294.5q0 -118 41.5 -183.5
t116.5 -65.5q80 0 147.5 79.5t106 215.5t38.5 296q0 118 -41 179.5t-119 61.5z" />
    <glyph glyph-name="ocircumflex" unicode="&#xf4;" 
d="M687 1349l-255 -143q-41 46 -59 112l340 237l274 -241q-28 -62 -78 -108zM653 1081q208 0 314 -105t106 -311q0 -310 -163.5 -500t-432.5 -190q-202 0 -310.5 110.5t-108.5 314.5q0 305 164 493t431 188zM499 112q80 0 147.5 79.5t106 215.5t38.5 296q0 118 -41 179.5
t-119 61.5q-82 0 -148.5 -77.5t-104 -211t-37.5 -294.5q0 -118 41.5 -183.5t116.5 -65.5z" />
    <glyph glyph-name="otilde" unicode="&#xf5;" 
d="M834 1412q85 0 152 71l20 -108q-33 -53 -93 -88t-119 -35q-67 0 -138 31t-112 31q-86 0 -153 -71l-19 108q33 53 92.5 88t118.5 35q67 0 138.5 -31t112.5 -31zM58 400q0 305 164 493t431 188q208 0 314 -105t106 -311q0 -310 -163.5 -500t-432.5 -190
q-202 0 -310.5 110.5t-108.5 314.5zM631 944q-82 0 -148.5 -77.5t-104 -211t-37.5 -294.5q0 -118 41.5 -183.5t116.5 -65.5q80 0 147.5 79.5t106 215.5t38.5 296q0 118 -41 179.5t-119 61.5z" />
    <glyph glyph-name="odieresis" unicode="&#xf6;" 
d="M348 1351q0 67 44.5 109.5t113.5 42.5q50 0 82.5 -33t32.5 -85q0 -67 -44.5 -110t-113.5 -43q-50 0 -82.5 33.5t-32.5 85.5zM757 1351q0 67 44.5 109.5t113.5 42.5q50 0 82 -33t32 -85q0 -67 -44.5 -110t-113.5 -43q-50 0 -82 33.5t-32 85.5zM58 400q0 305 164 493
t431 188q208 0 314 -105t106 -311q0 -310 -163.5 -500t-432.5 -190q-202 0 -310.5 110.5t-108.5 314.5zM631 944q-82 0 -148.5 -77.5t-104 -211t-37.5 -294.5q0 -118 41.5 -183.5t116.5 -65.5q80 0 147.5 79.5t106 215.5t38.5 296q0 118 -41 179.5t-119 61.5z" />
    <glyph glyph-name="divide" unicode="&#xf7;" horiz-adv-x="1120" 
d="M461 947q0 79 48.5 128.5t125.5 49.5q57 0 91.5 -35.5t34.5 -93.5q0 -79 -48.5 -128.5t-125.5 -49.5q-57 0 -91.5 35.5t-34.5 93.5zM1019 486h-952l22 157h952zM347 132q0 79 48.5 128.5t125.5 49.5q57 0 91.5 -35t34.5 -93q0 -79 -48.5 -129t-125.5 -50
q-57 0 -91.5 35.5t-34.5 93.5z" />
    <glyph glyph-name="oslash" unicode="&#xf8;" 
d="M1005 1140l-80 -130q148 -101 148 -345q0 -310 -163.5 -500t-432.5 -190q-87 0 -164 24l-87 -142l-100 59l82 134q-150 109 -150 350q0 305 164 493t431 188q89 0 166 -22l85 140zM633 944q-84 0 -152.5 -77.5t-107.5 -211t-39 -294.5q0 -50 10 -98l382 651
q-39 30 -93 30zM496 112q82 0 151.5 79.5t109.5 215.5t40 296q0 50 -8 93l-383 -652q38 -32 90 -32z" />
    <glyph glyph-name="ugrave" unicode="&#xf9;" horiz-adv-x="1228" 
d="M508 1556l384 -242q-26 -78 -63 -122l-412 193q27 90 91 171zM985 183q0 -33 15 -45.5t51 -12.5q38 0 65 4l-7 -101q-121 -48 -209 -48q-82 0 -121 29t-39 92q0 90 87 378h-3q-153 -504 -457 -504q-258 0 -258 233q0 38 10 98l86 495q9 48 9 73q0 24 -8.5 33.5t-27.5 9.5
q-36 0 -83 -16v101q50 32 132.5 55.5t151.5 23.5q77 0 99.5 -17t22.5 -71q0 -58 -15 -142l-93 -530q-10 -56 -10 -95q0 -42 13.5 -60.5t41.5 -18.5q44 0 98 45.5t105.5 123t95 194.5t63.5 247l46 299h274l-131 -824q-4 -25 -4 -49z" />
    <glyph glyph-name="uacute" unicode="&#xfa;" horiz-adv-x="1228" 
d="M981 1385l-412 -193q-35 42 -62 122l383 242q64 -81 91 -171zM985 183q0 -33 15 -45.5t51 -12.5q38 0 65 4l-7 -101q-121 -48 -209 -48q-82 0 -121 29t-39 92q0 90 87 378h-3q-153 -504 -457 -504q-258 0 -258 233q0 38 10 98l86 495q9 48 9 73q0 24 -8.5 33.5t-27.5 9.5
q-36 0 -83 -16v101q50 32 132.5 55.5t151.5 23.5q77 0 99.5 -17t22.5 -71q0 -58 -15 -142l-93 -530q-10 -56 -10 -95q0 -42 13.5 -60.5t41.5 -18.5q44 0 98 45.5t105.5 123t95 194.5t63.5 247l46 299h274l-131 -824q-4 -25 -4 -49z" />
    <glyph glyph-name="ucircumflex" unicode="&#xfb;" horiz-adv-x="1228" 
d="M705 1349l-255 -143q-41 46 -59 112l340 237l274 -241q-28 -62 -78 -108zM985 183q0 -33 15 -45.5t51 -12.5q38 0 65 4l-7 -101q-121 -48 -209 -48q-82 0 -121 29t-39 92q0 90 87 378h-3q-153 -504 -457 -504q-258 0 -258 233q0 38 10 98l86 495q9 48 9 73
q0 24 -8.5 33.5t-27.5 9.5q-36 0 -83 -16v101q50 32 132.5 55.5t151.5 23.5q77 0 99.5 -17t22.5 -71q0 -58 -15 -142l-93 -530q-10 -56 -10 -95q0 -42 13.5 -60.5t41.5 -18.5q44 0 98 45.5t105.5 123t95 194.5t63.5 247l46 299h274l-131 -824q-4 -25 -4 -49z" />
    <glyph glyph-name="udieresis" unicode="&#xfc;" horiz-adv-x="1228" 
d="M481 1232q-50 0 -82.5 33.5t-32.5 85.5q0 67 44.5 109.5t113.5 42.5q50 0 82.5 -33t32.5 -85q0 -67 -44.5 -110t-113.5 -43zM889 1232q-50 0 -82 33.5t-32 85.5q0 67 44.5 109.5t113.5 42.5q50 0 82 -33t32 -85q0 -67 -44.5 -110t-113.5 -43zM985 183q0 -33 15 -45.5
t51 -12.5q38 0 65 4l-7 -101q-121 -48 -209 -48q-82 0 -121 29t-39 92q0 90 87 378h-3q-153 -504 -457 -504q-258 0 -258 233q0 38 10 98l86 495q9 48 9 73q0 24 -8.5 33.5t-27.5 9.5q-36 0 -83 -16v101q50 32 132.5 55.5t151.5 23.5q77 0 99.5 -17t22.5 -71q0 -58 -15 -142
l-93 -530q-10 -56 -10 -95q0 -42 13.5 -60.5t41.5 -18.5q44 0 98 45.5t105.5 123t95 194.5t63.5 247l46 299h274l-131 -824q-4 -25 -4 -49z" />
    <glyph glyph-name="yacute" unicode="&#xfd;" horiz-adv-x="1116" 
d="M909 1385l-412 -193q-37 44 -63 122l384 242q64 -81 91 -171zM960 1081q59 0 87 -29t28 -89q0 -176 -109 -444t-295 -549q-148 -224 -285.5 -322.5t-302.5 -98.5q-59 0 -103 12q-16 35 -16 85q0 61 31.5 94.5t88.5 33.5q29 0 65.5 -13.5t60.5 -13.5q77 0 122 78t45 215
q0 185 -112 622q-41 162 -64 208.5t-62 46.5q-36 0 -81 -16l-7 101q47 32 124 55.5t133 23.5q43 0 70 -11.5t51.5 -48t44 -95.5t44.5 -164q81 -337 81 -582q0 -50 -2 -72q106 186 176.5 389t70.5 327q0 52 -12 72.5t-42 20.5q-28 0 -73 -16l-7 101q47 32 121.5 55.5
t128.5 23.5z" />
    <glyph glyph-name="thorn" unicode="&#xfe;" horiz-adv-x="1171" 
d="M793 1081q156 0 228.5 -88.5t72.5 -278.5q0 -148 -42 -284.5t-112 -236t-166.5 -159t-201.5 -59.5q-159 0 -244 108q-13 -187 -36 -355l-22 -158h-273l235 1668q7 45 7 73q0 25 -7.5 34t-26.5 9q-37 0 -84 -16v101q50 32 130 55.5t148 23.5q75 0 97.5 -17t22.5 -71
q0 -79 -51 -338.5t-120 -514.5h3q33 108 73.5 194.5t94.5 158.5t124 111.5t150 39.5zM496 126q80 0 153 84.5t116.5 223.5t43.5 292q0 96 -21 139.5t-67 43.5q-38 0 -89 -45.5t-101 -123t-93.5 -195t-63.5 -246.5l-14 -88q51 -85 136 -85z" />
    <glyph glyph-name="ydieresis" unicode="&#xff;" horiz-adv-x="1116" 
d="M430 1232q-50 0 -82 33.5t-32 85.5q0 67 44.5 109.5t113.5 42.5q50 0 82 -33t32 -85q0 -67 -44.5 -110t-113.5 -43zM839 1232q-50 0 -82.5 33.5t-32.5 85.5q0 67 44.5 109.5t113.5 42.5q50 0 82 -33t32 -85q0 -67 -44 -110t-113 -43zM960 1081q59 0 87 -29t28 -89
q0 -176 -109 -444t-295 -549q-148 -224 -285.5 -322.5t-302.5 -98.5q-59 0 -103 12q-16 35 -16 85q0 61 31.5 94.5t88.5 33.5q29 0 65.5 -13.5t60.5 -13.5q77 0 122 78t45 215q0 185 -112 622q-41 162 -64 208.5t-62 46.5q-36 0 -81 -16l-7 101q47 32 124 55.5t133 23.5
q43 0 70 -11.5t51.5 -48t44 -95.5t44.5 -164q81 -337 81 -582q0 -50 -2 -72q106 186 176.5 389t70.5 327q0 52 -12 72.5t-42 20.5q-28 0 -73 -16l-7 101q47 32 121.5 55.5t128.5 23.5z" />
    <glyph glyph-name="Amacron" unicode="&#x100;" horiz-adv-x="1384" 
d="M1106 1630h-556l22 149h555zM1290 104l-8 -104h-576l16 104l53 8q53 9 74.5 29.5t21.5 66.5q0 28 -10 85l-22 122h-439l-56 -122q-42 -90 -42 -122q0 -26 21.5 -38t72.5 -22l40 -7l-16 -104h-503l16 104l53 9q53 9 83 42t81 138l555 1146h212l225 -1146
q21 -105 40.5 -136.5t70.5 -43.5zM814 553l-100 549l-251 -549h351z" />
    <glyph glyph-name="amacron" unicode="&#x101;" horiz-adv-x="1177" 
d="M934 1286h-555l21 148h556zM935 183q0 -33 15 -45.5t51 -12.5q38 0 65 4l-7 -101q-121 -48 -208 -48q-82 0 -121 29t-39 92q0 93 86 378h-2q-151 -504 -444 -504q-147 0 -212 87.5t-65 279.5q0 148 40.5 284.5t109 236t162.5 159t196 59.5q161 0 246 -111l5 12
q24 55 51.5 77t74.5 22q63 0 130 -35l-129 -814q-5 -32 -5 -49zM405 147q38 0 88.5 45.5t100.5 123t93.5 195t63.5 246.5l13 88q-50 85 -129 85q-77 0 -147.5 -84.5t-112.5 -223.5t-42 -292q0 -97 16.5 -140t55.5 -43z" />
    <glyph glyph-name="Abreve" unicode="&#x102;" horiz-adv-x="1384" 
d="M827 1562q-120 0 -188.5 63.5t-79.5 184.5q22 16 58.5 27.5t65.5 11.5q24 -139 163 -139q65 0 106.5 31.5t75.5 107.5q30 0 65 -11.5t53 -27.5q-90 -248 -319 -248zM1290 104l-8 -104h-576l16 104l53 8q53 9 74.5 29.5t21.5 66.5q0 28 -10 85l-22 122h-439l-56 -122
q-42 -90 -42 -122q0 -26 21.5 -38t72.5 -22l40 -7l-16 -104h-503l16 104l53 9q53 9 83 42t81 138l555 1146h212l225 -1146q21 -105 40.5 -136.5t70.5 -43.5zM814 553l-100 549l-251 -549h351z" />
    <glyph glyph-name="abreve" unicode="&#x103;" horiz-adv-x="1177" 
d="M658 1218q-120 0 -188 63.5t-79 184.5q22 16 58.5 27.5t65.5 11.5q24 -140 163 -140q65 0 106.5 32t75.5 108q30 0 65 -11.5t53 -27.5q-90 -248 -320 -248zM935 183q0 -33 15 -45.5t51 -12.5q38 0 65 4l-7 -101q-121 -48 -208 -48q-82 0 -121 29t-39 92q0 93 86 378h-2
q-151 -504 -444 -504q-147 0 -212 87.5t-65 279.5q0 148 40.5 284.5t109 236t162.5 159t196 59.5q161 0 246 -111l5 12q24 55 51.5 77t74.5 22q63 0 130 -35l-129 -814q-5 -32 -5 -49zM405 147q38 0 88.5 45.5t100.5 123t93.5 195t63.5 246.5l13 88q-50 85 -129 85
q-77 0 -147.5 -84.5t-112.5 -223.5t-42 -292q0 -97 16.5 -140t55.5 -43z" />
    <glyph glyph-name="Aogonek" unicode="&#x104;" horiz-adv-x="1384" 
d="M1290 104l-8 -104h-239q-145 0 -233 -62.5t-88 -165.5q0 -51 22.5 -78.5t63.5 -27.5q58 0 110 50q24 -44 25 -98q-91 -81 -225 -81q-86 0 -138.5 50.5t-52.5 133.5q0 63 19 114.5t49.5 85.5t67 62t73 51t67 46t49.5 53.5t19 67.5t-10 92l-22 122h-440l-55 -122
q-42 -90 -42 -122q0 -26 21.5 -38t72.5 -22l40 -7l-16 -104h-503l16 104l53 9q53 9 83 42t81 138l555 1146h212l225 -1146q21 -105 40.5 -136.5t70.5 -43.5zM814 553l-100 549l-251 -549h351z" />
    <glyph glyph-name="aogonek" unicode="&#x105;" horiz-adv-x="1177" 
d="M935 182q0 -32 14.5 -44.5t51.5 -12.5q38 0 65 4l-7 -107q-127 -35 -203.5 -105.5t-76.5 -151.5q0 -45 24 -72t63 -27q57 0 109 50q25 -46 26 -98q-92 -81 -225 -81q-86 0 -139 50.5t-53 133.5q0 86 53 155.5t148 109.5q-94 21 -94 115q0 93 86 378h-2
q-151 -504 -444 -504q-147 0 -212 87.5t-65 279.5q0 148 40.5 284.5t109 236t162.5 159t196 59.5q161 0 246 -111l5 12q24 55 51.5 77t74.5 22q63 0 130 -35l-129 -814q-5 -33 -5 -50zM405 147q38 0 88.5 45.5t100.5 123t93.5 195t63.5 246.5l13 88q-50 85 -129 85
q-77 0 -147.5 -84.5t-112.5 -223.5t-42 -292q0 -97 16.5 -140t55.5 -43z" />
    <glyph glyph-name="Cacute" unicode="&#x106;" horiz-adv-x="1280" 
d="M693 1658l383 243q64 -81 91 -171l-412 -193q-36 42 -62 121zM873 1466q118 0 243.5 -25.5t188.5 -25.5q-15 -175 -52 -367l-158 -10q0 154 -54.5 219.5t-181.5 65.5q-136 0 -243.5 -100.5t-167.5 -279t-60 -402.5q0 -208 78 -319t224 -111q138 0 216.5 72t119.5 235
l150 -9l-47 -338q-225 -104 -467 -104q-278 0 -425 152t-147 439q0 269 97.5 475.5t275.5 319.5t410 113z" />
    <glyph glyph-name="cacute" unicode="&#x107;" horiz-adv-x="962" 
d="M458 1314l384 242q64 -81 91 -171l-412 -193q-37 44 -63 122zM431 -25q-181 0 -277 109t-96 314q0 306 164 494.5t433 188.5q174 0 296 -82q8 -20 8 -54q0 -65 -35 -103t-95 -38q-43 0 -71 22t-39.5 48t-34.5 48t-58 22q-75 0 -139.5 -72t-102.5 -193.5t-38 -259.5
q0 -134 51 -204.5t148 -70.5q133 0 254 101l38 -128q-96 -74 -192 -108t-214 -34z" />
    <glyph glyph-name="Ccircumflex" unicode="&#x108;" horiz-adv-x="1280" 
d="M879 1693l-255 -142q-40 45 -58 112l340 236l273 -240q-29 -63 -77 -108zM859 1323q-136 0 -243.5 -100.5t-167.5 -279t-60 -402.5q0 -208 78 -319t224 -111q138 0 216.5 72t119.5 235l150 -9l-47 -338q-225 -104 -467 -104q-278 0 -425 152t-147 439q0 269 97.5 475.5
t275.5 319.5t410 113q118 0 243.5 -25.5t188.5 -25.5q-15 -175 -52 -367l-158 -10q0 154 -54.5 219.5t-181.5 65.5z" />
    <glyph glyph-name="ccircumflex" unicode="&#x109;" horiz-adv-x="962" 
d="M657 1349l-255 -143q-40 45 -58 112l340 237l273 -241q-28 -62 -78 -108zM626 944q-75 0 -139.5 -72t-102.5 -193.5t-38 -259.5q0 -134 51 -204.5t148 -70.5q133 0 254 101l38 -128q-96 -74 -192 -108t-214 -34q-181 0 -277 109t-96 314q0 306 164 494.5t433 188.5
q174 0 296 -82q8 -20 8 -54q0 -65 -35 -103t-95 -38q-43 0 -71 22t-39.5 48t-34.5 48t-58 22z" />
    <glyph glyph-name="Cdotaccent" unicode="&#x10a;" horiz-adv-x="1280" 
d="M727 1692q0 76 48.5 123.5t127.5 47.5q57 0 93 -34.5t36 -88.5q0 -76 -48.5 -123t-127.5 -47q-57 0 -93 34t-36 88zM873 1466q118 0 243.5 -25.5t188.5 -25.5q-15 -175 -52 -367l-158 -10q0 154 -54.5 219.5t-181.5 65.5q-136 0 -243.5 -100.5t-167.5 -279t-60 -402.5
q0 -208 78 -319t224 -111q138 0 216.5 72t119.5 235l150 -9l-47 -338q-225 -104 -467 -104q-278 0 -425 152t-147 439q0 269 97.5 475.5t275.5 319.5t410 113z" />
    <glyph glyph-name="cdotaccent" unicode="&#x10b;" horiz-adv-x="962" 
d="M507 1348q0 76 49 123t128 47q57 0 93 -34t36 -88q0 -76 -49 -123.5t-128 -47.5q-57 0 -93 34.5t-36 88.5zM431 -25q-181 0 -277 109t-96 314q0 306 164 494.5t433 188.5q174 0 296 -82q8 -20 8 -54q0 -65 -35 -103t-95 -38q-43 0 -71 22t-39.5 48t-34.5 48t-58 22
q-75 0 -139.5 -72t-102.5 -193.5t-38 -259.5q0 -134 51 -204.5t148 -70.5q133 0 254 101l38 -128q-96 -74 -192 -108t-214 -34z" />
    <glyph glyph-name="Ccaron" unicode="&#x10c;" horiz-adv-x="1280" 
d="M855 1541l-263 240q28 62 78 108l212 -141l245 141q40 -45 58 -112zM859 1323q-136 0 -243.5 -100.5t-167.5 -279t-60 -402.5q0 -208 78 -319t224 -111q138 0 216.5 72t119.5 235l150 -9l-47 -338q-225 -104 -467 -104q-278 0 -425 152t-147 439q0 269 97.5 475.5
t275.5 319.5t410 113q118 0 243.5 -25.5t188.5 -25.5q-15 -175 -52 -367l-158 -10q0 154 -54.5 219.5t-181.5 65.5z" />
    <glyph glyph-name="ccaron" unicode="&#x10d;" horiz-adv-x="962" 
d="M636 1196l-263 241q28 60 78 107l212 -141l245 141q40 -45 58 -112zM655 1081q174 0 296 -82q8 -20 8 -54q0 -65 -35 -103t-95 -38q-43 0 -71 22t-39.5 48t-34.5 48t-58 22q-75 0 -139.5 -72t-102.5 -193.5t-38 -259.5q0 -134 51 -204.5t148 -70.5q71 0 130 24t123 77
l39 -128q-96 -74 -192 -108t-214 -34q-181 0 -277 109t-96 314q0 306 164 494.5t433 188.5z" />
    <glyph glyph-name="Dcaron" unicode="&#x10e;" horiz-adv-x="1452" 
d="M843 1541l-263 240q28 62 78 108l212 -141l244 141q40 -45 58 -112zM772 1443q303 0 462 -147.5t159 -428.5q0 -260 -103 -459.5t-290.5 -308.5t-432.5 -109q-77 0 -214 5t-229 5h-120l16 104l64 13q46 9 64.5 29t25.5 70l140 1001q4 28 4 36q0 31 -18 44.5t-69 24.5
l-38 8l7 104h127q91 0 230 4.5t215 4.5zM563 122q154 0 275.5 96t188.5 267t67 387q0 210 -90.5 324.5t-256.5 114.5q-81 0 -142 -10l-150 -1073q-3 -18 -3 -33q0 -41 25 -57t86 -16z" />
    <glyph glyph-name="dcaron" unicode="&#x10f;" horiz-adv-x="1222" 
d="M1289 1553q94 -5 175 -32q-38 -200 -115 -372q-73 5 -133 32q55 205 73 372zM1023 1518q77 0 100 -17t23 -71q0 -49 -15 -142l-168 -1056q-5 -32 -5 -49q0 -33 15 -45.5t52 -12.5t64 4l-7 -101q-121 -48 -208 -48q-82 0 -121 29t-39 92q0 93 86 378h-2
q-151 -504 -444 -504q-156 0 -228.5 88.5t-72.5 278.5q0 148 42 284.5t112 236t166.5 159t201.5 59.5q157 0 242 -105q9 117 32 262q8 51 8 73q0 25 -8 34t-27 9q-36 0 -83 -16v101q50 32 132.5 55.5t151.5 23.5zM426 147q38 0 89 45.5t101.5 123t94 195t63.5 246.5l13 88
q-51 85 -135 85q-80 0 -153 -84t-117 -223.5t-44 -292.5q0 -96 21 -139.5t67 -43.5z" />
    <glyph glyph-name="Dcroat" unicode="&#x110;" horiz-adv-x="1452" 
d="M772 1443q303 0 462 -147.5t159 -428.5q0 -260 -103 -459.5t-290.5 -308.5t-432.5 -109q-77 0 -214 5t-229 5h-120l16 104l64 13q46 9 64.5 29t25.5 70l63 454h-127l19 130h127l58 417q4 28 4 36q0 31 -18 44.5t-69 24.5l-38 8l7 104h127q91 0 230 4.5t215 4.5zM563 122
q154 0 275.5 96t188.5 267t67 387q0 210 -90.5 324.5t-256.5 114.5q-81 0 -142 -10l-70 -501h241l-19 -130h-241l-61 -442q-3 -18 -3 -33q0 -41 25 -57t86 -16z" />
    <glyph glyph-name="dcroat" unicode="&#x111;" horiz-adv-x="1202" 
d="M1113 1174l-150 -942q-5 -33 -5 -50q0 -32 15 -44.5t52 -12.5t64 4l-7 -101q-121 -48 -208 -48q-82 0 -121 29t-39 92q0 93 86 378h-2q-151 -504 -444 -504q-156 0 -228.5 88.5t-72.5 278.5q0 148 42 284.5t112 236t166.5 159t201.5 59.5q157 0 242 -105q8 92 24 203
h-232l14 102h233l2 12q5 32 5 47q0 21 -7 30t-23 9q-35 0 -80 -16v77q51 33 126.5 55.5t143.5 22.5q77 0 100 -17t23 -71q0 -49 -15 -142l-1 -3h113l-15 -111h-115zM426 147q38 0 89 45.5t101.5 123t94 195t63.5 246.5l13 88q-51 85 -135 85q-80 0 -153 -84t-117 -223.5
t-44 -292.5q0 -96 21 -139.5t67 -43.5z" />
    <glyph glyph-name="Emacron" unicode="&#x112;" horiz-adv-x="1236" 
d="M1051 1630h-555l21 149h556zM1193 1071l-162 -10q2 104 -10 152.5t-45 67.5t-105 19h-266l-71 -506h219q49 0 70.5 21.5t44.5 89.5l13 41l136 4l-65 -458l-134 4v71q-1 49 -21 71t-63 22h-219l-60 -432q0 -3 -1.5 -12.5t-1.5 -14.5q0 -39 27 -53t97 -14h164
q104 0 146.5 45t79.5 194l161 -10q-17 -185 -67 -363h-1056l16 104l64 13q46 9 64.5 29t25.5 70l140 1001q4 28 4 36q0 31 -18 44.5t-69 24.5l-38 8l7 104h1030q-1 -180 -37 -363z" />
    <glyph glyph-name="emacron" unicode="&#x113;" horiz-adv-x="1044" 
d="M919 1286h-556l22 148h555zM394 435q-38 0 -55 2v-18q0 -278 230 -278q154 0 275 101l39 -125q-96 -75 -195.5 -108.5t-232.5 -33.5q-197 0 -297 108t-100 315q0 306 164 494.5t433 188.5q344 0 344 -253q0 -186 -159.5 -289.5t-445.5 -103.5zM617 944q-93 0 -167 -108
t-100 -273q28 -2 37 -2q160 0 256 70.5t96 189.5q0 123 -122 123z" />
    <glyph glyph-name="Ebreve" unicode="&#x114;" horiz-adv-x="1236" 
d="M772 1562q-120 0 -188.5 63.5t-79.5 184.5q22 16 58.5 27.5t65.5 11.5q24 -139 163 -139q65 0 107 31.5t76 107.5q30 0 64.5 -11.5t52.5 -27.5q-90 -248 -319 -248zM1193 1071l-162 -10q2 104 -10 152.5t-45 67.5t-105 19h-266l-71 -506h219q49 0 70.5 21.5t44.5 89.5
l13 41l136 4l-65 -458l-134 4v71q-1 49 -21 71t-63 22h-219l-60 -432q0 -3 -1.5 -12.5t-1.5 -14.5q0 -39 27 -53t97 -14h164q104 0 146.5 45t79.5 194l161 -10q-17 -185 -67 -363h-1056l16 104l64 13q46 9 64.5 29t25.5 70l140 1001q4 28 4 36q0 31 -18 44.5t-69 24.5l-38 8
l7 104h1030q-1 -180 -37 -363z" />
    <glyph glyph-name="ebreve" unicode="&#x115;" horiz-adv-x="1044" 
d="M643 1218q-120 0 -188.5 63.5t-79.5 184.5q22 16 58.5 27.5t65.5 11.5q24 -140 163 -140q65 0 106.5 32t75.5 108q30 0 65 -11.5t53 -27.5q-90 -248 -319 -248zM394 435q-38 0 -55 2v-18q0 -278 230 -278q154 0 275 101l39 -125q-96 -75 -195.5 -108.5t-232.5 -33.5
q-197 0 -297 108t-100 315q0 306 164 494.5t433 188.5q344 0 344 -253q0 -186 -159.5 -289.5t-445.5 -103.5zM617 944q-93 0 -167 -108t-100 -273q28 -2 37 -2q160 0 256 70.5t96 189.5q0 123 -122 123z" />
    <glyph glyph-name="Edotaccent" unicode="&#x116;" horiz-adv-x="1236" 
d="M761 1570q-57 0 -93 34t-36 88q0 76 48.5 123.5t127.5 47.5q57 0 93 -34.5t36 -88.5q0 -76 -48.5 -123t-127.5 -47zM1193 1071l-162 -10q2 104 -10 152.5t-45 67.5t-105 19h-266l-71 -506h219q49 0 70.5 21.5t44.5 89.5l13 41l136 4l-65 -458l-134 4v71q-1 49 -21 71
t-63 22h-219l-60 -432q0 -3 -1.5 -12.5t-1.5 -14.5q0 -39 27 -53t97 -14h164q104 0 146.5 45t79.5 194l161 -10q-17 -185 -67 -363h-1056l16 104l64 13q46 9 64.5 29t25.5 70l140 1001q4 28 4 36q0 31 -18 44.5t-69 24.5l-38 8l7 104h1030q-1 -180 -37 -363z" />
    <glyph glyph-name="edotaccent" unicode="&#x117;" horiz-adv-x="1044" 
d="M631 1225q-57 0 -93 34.5t-36 88.5q0 76 48.5 123t127.5 47q57 0 93 -34t36 -88q0 -76 -48.5 -123.5t-127.5 -47.5zM394 435q-38 0 -55 2v-18q0 -278 230 -278q154 0 275 101l39 -125q-96 -75 -195.5 -108.5t-232.5 -33.5q-197 0 -297 108t-100 315q0 306 164 494.5
t433 188.5q344 0 344 -253q0 -186 -159.5 -289.5t-445.5 -103.5zM617 944q-93 0 -167 -108t-100 -273q28 -2 37 -2q160 0 256 70.5t96 189.5q0 123 -122 123z" />
    <glyph glyph-name="Eogonek" unicode="&#x118;" horiz-adv-x="1236" 
d="M1193 1071l-162 -10q2 104 -10 152.5t-45 67.5t-105 19h-266l-71 -506h219q49 0 70.5 21.5t44.5 89.5l13 41l136 4l-65 -458l-134 4v71q-1 49 -21 71t-63 22h-219l-60 -432q0 -3 -1.5 -12.5t-1.5 -14.5q0 -39 27 -53t97 -14h164q104 0 146.5 45t79.5 194l161 -10
q-17 -185 -67 -363q-120 0 -205.5 -69t-85.5 -165q0 -46 23 -73t63 -27q58 0 110 50q24 -44 25 -98q-92 -81 -225 -81q-86 0 -138.5 50.5t-52.5 133.5q0 95 60 169t167 110h-797l16 104l64 13q46 9 64.5 29t25.5 70l140 1001q4 28 4 36q0 31 -18 44.5t-69 24.5l-38 8l7 104
h1030q-1 -180 -37 -363z" />
    <glyph glyph-name="eogonek" unicode="&#x119;" horiz-adv-x="1044" 
d="M394 435q-38 0 -55 2v-18q0 -278 230 -278q154 0 275 101l40 -131q-297 -175 -297 -339q0 -51 22.5 -78.5t63.5 -27.5q58 0 110 50q24 -44 25 -98q-92 -81 -225 -81q-86 0 -139 50.5t-53 133.5q0 84 47 153t129 108q-49 -7 -112 -7q-197 0 -297 108t-100 315
q0 306 164 494.5t433 188.5q344 0 344 -253q0 -186 -159.5 -289.5t-445.5 -103.5zM617 944q-93 0 -167 -108t-100 -273q28 -2 37 -2q160 0 256 70.5t96 189.5q0 123 -122 123z" />
    <glyph glyph-name="Ecaron" unicode="&#x11a;" horiz-adv-x="1236" 
d="M760 1541l-263 240q28 62 78 108l212 -141l245 141q40 -45 58 -112zM1193 1071l-162 -10q2 104 -10 152.5t-45 67.5t-105 19h-266l-71 -506h219q49 0 70.5 21.5t44.5 89.5l13 41l136 4l-65 -458l-134 4v71q-1 49 -21 71t-63 22h-219l-60 -432q0 -3 -1.5 -12.5t-1.5 -14.5
q0 -39 27 -53t97 -14h164q104 0 146.5 45t79.5 194l161 -10q-17 -185 -67 -363h-1056l16 104l64 13q46 9 64.5 29t25.5 70l140 1001q4 28 4 36q0 31 -18 44.5t-69 24.5l-38 8l7 104h1030q-1 -180 -37 -363z" />
    <glyph glyph-name="ecaron" unicode="&#x11b;" horiz-adv-x="1044" 
d="M631 1196l-263 241q28 60 78 107l212 -141l244 141q41 -46 59 -112zM394 435q-38 0 -55 2v-18q0 -278 230 -278q154 0 275 101l39 -125q-96 -75 -195.5 -108.5t-232.5 -33.5q-197 0 -297 108t-100 315q0 306 164 494.5t433 188.5q344 0 344 -253q0 -186 -159.5 -289.5
t-445.5 -103.5zM617 944q-93 0 -167 -108t-100 -273q28 -2 37 -2q160 0 256 70.5t96 189.5q0 123 -122 123z" />
    <glyph glyph-name="Gcircumflex" unicode="&#x11c;" horiz-adv-x="1419" 
d="M893 1693l-255 -142q-40 45 -58 112l340 236l273 -240q-28 -62 -78 -108zM1396 709l-15 -103l-61 -11q-46 -8 -64 -29.5t-25 -72.5l-62 -440q-250 -86 -507 -86q-278 0 -425 152t-147 439q0 202 57 371t160.5 287.5t252 184t327.5 65.5q128 0 265 -25.5t198 -25.5
q-15 -175 -52 -367l-158 -10q0 152 -63.5 218.5t-204.5 66.5q-142 0 -253 -100.5t-171 -278.5t-60 -403q0 -200 79.5 -310t224.5 -110q124 0 229 37l48 335q3 21 3 36q0 31 -18 44t-69 24l-38 9l8 103h541z" />
    <glyph glyph-name="gcircumflex" unicode="&#x11d;" horiz-adv-x="1087" 
d="M638 1349l-255 -143q-40 45 -58 112l340 237l273 -241q-28 -62 -78 -108zM1117 1064q7 -22 7 -51q0 -109 -111 -109q-64 0 -180 48q53 -34 83 -91t30 -122q0 -161 -132.5 -266t-335.5 -105q-86 0 -154 21q-49 -35 -49 -79q0 -39 34 -60t112 -32l190 -26q177 -25 252 -80
t75 -160q0 -183 -157.5 -293t-419.5 -110q-200 0 -311.5 67t-111.5 187q0 198 251 261q-124 51 -124 168q0 136 170 199q-132 86 -132 249q0 182 129.5 291.5t346.5 109.5q107 0 192 -40q170 2 346 23zM496 495q90 0 146 79t56 207q0 83 -36 127.5t-103 44.5
q-92 0 -147 -75.5t-55 -200.5q0 -82 38 -132t101 -50zM675 -129q0 48 -30.5 76t-105 46.5t-221.5 34.5q-148 -62 -148 -193q0 -77 59 -121.5t160 -44.5q126 0 206 56.5t80 145.5z" />
    <glyph glyph-name="Gbreve" unicode="&#x11e;" horiz-adv-x="1419" 
d="M881 1562q-120 0 -188.5 63.5t-79.5 184.5q22 16 58.5 27.5t65.5 11.5q24 -139 163 -139q65 0 107 31.5t76 107.5q30 0 64.5 -11.5t52.5 -27.5q-90 -248 -319 -248zM1396 709l-15 -103l-61 -11q-46 -8 -64 -29.5t-25 -72.5l-62 -440q-250 -86 -507 -86q-278 0 -425 152
t-147 439q0 202 57 371t160.5 287.5t252 184t327.5 65.5q128 0 265 -25.5t198 -25.5q-15 -175 -52 -367l-158 -10q0 152 -63.5 218.5t-204.5 66.5q-142 0 -253 -100.5t-171 -278.5t-60 -403q0 -200 79.5 -310t224.5 -110q124 0 229 37l48 335q3 21 3 36q0 31 -18 44t-69 24
l-38 9l8 103h541z" />
    <glyph glyph-name="gbreve" unicode="&#x11f;" horiz-adv-x="1087" 
d="M629 1218q-120 0 -188.5 63.5t-79.5 184.5q22 16 59 27.5t66 11.5q24 -140 162 -140q65 0 107 32t76 108q30 0 64.5 -11.5t52.5 -27.5q-90 -248 -319 -248zM1117 1064q7 -22 7 -51q0 -109 -111 -109q-64 0 -180 48q53 -34 83 -91t30 -122q0 -161 -132.5 -266t-335.5 -105
q-86 0 -154 21q-49 -35 -49 -79q0 -39 34 -60t112 -32l190 -26q177 -25 252 -80t75 -160q0 -183 -157.5 -293t-419.5 -110q-200 0 -311.5 67t-111.5 187q0 198 251 261q-124 51 -124 168q0 136 170 199q-132 86 -132 249q0 182 129.5 291.5t346.5 109.5q107 0 192 -40
q170 2 346 23zM496 495q90 0 146 79t56 207q0 83 -36 127.5t-103 44.5q-92 0 -147 -75.5t-55 -200.5q0 -82 38 -132t101 -50zM675 -129q0 48 -30.5 76t-105 46.5t-221.5 34.5q-148 -62 -148 -193q0 -77 59 -121.5t160 -44.5q126 0 206 56.5t80 145.5z" />
    <glyph glyph-name="Gdotaccent" unicode="&#x120;" horiz-adv-x="1419" 
d="M870 1570q-57 0 -93 34t-36 88q0 76 48.5 123.5t127.5 47.5q57 0 93 -34.5t36 -88.5q0 -76 -48.5 -123t-127.5 -47zM1396 709l-15 -103l-61 -11q-46 -8 -64 -29.5t-25 -72.5l-62 -440q-250 -86 -507 -86q-278 0 -425 152t-147 439q0 202 57 371t160.5 287.5t252 184
t327.5 65.5q128 0 265 -25.5t198 -25.5q-15 -175 -52 -367l-158 -10q0 152 -63.5 218.5t-204.5 66.5q-142 0 -253 -100.5t-171 -278.5t-60 -403q0 -200 79.5 -310t224.5 -110q124 0 229 37l48 335q3 21 3 36q0 31 -18 44t-69 24l-38 9l8 103h541z" />
    <glyph glyph-name="gdotaccent" unicode="&#x121;" horiz-adv-x="1087" 
d="M617 1225q-57 0 -93 34.5t-36 88.5q0 76 49 123t128 47q57 0 93 -34t36 -88q0 -76 -49 -123.5t-128 -47.5zM1117 1064q7 -22 7 -51q0 -109 -111 -109q-64 0 -180 48q53 -34 83 -91t30 -122q0 -161 -132.5 -266t-335.5 -105q-86 0 -154 21q-49 -35 -49 -79q0 -39 34 -60
t112 -32l190 -26q177 -25 252 -80t75 -160q0 -183 -157.5 -293t-419.5 -110q-200 0 -311.5 67t-111.5 187q0 198 251 261q-124 51 -124 168q0 136 170 199q-132 86 -132 249q0 182 129.5 291.5t346.5 109.5q107 0 192 -40q170 2 346 23zM496 495q90 0 146 79t56 207
q0 83 -36 127.5t-103 44.5q-92 0 -147 -75.5t-55 -200.5q0 -82 38 -132t101 -50zM675 -129q0 48 -30.5 76t-105 46.5t-221.5 34.5q-148 -62 -148 -193q0 -77 59 -121.5t160 -44.5q126 0 206 56.5t80 145.5z" />
    <glyph glyph-name="Gcommaaccent" unicode="&#x122;" horiz-adv-x="1419" 
d="M1396 709l-15 -103l-61 -11q-46 -8 -64 -29.5t-25 -72.5l-62 -440q-250 -86 -507 -86q-278 0 -425 152t-147 439q0 202 57 371t160.5 287.5t252 184t327.5 65.5q128 0 265 -25.5t198 -25.5q-15 -175 -52 -367l-158 -10q0 152 -63.5 218.5t-204.5 66.5q-142 0 -253 -100.5
t-171 -278.5t-60 -403q0 -200 79.5 -310t224.5 -110q124 0 229 37l48 335q3 21 3 36q0 31 -18 44t-69 24l-38 9l8 103h541zM651 -83q52 0 80.5 -34t28.5 -95q0 -113 -71.5 -198t-190.5 -114q-26 19 -32 56q93 43 116 137q-33 11 -53 41.5t-20 71.5q0 61 39 98t103 37z" />
    <glyph glyph-name="gcommaaccent" unicode="&#x123;" horiz-adv-x="1087" 
d="M620 1210q-52 0 -80.5 33.5t-28.5 94.5q0 113 71.5 198t190.5 114q27 -20 33 -56q-94 -43 -117 -137q33 -11 53 -41t20 -71q0 -61 -39 -98t-103 -37zM1117 1064q7 -22 7 -51q0 -109 -111 -109q-64 0 -180 48q53 -34 83 -91t30 -122q0 -161 -132.5 -266t-335.5 -105
q-86 0 -154 21q-49 -35 -49 -79q0 -39 34 -60t112 -32l190 -26q177 -25 252 -80t75 -160q0 -183 -157.5 -293t-419.5 -110q-200 0 -311.5 67t-111.5 187q0 198 251 261q-124 51 -124 168q0 136 170 199q-132 86 -132 249q0 182 129.5 291.5t346.5 109.5q107 0 192 -40
q170 2 346 23zM496 495q90 0 146 79t56 207q0 83 -36 127.5t-103 44.5q-92 0 -147 -75.5t-55 -200.5q0 -82 38 -132t101 -50zM675 -129q0 48 -30.5 76t-105 46.5t-221.5 34.5q-148 -62 -148 -193q0 -77 59 -121.5t160 -44.5q126 0 206 56.5t80 145.5z" />
    <glyph glyph-name="Hcircumflex" unicode="&#x124;" horiz-adv-x="1519" 
d="M916 1693l-254 -142q-41 46 -59 112l340 236l273 -240q-29 -63 -77 -108zM1555 1434l-16 -104l-76 -11q-45 -7 -63.5 -29t-25.5 -73l-141 -1001q-3 -21 -3 -35q0 -31 17.5 -44t69.5 -23l51 -10l-16 -104h-564l16 104l65 13q43 9 60.5 29t24.5 70l63 447h-502l-63 -447
q-3 -21 -3 -36q0 -30 17.5 -43t66.5 -23l50 -10l-15 -104h-564l16 104l64 13q46 9 64.5 29t25.5 70l140 1001q4 28 4 36q0 31 -18 44.5t-69 24.5l-38 8l7 104h570l-16 -104l-72 -10q-44 -6 -63 -29t-26 -74l-58 -411h502l58 411q3 21 3 36q0 32 -18 46t-68 23l-39 8l16 104
h566z" />
    <glyph glyph-name="hcircumflex" unicode="&#x125;" horiz-adv-x="1202" 
d="M395 1693l-255 -142q-40 45 -58 112l340 236l273 -240q-29 -63 -77 -108zM1031 125q37 0 64 4l-7 -101q-121 -48 -222 -48q-97 0 -139.5 32.5t-42.5 110.5q0 41 8 84l99 563q7 42 7 63q0 40 -16 58t-49 18q-38 0 -91.5 -45.5t-106.5 -123t-98 -195.5t-63 -246l-42 -299
h-274l174 1238q7 45 7 73q0 25 -7.5 34t-26.5 9q-37 0 -84 -16v101q50 32 130 55.5t148 23.5q75 0 97.5 -17t22.5 -71q0 -80 -50.5 -340t-118.5 -513h3q34 107 76 194t97.5 159t126.5 111.5t152 39.5q132 0 200.5 -56.5t68.5 -163.5q0 -32 -6 -68l-99 -561q-5 -33 -5 -50
q0 -32 15 -44.5t52 -12.5z" />
    <glyph glyph-name="Hbar" unicode="&#x126;" horiz-adv-x="1519" 
d="M1539 1330l-76 -11q-45 -7 -63.5 -29t-25.5 -73l-13 -92h136l-17 -123h-136l-111 -786q-3 -21 -3 -35q0 -31 17.5 -44t69.5 -23l51 -10l-16 -104h-564l16 104l65 13q43 9 60.5 29t24.5 70l61 432h-502l-61 -432q-3 -21 -3 -36q0 -30 17.5 -43t66.5 -23l50 -10l-15 -104
h-564l16 104l64 13q46 9 64.5 29t25.5 70l110 786h-137l17 123h138l12 92q4 28 4 36q0 31 -18 44.5t-69 24.5l-38 8l7 104h570l-16 -104l-72 -10q-44 -6 -63 -29t-26 -74l-13 -92h502l13 92q3 21 3 36q0 32 -18 46t-68 23l-39 8l16 104h566zM1065 1002h-502l-30 -211h502z
" />
    <glyph glyph-name="hbar" unicode="&#x127;" horiz-adv-x="1202" 
d="M1031 125q37 0 64 4l-7 -101q-121 -48 -222 -48q-97 0 -139.5 32.5t-42.5 110.5q0 41 8 84l99 563q7 42 7 63q0 40 -16 58t-49 18q-38 0 -91.5 -45.5t-106.5 -123t-98 -195.5t-63 -246l-42 -299h-274l165 1174h-114l15 107h115l2 12q4 25 4 47q0 21 -7 30t-23 9
q-34 0 -79 -16v77q51 33 123.5 55.5t139.5 22.5q75 0 97.5 -17t22.5 -71q0 -38 -16 -145h228l-15 -106h-231q-52 -295 -135 -602h3q34 107 76 194t97.5 159t126.5 111.5t152 39.5q132 0 200.5 -56.5t68.5 -163.5q0 -32 -6 -68l-99 -561q-5 -33 -5 -50q0 -32 15 -44.5
t52 -12.5z" />
    <glyph glyph-name="Itilde" unicode="&#x128;" horiz-adv-x="741" 
d="M669 1756q85 0 152 71l20 -108q-33 -53 -93 -88t-119 -35q-67 0 -138 31t-112 31q-86 0 -153 -71l-19 108q33 53 93 88t119 35q67 0 138 -31t112 -31zM758 1330l-76 -11q-45 -7 -63.5 -29t-25.5 -73l-140 -1001q-4 -28 -4 -35q0 -31 17.5 -44t69.5 -23l51 -10l-16 -104
h-567l16 104l64 13q46 9 64.5 29t25.5 70l140 1001q4 28 4 36q0 31 -18 44.5t-69 24.5l-38 8l7 104h574z" />
    <glyph glyph-name="itilde" unicode="&#x129;" horiz-adv-x="636" 
d="M547 1412q85 0 152 71l20 -108q-33 -53 -93 -88t-119 -35q-67 0 -138 31t-112 31q-86 0 -153 -71l-19 108q33 53 93 88t119 35q67 0 138 -31t112 -31zM392 1081q77 0 100 -17t23 -71q0 -52 -16 -142l-108 -619q-6 -40 -6 -50q0 -32 15 -44.5t52 -12.5q38 0 65 4l-7 -101
q-121 -48 -223 -48q-97 0 -139.5 32.5t-42.5 110.5q0 36 9 84l104 594q9 48 9 73q0 24 -8.5 33.5t-27.5 9.5q-36 0 -83 -16v101q50 32 132.5 55.5t151.5 23.5z" />
    <glyph glyph-name="Imacron" unicode="&#x12a;" horiz-adv-x="741" 
d="M793 1630h-555l21 149h556zM758 1330l-76 -11q-45 -7 -63.5 -29t-25.5 -73l-140 -1001q-4 -28 -4 -35q0 -31 17.5 -44t69.5 -23l51 -10l-16 -104h-567l16 104l64 13q46 9 64.5 29t25.5 70l140 1001q4 28 4 36q0 31 -18 44.5t-69 24.5l-38 8l7 104h574z" />
    <glyph glyph-name="imacron" unicode="&#x12b;" horiz-adv-x="636" 
d="M667 1286h-556l22 148h555zM392 1081q77 0 100 -17t23 -71q0 -52 -16 -142l-108 -619q-6 -40 -6 -50q0 -32 15 -44.5t52 -12.5q38 0 65 4l-7 -101q-121 -48 -223 -48q-97 0 -139.5 32.5t-42.5 110.5q0 36 9 84l104 594q9 48 9 73q0 24 -8.5 33.5t-27.5 9.5q-36 0 -83 -16
v101q50 32 132.5 55.5t151.5 23.5z" />
    <glyph glyph-name="Ibreve" unicode="&#x12c;" horiz-adv-x="741" 
d="M368 1849q24 -139 163 -139q65 0 106.5 31.5t75.5 107.5q31 0 65.5 -11.5t52.5 -27.5q-90 -248 -320 -248q-120 0 -188 63.5t-79 184.5q22 16 58.5 27.5t65.5 11.5zM758 1330l-76 -11q-45 -7 -63.5 -29t-25.5 -73l-140 -1001q-4 -28 -4 -35q0 -31 17.5 -44t69.5 -23
l51 -10l-16 -104h-567l16 104l64 13q46 9 64.5 29t25.5 70l140 1001q4 28 4 36q0 31 -18 44.5t-69 24.5l-38 8l7 104h574z" />
    <glyph glyph-name="ibreve" unicode="&#x12d;" horiz-adv-x="636" 
d="M247 1505q24 -140 163 -140q65 0 107 32t76 108q30 0 64.5 -11.5t52.5 -27.5q-90 -248 -319 -248q-120 0 -188.5 63.5t-79.5 184.5q22 16 58.5 27.5t65.5 11.5zM392 1081q77 0 100 -17t23 -71q0 -52 -16 -142l-108 -619q-6 -40 -6 -50q0 -32 15 -44.5t52 -12.5q38 0 65 4
l-7 -101q-121 -48 -223 -48q-97 0 -139.5 32.5t-42.5 110.5q0 36 9 84l104 594q9 48 9 73q0 24 -8.5 33.5t-27.5 9.5q-36 0 -83 -16v101q50 32 132.5 55.5t151.5 23.5z" />
    <glyph glyph-name="Iogonek" unicode="&#x12e;" horiz-adv-x="741" 
d="M774 1434l-16 -104l-76 -11q-45 -7 -63.5 -29t-25.5 -73l-140 -1001q-4 -28 -4 -35q0 -31 17.5 -44t69.5 -23l51 -10l-16 -104q-120 0 -205.5 -69t-85.5 -165q0 -46 23 -73t63 -27q58 0 110 50q24 -44 25 -98q-91 -81 -224 -81q-86 0 -139 50.5t-53 133.5q0 95 60 169
t167 110h-308l16 104l64 13q46 9 64.5 29t25.5 70l140 1001q4 28 4 36q0 31 -18 44.5t-69 24.5l-38 8l7 104h574z" />
    <glyph glyph-name="iogonek" unicode="&#x12f;" horiz-adv-x="636" 
d="M379 1223q-58 0 -94.5 34.5t-36.5 90.5q0 77 49 125t129 48q59 0 95.5 -35t36.5 -90q0 -77 -49.5 -125t-129.5 -48zM517 129l-7 -107q-127 -35 -203.5 -105.5t-76.5 -151.5q0 -45 23.5 -72t62.5 -27q58 0 110 50q24 -44 25 -98q-91 -81 -224 -81q-86 0 -139 50.5
t-53 133.5q0 85 51 153.5t143 108.5q-65 8 -94.5 41t-29.5 99q0 36 9 84l104 594q9 48 9 73q0 24 -8.5 33.5t-27.5 9.5q-36 0 -83 -16v101q50 32 132.5 55.5t151.5 23.5q77 0 100 -17t23 -71q0 -52 -16 -142l-108 -619q-6 -40 -6 -50q0 -32 15 -44.5t52 -12.5q38 0 65 4z
" />
    <glyph glyph-name="Idotaccent" unicode="&#x130;" horiz-adv-x="741" 
d="M371 1692q0 76 49 123.5t128 47.5q57 0 93 -34.5t36 -88.5q0 -76 -49 -123t-128 -47q-57 0 -93 34t-36 88zM758 1330l-76 -11q-45 -7 -63.5 -29t-25.5 -73l-140 -1001q-4 -28 -4 -35q0 -31 17.5 -44t69.5 -23l51 -10l-16 -104h-567l16 104l64 13q46 9 64.5 29t25.5 70
l140 1001q4 28 4 36q0 31 -18 44.5t-69 24.5l-38 8l7 104h574z" />
    <glyph glyph-name="dotlessi" unicode="&#x131;" horiz-adv-x="636" 
d="M392 1081q77 0 100 -17t23 -71q0 -52 -16 -142l-108 -619q-6 -40 -6 -50q0 -32 15 -44.5t52 -12.5q38 0 65 4l-7 -101q-121 -48 -223 -48q-97 0 -139.5 32.5t-42.5 110.5q0 36 9 84l104 594q9 48 9 73q0 24 -8.5 33.5t-27.5 9.5q-36 0 -83 -16v101q50 32 132.5 55.5
t151.5 23.5z" />
    <glyph glyph-name="IJ" unicode="&#x132;" horiz-adv-x="1447" 
d="M621 -406q-30 35 -30 92q0 82 80 108q19 6 65.5 12t65.5 19q30 20 46 85.5t50 305.5l141 1001q3 21 3 36q0 31 -17.5 44.5t-66.5 24.5l-38 8l8 104h573l-16 -104l-75 -11q-45 -7 -63.5 -29t-25.5 -73l-124 -879q-35 -251 -78 -370t-130 -209q-57 -59 -156 -103.5
t-212 -61.5zM758 1330l-76 -11q-45 -7 -63.5 -29t-25.5 -73l-140 -1001q-4 -28 -4 -35q0 -31 17.5 -44t69.5 -23l51 -10l-16 -104h-567l16 104l64 13q46 9 64.5 29t25.5 70l140 1001q4 28 4 36q0 31 -18 44.5t-69 24.5l-38 8l7 104h574z" />
    <glyph glyph-name="ij" unicode="&#x133;" horiz-adv-x="1234" 
d="M248 1348q0 77 49 125t129 48q59 0 95.5 -35t36.5 -90q0 -77 -49.5 -125t-129.5 -48q-58 0 -94.5 34.5t-36.5 90.5zM878 1348q0 77 49 125t129 48q58 0 94.5 -34.5t36.5 -90.5q0 -77 -49 -125t-129 -48q-58 0 -94.5 34.5t-36.5 90.5zM392 1081q77 0 100 -17t23 -71
q0 -52 -16 -142l-108 -619q-6 -40 -6 -50q0 -32 15 -44.5t52 -12.5q38 0 65 4l-7 -101q-121 -48 -223 -48q-97 0 -139.5 32.5t-42.5 110.5q0 36 9 84l104 594q9 48 9 73q0 24 -8.5 33.5t-27.5 9.5q-36 0 -83 -16v101q50 32 132.5 55.5t151.5 23.5zM737 901v101
q50 32 132.5 55.5t151.5 23.5q77 0 100 -17t23 -71q0 -37 -15 -142l-76 -537q-36 -258 -78.5 -385t-127.5 -215q-57 -59 -155 -103.5t-211 -61.5q-29 34 -29 92q0 78 79 104q19 6 65 12t65 19q30 20 46 86.5t50 308.5l88 630q7 46 7 74q0 24 -7 33t-24 9q-37 0 -84 -16z" />
    <glyph glyph-name="Jcircumflex" unicode="&#x134;" horiz-adv-x="706" 
d="M510 1693l-255 -142q-40 45 -58 112l340 236l273 -240q-28 -62 -78 -108zM187 1434h574l-16 -104l-76 -11q-45 -7 -63.5 -29t-25.5 -73l-124 -879q-35 -252 -77.5 -370.5t-129.5 -208.5q-57 -59 -156 -103.5t-212 -61.5q-30 35 -30 92q0 82 79 108q19 6 65.5 12t65.5 19
q30 20 45.5 84.5t50.5 306.5l142 1001q3 21 3 36q0 31 -17.5 44.5t-66.5 24.5l-38 8z" />
    <glyph glyph-name="jcircumflex" unicode="&#x135;" horiz-adv-x="600" 
d="M420 1555l273 -241q-28 -62 -78 -108l-222 143l-255 -143q-39 44 -58 113zM385 1081q77 0 100 -17t23 -71q0 -35 -15 -142l-76 -537q-36 -257 -79 -384.5t-128 -215.5q-57 -59 -154.5 -103.5t-210.5 -61.5q-30 35 -30 92q0 78 79 104q19 6 65.5 12t65.5 19q30 20 46 86.5
t50 308.5l88 630q7 46 7 74q0 24 -7.5 33t-24.5 9q-36 0 -83 -16v101q50 32 132.5 55.5t151.5 23.5z" />
    <glyph glyph-name="Kcommaaccent" unicode="&#x136;" horiz-adv-x="1320" 
d="M564 0h-560l16 104l64 13q46 9 64.5 29t25.5 70l140 1001q4 28 4 36q0 31 -18 44.5t-69 24.5l-38 8l7 104h574l-16 -104l-76 -11q-45 -7 -63.5 -29t-25.5 -73l-140 -1001q-4 -28 -4 -36q0 -30 16.5 -42.5t63.5 -22.5l51 -11zM1408 1434l-16 -104q-78 -22 -125 -56
t-159 -149l-311 -320q50 -77 71 -119l218 -444q61 -125 155 -140l-15 -96q-67 -20 -140 -20q-114 0 -175.5 46t-123.5 177l-120 252q-78 164 -141 260l411 445q77 83 77 118q0 32 -58 41l-30 5l8 104h474zM655 -83q52 0 80.5 -34t28.5 -95q0 -113 -71.5 -198t-190.5 -114
q-26 19 -32 56q93 43 116 137q-33 11 -53 41.5t-20 71.5q0 61 39 98t103 37z" />
    <glyph glyph-name="kcommaaccent" unicode="&#x137;" horiz-adv-x="1099" 
d="M58 0l174 1238q7 45 7 73q0 25 -7.5 34t-26.5 9q-37 0 -84 -16v101q50 32 132.5 55.5t151.5 23.5q77 0 100 -17t23 -71q0 -37 -15 -142l-181 -1288h-274zM876 875q-32 0 -75 -41.5t-150 -174.5q51 -97 110 -219l102 -212q27 -56 52 -79.5t59 -23.5q28 0 41 4l-7 -101
q-85 -48 -186 -48q-89 0 -137 46.5t-113 194.5l-85 190q-29 67 -75 151l262 344q76 100 133 137.5t135 37.5q66 0 130 -25q17 -40 17 -80q0 -61 -30 -96.5t-82 -35.5q-27 0 -53.5 15.5t-47.5 15.5zM499 -83q52 0 80.5 -34t28.5 -95q0 -113 -71.5 -198t-190.5 -114
q-26 19 -32 56q93 43 116 137q-33 11 -53 41.5t-20 71.5q0 61 39 98t103 37z" />
    <glyph glyph-name="Lacute" unicode="&#x139;" horiz-adv-x="1185" 
d="M347 1658l384 243q64 -81 91 -171l-413 -193q-36 42 -62 121zM758 1330l-75 -11q-45 -7 -64 -29t-26 -73l-138 -989q0 -3 -1.5 -12.5t-1.5 -14.5q0 -39 27 -53t97 -14h139q100 0 143.5 60.5t83.5 232.5l167 -10q-24 -234 -75 -417h-1030l16 104l64 13q46 9 64.5 29
t25.5 70l140 1001q4 28 4 36q0 31 -18 44.5t-69 24.5l-38 8l7 104h574z" />
    <glyph glyph-name="lacute" unicode="&#x13a;" horiz-adv-x="602" 
d="M187 1720l418 181q52 -95 65 -184l-439 -127q-32 56 -44 130zM422 1518q77 0 100 -17t23 -71q0 -49 -15 -142l-168 -1056q-4 -25 -4 -49q0 -33 15 -45.5t51 -12.5q38 0 65 4l-7 -101q-121 -48 -223 -48q-97 0 -139 32.5t-42 112.5q0 32 8 82l163 1031q8 51 8 73
q0 25 -8 34t-27 9q-37 0 -84 -16v101q50 32 132.5 55.5t151.5 23.5z" />
    <glyph glyph-name="Lcommaaccent" unicode="&#x13b;" horiz-adv-x="1185" 
d="M942 427l167 -10q-24 -234 -75 -417h-1030l16 104l65 13q46 9 64 29t25 70l140 1001q4 28 4 36q0 31 -18 44.5t-69 24.5l-38 8l7 104h574l-16 -104l-75 -11q-45 -7 -64 -29t-26 -73l-138 -989q0 -3 -1.5 -12.5t-1.5 -14.5q0 -39 27 -53t97 -14h139q100 0 143.5 60.5
t83.5 232.5zM539 -83q52 0 80 -34t28 -95q0 -113 -71 -198t-190 -114q-27 20 -33 56q94 43 117 137q-33 11 -53 41.5t-20 71.5q0 61 39 98t103 37z" />
    <glyph glyph-name="lcommaaccent" unicode="&#x13c;" horiz-adv-x="602" 
d="M530 1288l-168 -1056q-4 -25 -4 -49q0 -33 15 -45.5t51 -12.5q38 0 65 4l-7 -101q-121 -48 -223 -48q-97 0 -139 32.5t-42 112.5q0 32 8 82l163 1031q8 51 8 73q0 25 -8 34t-27 9q-37 0 -84 -16v101q50 32 132.5 55.5t151.5 23.5q77 0 100 -17t23 -71q0 -49 -15 -142z
M224 -83q52 0 80 -34t28 -95q0 -113 -71 -198t-190 -114q-27 20 -33 56q94 43 117 137q-33 11 -53 41.5t-20 71.5q0 61 39 98t103 37z" />
    <glyph glyph-name="Lcaron" unicode="&#x13d;" horiz-adv-x="1185" 
d="M897 1553q95 -5 176 -32q-38 -197 -116 -372q-73 5 -133 32q55 205 73 372zM758 1330l-75 -11q-45 -7 -64 -29t-26 -73l-138 -989q0 -3 -1.5 -12.5t-1.5 -14.5q0 -39 27 -53t97 -14h139q100 0 143.5 60.5t83.5 232.5l167 -10q-24 -234 -75 -417h-1030l16 104l64 13
q46 9 64.5 29t25.5 70l140 1001q4 28 4 36q0 31 -18 44.5t-69 24.5l-38 8l7 104h574z" />
    <glyph glyph-name="lcaron" unicode="&#x13e;" horiz-adv-x="622" 
d="M689 1553q94 -5 175 -32q-38 -200 -115 -372q-73 5 -133 32q55 205 73 372zM422 1518q77 0 100 -17t23 -71q0 -49 -15 -142l-168 -1056q-4 -25 -4 -49q0 -33 15 -45.5t51 -12.5q38 0 65 4l-7 -101q-121 -48 -223 -48q-97 0 -139 32.5t-42 112.5q0 32 8 82l163 1031
q8 51 8 73q0 25 -8 34t-27 9q-37 0 -84 -16v101q50 32 132.5 55.5t151.5 23.5z" />
    <glyph glyph-name="Ldot" unicode="&#x13f;" horiz-adv-x="1222" 
d="M758 1330l-75 -11q-45 -7 -64 -29t-26 -73l-138 -989q0 -3 -1.5 -12.5t-1.5 -14.5q0 -39 27 -53t97 -14h139q100 0 143.5 60.5t83.5 232.5l167 -10q-24 -234 -75 -417h-1030l16 104l64 13q46 9 64.5 29t25.5 70l140 1001q4 28 4 36q0 31 -18 44.5t-69 24.5l-38 8l7 104
h574zM836 793q0 76 49 123t128 47q57 0 93 -34t36 -88q0 -76 -49 -123.5t-128 -47.5q-57 0 -93 34.5t-36 88.5z" />
    <glyph glyph-name="ldot" unicode="&#x140;" horiz-adv-x="827" 
d="M422 1518q77 0 100 -17t23 -71q0 -49 -15 -142l-168 -1056q-4 -25 -4 -49q0 -33 15 -45.5t51 -12.5q38 0 65 4l-7 -101q-121 -48 -223 -48q-97 0 -139 32.5t-42 112.5q0 32 8 82l163 1031q8 51 8 73q0 25 -8 34t-27 9q-37 0 -84 -16v101q50 32 132.5 55.5t151.5 23.5z
M561 686q0 76 48.5 123.5t127.5 47.5q57 0 93 -34.5t36 -88.5q0 -76 -48.5 -123t-127.5 -47q-57 0 -93 34t-36 88z" />
    <glyph glyph-name="Lslash" unicode="&#x141;" horiz-adv-x="1185" 
d="M942 427l167 -10q-24 -234 -75 -417h-1030l16 104l65 13q46 9 64 29t25 70l23 166q12 84 24 132l-144 -60l21 149l138 58l78 556q4 28 4 36q0 31 -18 44.5t-69 24.5l-38 8l7 104h574l-16 -104l-75 -11q-45 -7 -64 -29t-26 -73l-44 -320q-11 -82 -24 -131l416 175
l-21 -148l-410 -173l-55 -392q0 -3 -1.5 -12.5t-1.5 -14.5q0 -39 27 -53t97 -14h139q100 0 143.5 60.5t83.5 232.5z" />
    <glyph glyph-name="lslash" unicode="&#x142;" horiz-adv-x="622" 
d="M459 727l-79 -495q-5 -32 -5 -49q0 -33 15.5 -46t51.5 -13q32 0 65 5l-7 -101q-124 -49 -223 -49q-97 0 -139 33t-42 113q0 39 7 82l46 289q14 88 25 128l-134 -57l22 141l129 55l76 475q8 51 8 73q0 25 -8 34t-27 9q-37 0 -84 -16v101q50 32 132.5 55.5t151.5 23.5
q77 0 100 -17t23 -71q0 -49 -15 -142l-47 -294q-14 -88 -25 -128l152 63l-22 -140z" />
    <glyph glyph-name="Nacute" unicode="&#x143;" horiz-adv-x="1484" 
d="M1197 1730l-412 -193q-37 44 -63 121l384 243q64 -81 91 -171zM1538 1434l-16 -104l-76 -11q-45 -7 -63.5 -29t-25.5 -73l-171 -1217h-268l-343 839q-63 155 -103 349q-9 -169 -29 -311l-93 -661q-3 -21 -3 -35q0 -31 17.5 -44t68.5 -23l51 -10l-16 -104h-464l16 104
l64 13q46 9 64.5 29t25.5 70l140 1001q4 28 4 36q0 31 -18 44.5t-69 24.5l-38 8l7 104h424l343 -839q56 -137 95 -308q9 148 26 270l93 660q3 21 3 36q0 31 -17.5 44.5t-68.5 24.5l-38 8l7 104h471z" />
    <glyph glyph-name="nacute" unicode="&#x144;" horiz-adv-x="1234" 
d="M1034 1385l-412 -193q-37 44 -63 122l384 242q64 -81 91 -171zM1062 125q38 0 65 4l-7 -101q-121 -48 -223 -48q-97 0 -139.5 32.5t-42.5 110.5q0 36 9 84l99 563q7 36 7 66q0 39 -13.5 56t-43.5 17q-38 0 -92 -45.5t-108 -123t-101 -195.5t-67 -246l-46 -299h-273
l126 801q7 45 7 73q0 25 -8 34t-27 9q-36 0 -83 -16v101q49 32 129.5 55.5t141.5 23.5q55 0 77.5 -19t22.5 -65q0 -44 -26.5 -168t-63.5 -252h3q27 85 59 157t74.5 137.5t90 110.5t108 72t127.5 27q127 0 194.5 -56.5t67.5 -162.5q0 -27 -7 -69l-98 -561q-6 -40 -6 -50
q0 -32 15 -44.5t52 -12.5z" />
    <glyph glyph-name="Ncommaaccent" unicode="&#x145;" horiz-adv-x="1484" 
d="M1538 1434l-16 -104l-76 -11q-45 -7 -63.5 -29t-25.5 -73l-171 -1217h-268l-343 839q-63 155 -103 349q-9 -169 -29 -311l-93 -661q-3 -21 -3 -35q0 -31 17.5 -44t68.5 -23l51 -10l-16 -104h-464l16 104l64 13q46 9 64.5 29t25.5 70l140 1001q4 28 4 36q0 31 -18 44.5
t-69 24.5l-38 8l7 104h424l343 -839q56 -137 95 -308q9 148 26 270l93 660q3 21 3 36q0 31 -17.5 44.5t-68.5 24.5l-38 8l7 104h471zM641 -83q52 0 80.5 -34t28.5 -95q0 -113 -71.5 -198t-190.5 -114q-26 19 -32 56q93 43 116 137q-33 11 -53 41.5t-20 71.5q0 61 39 98
t103 37z" />
    <glyph glyph-name="ncommaaccent" unicode="&#x146;" horiz-adv-x="1234" 
d="M1062 125q38 0 65 4l-7 -101q-121 -48 -223 -48q-97 0 -139.5 32.5t-42.5 110.5q0 36 9 84l99 563q7 36 7 66q0 39 -13.5 56t-43.5 17q-38 0 -92 -45.5t-108 -123t-101 -195.5t-67 -246l-46 -299h-273l126 801q7 45 7 73q0 25 -8 34t-27 9q-36 0 -83 -16v101
q49 32 129.5 55.5t141.5 23.5q55 0 77.5 -19t22.5 -65q0 -44 -26.5 -168t-63.5 -252h3q27 85 59 157t74.5 137.5t90 110.5t108 72t127.5 27q127 0 194.5 -56.5t67.5 -162.5q0 -27 -7 -69l-98 -561q-6 -40 -6 -50q0 -32 15 -44.5t52 -12.5zM541 -83q52 0 80.5 -34t28.5 -95
q0 -113 -71.5 -198t-190.5 -114q-26 19 -32 56q93 43 116 137q-33 11 -53 41.5t-20 71.5q0 61 39 98t103 37z" />
    <glyph glyph-name="Ncaron" unicode="&#x147;" horiz-adv-x="1484" 
d="M881 1541l-263 240q28 62 78 108l212 -141l245 141q40 -45 58 -112zM1538 1434l-16 -104l-76 -11q-45 -7 -63.5 -29t-25.5 -73l-171 -1217h-268l-343 839q-63 155 -103 349q-9 -169 -29 -311l-93 -661q-3 -21 -3 -35q0 -31 17.5 -44t68.5 -23l51 -10l-16 -104h-464
l16 104l64 13q46 9 64.5 29t25.5 70l140 1001q4 28 4 36q0 31 -18 44.5t-69 24.5l-38 8l7 104h424l343 -839q56 -137 95 -308q9 148 26 270l93 660q3 21 3 36q0 31 -17.5 44.5t-68.5 24.5l-38 8l7 104h471z" />
    <glyph glyph-name="ncaron" unicode="&#x148;" horiz-adv-x="1234" 
d="M721 1196l-263 241q28 60 78 107l212 -141l245 141q40 -45 58 -112zM1062 125q38 0 65 4l-7 -101q-121 -48 -223 -48q-97 0 -139.5 32.5t-42.5 110.5q0 36 9 84l99 563q7 36 7 66q0 39 -13.5 56t-43.5 17q-38 0 -92 -45.5t-108 -123t-101 -195.5t-67 -246l-46 -299h-273
l126 801q7 45 7 73q0 25 -8 34t-27 9q-36 0 -83 -16v101q49 32 129.5 55.5t141.5 23.5q55 0 77.5 -19t22.5 -65q0 -44 -26.5 -168t-63.5 -252h3q27 85 59 157t74.5 137.5t90 110.5t108 72t127.5 27q127 0 194.5 -56.5t67.5 -162.5q0 -27 -7 -69l-98 -561q-6 -40 -6 -50
q0 -32 15 -44.5t52 -12.5z" />
    <glyph glyph-name="napostrophe" unicode="&#x149;" horiz-adv-x="1234" 
d="M322 1479q0 -113 -71.5 -198t-190.5 -114q-26 19 -32 56q93 43 116 137q-33 11 -53 41t-20 71q0 61 39 98t103 37q52 0 80.5 -33.5t28.5 -94.5zM1062 125q38 0 65 4l-7 -101q-121 -48 -223 -48q-97 0 -139.5 32.5t-42.5 110.5q0 36 9 84l99 563q7 36 7 66q0 39 -13.5 56
t-43.5 17q-38 0 -92 -45.5t-108 -123t-101 -195.5t-67 -246l-46 -299h-273l126 801q7 45 7 73q0 25 -8 34t-27 9q-36 0 -83 -16v101q49 32 129 55.5t141 23.5q55 0 78 -19t23 -65q0 -44 -26.5 -168t-63.5 -252h3q27 85 59 157t74.5 137.5t90 110.5t108 72t127.5 27
q127 0 194.5 -56.5t67.5 -162.5q0 -27 -7 -69l-98 -561q-6 -40 -6 -50q0 -32 15 -44.5t52 -12.5z" />
    <glyph glyph-name="Eng" unicode="&#x14a;" horiz-adv-x="1484" 
d="M1538 1434l-16 -104l-75 -11q-45 -7 -64 -29t-26 -73l-123 -879q-35 -251 -78 -370t-130 -209q-57 -59 -150.5 -103.5t-196.5 -61.5q-29 34 -29 92q0 80 77 107q22 8 64.5 13.5t65.5 18.5q68 35 101 144q-34 37 -98 188l-282 672q-62 146 -106 358q-9 -169 -29 -310
l-93 -661q-3 -21 -3 -35q0 -31 17.5 -44t68.5 -23l51 -10l-16 -104h-464l16 104l64 13q46 9 64.5 29t25.5 70l140 1001q4 28 4 36q0 31 -18 44.5t-69 24.5l-38 8l7 104h424l343 -839q56 -137 95 -308q9 148 26 270l93 660q3 21 3 36q0 31 -17.5 44.5t-68.5 24.5l-38 8l7 104
h471z" />
    <glyph glyph-name="eng" unicode="&#x14b;" horiz-adv-x="1200" 
d="M844 1081q128 0 194.5 -57.5t66.5 -165.5q0 -30 -6 -65l-76 -479q-41 -259 -84.5 -386t-128.5 -214q-57 -59 -154.5 -103.5t-210.5 -61.5q-30 35 -30 92q0 78 79 104q19 6 65.5 12t65.5 19q29 20 45 83t56 312l97 599q6 38 6 65q0 39 -13.5 56.5t-42.5 17.5
q-38 0 -92 -45.5t-108 -123t-101 -195.5t-67 -246l-46 -299h-273l126 801q7 45 7 73q0 25 -8 34t-27 9q-36 0 -83 -16v101q49 32 129.5 55.5t141.5 23.5q55 0 77.5 -19t22.5 -65q0 -44 -26.5 -168t-63.5 -252h3q27 85 59 157t74.5 137.5t90 110.5t108 72t127.5 27z" />
    <glyph glyph-name="Omacron" unicode="&#x14c;" horiz-adv-x="1505" 
d="M1173 1630h-555l21 149h556zM872 1466q273 0 423 -156t150 -442q0 -268 -97.5 -472.5t-275.5 -316.5t-411 -112q-266 0 -418 164.5t-152 450.5q0 264 96.5 464.5t274 310t410.5 109.5zM850 1323q-132 0 -237.5 -99.5t-164.5 -276t-59 -397.5q0 -207 78 -323t216 -116
q130 0 236.5 103.5t167 284t60.5 400.5q0 204 -77 314t-220 110z" />
    <glyph glyph-name="omacron" unicode="&#x14d;" 
d="M954 1286h-556l22 148h555zM58 400q0 305 164 493t431 188q208 0 314 -105t106 -311q0 -310 -163.5 -500t-432.5 -190q-202 0 -310.5 110.5t-108.5 314.5zM631 944q-82 0 -148.5 -77.5t-104 -211t-37.5 -294.5q0 -118 41.5 -183.5t116.5 -65.5q80 0 147.5 79.5t106 215.5
t38.5 296q0 118 -41 179.5t-119 61.5z" />
    <glyph glyph-name="Obreve" unicode="&#x14e;" horiz-adv-x="1505" 
d="M750 1849q24 -139 163 -139q65 0 107 31.5t76 107.5q30 0 64.5 -11.5t52.5 -27.5q-90 -248 -319 -248q-120 0 -188.5 63.5t-79.5 184.5q22 16 58.5 27.5t65.5 11.5zM872 1466q273 0 423 -156t150 -442q0 -268 -97.5 -472.5t-275.5 -316.5t-411 -112q-266 0 -418 164.5
t-152 450.5q0 264 96.5 464.5t274 310t410.5 109.5zM850 1323q-132 0 -237.5 -99.5t-164.5 -276t-59 -397.5q0 -207 78 -323t216 -116q130 0 236.5 103.5t167 284t60.5 400.5q0 204 -77 314t-220 110z" />
    <glyph glyph-name="obreve" unicode="&#x14f;" 
d="M534 1505q24 -140 163 -140q65 0 107 32t76 108q30 0 64.5 -11.5t52.5 -27.5q-90 -248 -319 -248q-120 0 -188.5 63.5t-79.5 184.5q22 16 58.5 27.5t65.5 11.5zM58 400q0 305 164 493t431 188q208 0 314 -105t106 -311q0 -310 -163.5 -500t-432.5 -190
q-202 0 -310.5 110.5t-108.5 314.5zM631 944q-82 0 -148.5 -77.5t-104 -211t-37.5 -294.5q0 -118 41.5 -183.5t116.5 -65.5q80 0 147.5 79.5t106 215.5t38.5 296q0 118 -41 179.5t-119 61.5z" />
    <glyph glyph-name="Ohungarumlaut" unicode="&#x150;" horiz-adv-x="1505" 
d="M667 1580l133 356q89 -20 161 -73l-173 -337q-67 16 -121 54zM976 1590l163 346q87 -29 154 -88l-203 -322q-58 17 -114 64zM872 1466q273 0 423 -156t150 -442q0 -268 -97.5 -472.5t-275.5 -316.5t-411 -112q-266 0 -418 164.5t-152 450.5q0 264 96.5 464.5t274 310
t410.5 109.5zM850 1323q-132 0 -237.5 -99.5t-164.5 -276t-59 -397.5q0 -207 78 -323t216 -116q130 0 236.5 103.5t167 284t60.5 400.5q0 204 -77 314t-220 110z" />
    <glyph glyph-name="ohungarumlaut" unicode="&#x151;" 
d="M439 1236l132 356q87 -19 161 -74l-173 -336q-66 15 -120 54zM747 1246l164 346q86 -28 153 -88l-202 -322q-60 17 -115 64zM58 400q0 305 164 493t431 188q208 0 314 -105t106 -311q0 -310 -163.5 -500t-432.5 -190q-202 0 -310.5 110.5t-108.5 314.5zM631 944
q-82 0 -148.5 -77.5t-104 -211t-37.5 -294.5q0 -118 41.5 -183.5t116.5 -65.5q80 0 147.5 79.5t106 215.5t38.5 296q0 118 -41 179.5t-119 61.5z" />
    <glyph glyph-name="OE" unicode="&#x152;" horiz-adv-x="1959" 
d="M1916 1071l-161 -10q2 104 -10 152.5t-45 67.5t-105 19h-266l-71 -506h218q49 0 70.5 21.5t44.5 89.5l14 41l136 4l-65 -458l-134 4l-1 71q-1 49 -20.5 71t-62.5 22h-219l-61 -432q-2 -20 -2 -27q0 -39 27 -53t97 -14h164q104 0 146.5 45t79.5 194l160 -10
q-17 -185 -67 -363h-960q-78 -8 -158 -8q-267 0 -420.5 157t-153.5 433q0 257 95 452t271 301.5t410 106.5q81 0 159 -8h927q-1 -180 -37 -363zM916 300l118 834q3 25 3 47q0 65 -38 91t-129 26q-148 0 -257.5 -96.5t-166.5 -265t-57 -386.5q0 -201 80.5 -308t240.5 -107
q104 0 148.5 36.5t57.5 128.5z" />
    <glyph glyph-name="oe" unicode="&#x153;" horiz-adv-x="1763" 
d="M1113 435q-39 0 -56 2v-18q0 -278 231 -278q154 0 275 101l38 -125q-96 -75 -195.5 -108.5t-232.5 -33.5q-224 0 -308 174q-150 -174 -388 -174q-202 0 -310.5 110.5t-108.5 314.5q0 305 164 493t431 188q242 0 330 -175q151 175 390 175q344 0 344 -253
q0 -186 -159 -289.5t-445 -103.5zM499 112q80 0 147.5 79.5t106 215.5t38.5 296q0 118 -41 179.5t-119 61.5q-82 0 -148.5 -77.5t-104 -211t-37.5 -294.5q0 -118 41.5 -183.5t116.5 -65.5zM1336 944q-94 0 -168 -108.5t-100 -272.5q28 -2 37 -2q160 0 256 70.5t96 189.5
q0 123 -121 123z" />
    <glyph glyph-name="Racute" unicode="&#x154;" horiz-adv-x="1323" 
d="M1072 1730l-413 -193q-36 42 -62 121l383 243q66 -84 92 -171zM1118 188q20 -46 45.5 -64t72.5 -20l-15 -96q-64 -22 -163 -22q-112 0 -161 37.5t-79 146.5l-85 310q-23 83 -58 114.5t-107 31.5q-32 0 -62 -3l-57 -407q-3 -21 -3 -36q0 -30 16.5 -42.5t63.5 -22.5l50 -11
l-16 -104h-556l16 104l64 13q46 9 64.5 29t25.5 70l140 1001q4 28 4 36q0 31 -18 44.5t-69 24.5l-38 8l7 104h127q91 0 230 4.5t215 4.5q232 0 343.5 -77t111.5 -237q0 -169 -96.5 -278.5t-271.5 -144.5q50 -18 84.5 -60.5t66.5 -121.5q23 -58 56.5 -176t51.5 -160zM649 765
q131 0 212 92.5t81 244.5q0 209 -199 209q-81 0 -142 -10l-74 -531q50 -5 122 -5z" />
    <glyph glyph-name="racute" unicode="&#x155;" horiz-adv-x="884" 
d="M866 1385l-412 -193q-37 44 -63 122l384 242q64 -81 91 -171zM901 1039q7 -21 7 -59q0 -81 -32.5 -124t-93.5 -43q-41 0 -73.5 22.5t-57.5 22.5q-40 0 -87.5 -74t-87.5 -196.5t-59 -255.5l-47 -332h-271l113 801q7 45 7 73q0 25 -8 34t-27 9q-36 0 -83 -16v101
q49 32 129.5 55.5t141.5 23.5q55 0 77.5 -19t22.5 -65t-25.5 -171t-61.5 -249h3q142 504 350 504q92 0 163 -42z" />
    <glyph glyph-name="Rcommaaccent" unicode="&#x156;" horiz-adv-x="1323" 
d="M1118 188q20 -46 45.5 -64t72.5 -20l-15 -96q-64 -22 -163 -22q-112 0 -161 37.5t-79 146.5l-85 310q-23 83 -58 114.5t-107 31.5q-32 0 -62 -3l-57 -407q-3 -21 -3 -36q0 -30 16.5 -42.5t63.5 -22.5l50 -11l-16 -104h-556l16 104l64 13q46 9 64.5 29t25.5 70l140 1001
q4 28 4 36q0 31 -18 44.5t-69 24.5l-38 8l7 104h127q91 0 230 4.5t215 4.5q232 0 343.5 -77t111.5 -237q0 -169 -96.5 -278.5t-271.5 -144.5q50 -18 84.5 -60.5t66.5 -121.5q23 -58 56.5 -176t51.5 -160zM649 765q131 0 212 92.5t81 244.5q0 209 -199 209q-81 0 -142 -10
l-74 -531q50 -5 122 -5zM652 -83q52 0 80 -34t28 -95q0 -113 -71 -198t-190 -114q-27 20 -33 56q94 43 117 137q-33 11 -53 41.5t-20 71.5q0 61 39 98t103 37z" />
    <glyph glyph-name="rcommaaccent" unicode="&#x157;" horiz-adv-x="884" 
d="M901 1039q7 -21 7 -59q0 -81 -32.5 -124t-93.5 -43q-41 0 -73.5 22.5t-57.5 22.5q-40 0 -87.5 -74t-87.5 -196.5t-59 -255.5l-47 -332h-271l113 801q7 45 7 73q0 25 -8 34t-27 9q-36 0 -83 -16v101q49 32 129.5 55.5t141.5 23.5q55 0 77.5 -19t22.5 -65t-25.5 -171
t-61.5 -249h3q142 504 350 504q92 0 163 -42zM220 -83q52 0 80.5 -34t28.5 -95q0 -113 -71.5 -198t-190.5 -114q-26 19 -32 56q93 43 116 137q-33 11 -53 41.5t-20 71.5q0 61 39 98t103 37z" />
    <glyph glyph-name="Rcaron" unicode="&#x158;" horiz-adv-x="1323" 
d="M782 1541l-263 240q28 62 78 108l212 -141l244 141q41 -46 59 -112zM1118 188q20 -46 45.5 -64t72.5 -20l-15 -96q-64 -22 -163 -22q-112 0 -161 37.5t-79 146.5l-85 310q-23 83 -58 114.5t-107 31.5q-32 0 -62 -3l-57 -407q-3 -21 -3 -36q0 -30 16.5 -42.5t63.5 -22.5
l50 -11l-16 -104h-556l16 104l64 13q46 9 64.5 29t25.5 70l140 1001q4 28 4 36q0 31 -18 44.5t-69 24.5l-38 8l7 104h127q91 0 230 4.5t215 4.5q232 0 343.5 -77t111.5 -237q0 -169 -96.5 -278.5t-271.5 -144.5q50 -18 84.5 -60.5t66.5 -121.5q23 -58 56.5 -176t51.5 -160z
M649 765q131 0 212 92.5t81 244.5q0 209 -199 209q-81 0 -142 -10l-74 -531q50 -5 122 -5z" />
    <glyph glyph-name="rcaron" unicode="&#x159;" horiz-adv-x="884" 
d="M524 1196l-262 241q28 62 77 107l212 -141l245 141q40 -45 58 -112zM901 1039q7 -21 7 -59q0 -81 -32.5 -124t-93.5 -43q-41 0 -73.5 22.5t-57.5 22.5q-40 0 -87.5 -74t-87.5 -196.5t-59 -255.5l-47 -332h-271l113 801q7 45 7 73q0 25 -8 34t-27 9q-36 0 -83 -16v101
q49 32 129.5 55.5t141.5 23.5q55 0 77.5 -19t22.5 -65t-25.5 -171t-61.5 -249h3q142 504 350 504q92 0 163 -42z" />
    <glyph glyph-name="Sacute" unicode="&#x15a;" horiz-adv-x="1114" 
d="M511 1658l384 243q64 -81 91 -171l-412 -193q-37 44 -63 121zM673 1466q99 0 184.5 -13.5t147 -27t101.5 -13.5l-55 -338l-151 -6q-6 140 -59.5 204.5t-163.5 64.5q-98 0 -156.5 -63t-58.5 -168q0 -59 30 -107.5t77.5 -84.5t105 -70.5t115 -73t105 -84t77.5 -112.5
t30 -149q0 -213 -139.5 -335.5t-381.5 -122.5q-139 0 -265 32t-199 86q7 154 46 319l156 6q-5 -152 57.5 -232.5t186.5 -80.5q111 0 183.5 71t72.5 180q0 62 -29.5 113t-76.5 88t-104 72t-114.5 73t-104.5 81.5t-76.5 108.5t-29.5 144q0 200 132.5 319t356.5 119z" />
    <glyph glyph-name="sacute" unicode="&#x15b;" horiz-adv-x="921" 
d="M351 1314l384 242q64 -81 91 -171l-412 -193q-37 44 -63 122zM826 770l-130 -7q-7 202 -166 202q-61 0 -100 -40.5t-39 -104.5q0 -42 23 -77.5t59 -62t80.5 -52.5t88.5 -55t80 -63t59 -83.5t23 -109.5q0 -157 -116.5 -249.5t-314.5 -92.5q-240 0 -364 102q6 116 35 234
l134 6q7 -226 190 -226q70 0 115.5 44.5t45.5 112.5q0 43 -22.5 80t-58.5 64.5t-79 54t-86.5 55.5t-79.5 62.5t-58.5 82t-22.5 106.5q0 151 108 239.5t292 88.5q91 0 194.5 -24.5t154.5 -24.5z" />
    <glyph glyph-name="Scircumflex" unicode="&#x15c;" horiz-adv-x="1114" 
d="M695 1693l-255 -142q-40 45 -58 112l340 236l273 -240q-28 -62 -78 -108zM677 1337q-98 0 -156.5 -63t-58.5 -168q0 -59 30 -107.5t77.5 -84.5t105 -70.5t115 -73t105 -84t77.5 -112.5t30 -149q0 -213 -139.5 -335.5t-381.5 -122.5q-139 0 -265 32t-199 86q7 154 46 319
l156 6q-5 -152 57.5 -232.5t186.5 -80.5q111 0 183.5 71t72.5 180q0 62 -29.5 113t-76.5 88t-104 72t-114.5 73t-104.5 81.5t-76.5 108.5t-29.5 144q0 200 132.5 319t356.5 119q99 0 184.5 -13.5t147 -27t101.5 -13.5l-55 -338l-151 -6q-6 140 -59.5 204.5t-163.5 64.5z" />
    <glyph glyph-name="scircumflex" unicode="&#x15d;" horiz-adv-x="921" 
d="M547 1349l-255 -143q-40 45 -58 112l340 237l273 -241q-29 -63 -77 -108zM530 965q-61 0 -100 -40.5t-39 -104.5q0 -42 23 -77.5t59 -62t80.5 -52.5t88.5 -55t80 -63t59 -83.5t23 -109.5q0 -157 -116.5 -249.5t-314.5 -92.5q-240 0 -364 102q6 116 35 234l134 6
q7 -226 190 -226q70 0 115.5 44.5t45.5 112.5q0 43 -22.5 80t-58.5 64.5t-79 54t-86.5 55.5t-79.5 62.5t-58.5 82t-22.5 106.5q0 151 108 239.5t292 88.5q91 0 194.5 -24.5t154.5 -24.5l-45 -262l-130 -7q-7 202 -166 202z" />
    <glyph glyph-name="Scedilla" unicode="&#x15e;" horiz-adv-x="1114" 
d="M677 1337q-98 0 -156.5 -63t-58.5 -168q0 -59 30 -107.5t77.5 -84.5t105 -70.5t115 -73t105 -84t77.5 -112.5t30 -149q0 -199 -123 -320t-339 -136l-46 -76q84 0 133 -42t49 -114q0 -109 -71.5 -170.5t-198.5 -61.5q-99 0 -164 61q15 51 44 91q53 -44 121 -44
q44 0 68 23.5t24 67.5q0 41 -33 64.5t-92 23.5l-18 55l67 122q-124 6 -232.5 37t-173.5 79q7 154 46 319l156 6q-5 -152 57.5 -232.5t186.5 -80.5q111 0 183.5 71t72.5 180q0 62 -29.5 113t-76.5 88t-104 72t-114.5 73t-104.5 81.5t-76.5 108.5t-29.5 144q0 200 132.5 319
t356.5 119q99 0 184.5 -13.5t147 -27t101.5 -13.5l-55 -338l-151 -6q-6 140 -59.5 204.5t-163.5 64.5z" />
    <glyph glyph-name="scedilla" unicode="&#x15f;" horiz-adv-x="921" 
d="M530 965q-61 0 -100 -40.5t-39 -104.5q0 -42 23 -77.5t59 -62t80.5 -52.5t88.5 -55t80 -63t59 -83.5t23 -109.5q0 -144 -99.5 -234.5t-271.5 -104.5l-51 -85q84 0 133 -42t49 -114q0 -109 -71.5 -170.5t-198.5 -61.5q-99 0 -164 61q15 51 44 91q53 -44 121 -44
q44 0 68 23.5t24 67.5q0 41 -33 64.5t-92 23.5l-18 55l71 130q-200 12 -306 100q6 116 35 234l134 6q7 -226 190 -226q70 0 115.5 44.5t45.5 112.5q0 43 -22.5 80t-58.5 64.5t-79 54t-86.5 55.5t-79.5 62.5t-58.5 82t-22.5 106.5q0 151 108 239.5t292 88.5q91 0 194.5 -24.5
t154.5 -24.5l-45 -262l-130 -7q-7 202 -166 202z" />
    <glyph glyph-name="Scaron" unicode="&#x160;" horiz-adv-x="1114" 
d="M671 1541l-263 240q28 62 78 108l212 -141l245 141q40 -45 58 -112zM677 1337q-98 0 -156.5 -63t-58.5 -168q0 -59 30 -107.5t77.5 -84.5t105 -70.5t115 -73t105 -84t77.5 -112.5t30 -149q0 -213 -139.5 -335.5t-381.5 -122.5q-139 0 -265 32t-199 86q7 154 46 319l156 6
q-5 -152 57.5 -232.5t186.5 -80.5q111 0 183.5 71t72.5 180q0 62 -29.5 113t-76.5 88t-104 72t-114.5 73t-104.5 81.5t-76.5 108.5t-29.5 144q0 200 132.5 319t356.5 119q99 0 184.5 -13.5t147 -27t101.5 -13.5l-55 -338l-151 -6q-6 140 -59.5 204.5t-163.5 64.5z" />
    <glyph glyph-name="scaron" unicode="&#x161;" horiz-adv-x="921" 
d="M527 1196l-263 241q28 60 78 107l212 -141l244 141q41 -46 59 -112zM530 965q-61 0 -100 -40.5t-39 -104.5q0 -42 23 -77.5t59 -62t80.5 -52.5t88.5 -55t80 -63t59 -83.5t23 -109.5q0 -157 -116.5 -249.5t-314.5 -92.5q-240 0 -364 102q6 116 35 234l134 6
q7 -226 190 -226q70 0 115.5 44.5t45.5 112.5q0 43 -22.5 80t-58.5 64.5t-79 54t-86.5 55.5t-79.5 62.5t-58.5 82t-22.5 106.5q0 151 108 239.5t292 88.5q91 0 194.5 -24.5t154.5 -24.5l-45 -262l-130 -7q-7 202 -166 202z" />
    <glyph glyph-name="Tcedilla" unicode="&#x162;" horiz-adv-x="1323" 
d="M184 1434h1188q-1 -179 -40 -384l-169 -10q2 48 2 66q0 120 -29.5 157t-122.5 37h-115l-149 -1060q-5 -32 -5 -48q0 -35 18 -50t67 -23l79 -14l-16 -105h-257l-65 -107q84 0 133.5 -42t49.5 -114q0 -109 -71.5 -170.5t-198.5 -61.5q-99 0 -164 61q15 51 44 91
q53 -44 120 -44q44 0 68.5 23.5t24.5 67.5q0 41 -33 64.5t-92 23.5l-18 55l83 153h-248l16 105l93 16q46 8 65.5 33t27.5 86l149 1060h-115q-72 0 -109.5 -20.5t-62 -72.5t-51.5 -167l-167 10q18 197 70 384z" />
    <glyph glyph-name="tcedilla" unicode="&#x163;" horiz-adv-x="759" 
d="M498 919l-96 -633q-3 -22 -3 -42q0 -101 100 -101q69 0 149 54l25 -118q-122 -86 -265 -101l-52 -85q84 0 133.5 -42t49.5 -114q0 -109 -71.5 -170.5t-198.5 -61.5q-99 0 -164 61q15 51 44 91q53 -44 120 -44q44 0 68.5 23.5t24.5 67.5q0 41 -33 64.5t-92 23.5l-18 55
l72 131q-92 10 -135 55.5t-43 133.5q0 35 6 75l104 677h-119l13 113q19 6 77.5 15.5t77.5 9.5q48 113 101 199q25 41 44 54t54 13q31 0 81 -11l-39 -256h287l-20 -137h-282z" />
    <glyph glyph-name="Tcaron" unicode="&#x164;" horiz-adv-x="1323" 
d="M792 1541l-262 240q29 63 77 108l212 -141l245 141q40 -45 58 -112zM184 1434h1188q-1 -179 -40 -384l-169 -10q2 48 2 66q0 120 -29.5 157t-122.5 37h-115l-149 -1060q-5 -32 -5 -48q0 -35 18 -50t67 -23l79 -14l-16 -105h-624l16 105l93 16q46 8 65.5 33t27.5 86
l149 1060h-115q-72 0 -109.5 -20.5t-62 -72.5t-51.5 -167l-167 10q18 197 70 384z" />
    <glyph glyph-name="tcaron" unicode="&#x165;" horiz-adv-x="759" 
d="M889 1521q-38 -200 -115 -372q-73 5 -133 32q55 205 73 372q94 -5 175 -32zM513 1056h287l-20 -137h-282l-96 -633q-3 -22 -3 -42q0 -101 100 -101q69 0 149 54l25 -118q-147 -104 -324 -104q-123 0 -179.5 46t-56.5 146q0 35 6 75l104 677h-119l13 113q19 6 77.5 15.5
t77.5 9.5q48 113 101 199q25 41 44 54t54 13q31 0 81 -11z" />
    <glyph glyph-name="Tbar" unicode="&#x166;" horiz-adv-x="1335" 
d="M190 1434h1188q-1 -179 -40 -384l-169 -10q1 24 1 66q0 121 -29 157.5t-122 36.5h-115l-71 -500h288l-19 -130h-287l-61 -430q-4 -25 -4 -48q0 -35 18 -50t67 -23l79 -14l-16 -105h-624l16 105l93 16q46 8 65.5 33t27.5 86l60 430h-288l18 130h288l71 500h-115
q-72 0 -109.5 -20.5t-62 -72.5t-51.5 -167l-167 10q18 197 70 384z" />
    <glyph glyph-name="tbar" unicode="&#x167;" horiz-adv-x="765" 
d="M497 919l-30 -199h282l-18 -131h-284l-46 -303q-3 -22 -3 -42q0 -101 100 -101q69 0 149 54l25 -118q-147 -104 -324 -104q-123 0 -179.5 46t-56.5 146q0 35 6 75l54 347h-118l19 131h122l30 199h-122l14 113q19 6 77 15.5t77 9.5q48 113 101 199q25 41 44 54t54 13
q32 0 81 -11l-39 -256h287l-19 -137h-283z" />
    <glyph glyph-name="Utilde" unicode="&#x168;" horiz-adv-x="1441" 
d="M1052 1756q85 0 152 71l19 -108q-33 -53 -92.5 -88t-118.5 -35q-67 0 -138.5 31t-112.5 31q-85 0 -152 -71l-20 108q33 53 93 88t119 35q67 0 138.5 -31t112.5 -31zM730 1330l-76 -11q-45 -7 -63.5 -29t-25.5 -73l-99 -704q-10 -73 -10 -121q0 -282 244 -282
q141 0 220 93t107 295l101 719q4 28 4 36q0 32 -18 45.5t-69 23.5l-42 8l15 104h484l-15 -104l-76 -11q-45 -7 -63.5 -29t-25.5 -73l-104 -738q-35 -254 -179.5 -383t-391.5 -129q-236 0 -352 104.5t-116 316.5q0 67 10 137l97 692q3 21 3 36q0 31 -18 44.5t-69 24.5l-38 8
l8 104h574z" />
    <glyph glyph-name="utilde" unicode="&#x169;" horiz-adv-x="1228" 
d="M562 1314q-86 0 -153 -71l-19 108q33 53 92.5 88t118.5 35q67 0 138.5 -31t112.5 -31q85 0 152 71l20 -108q-33 -53 -93 -88t-119 -35q-67 0 -138 31t-112 31zM985 183q0 -33 15 -45.5t51 -12.5q38 0 65 4l-7 -101q-121 -48 -209 -48q-82 0 -121 29t-39 92q0 90 87 378
h-3q-153 -504 -457 -504q-258 0 -258 233q0 38 10 98l86 495q9 48 9 73q0 24 -8.5 33.5t-27.5 9.5q-36 0 -83 -16v101q50 32 132.5 55.5t151.5 23.5q77 0 99.5 -17t22.5 -71q0 -58 -15 -142l-93 -530q-10 -56 -10 -95q0 -42 13.5 -60.5t41.5 -18.5q44 0 98 45.5t105.5 123
t95 194.5t63.5 247l46 299h274l-131 -824q-4 -25 -4 -49z" />
    <glyph glyph-name="Umacron" unicode="&#x16a;" horiz-adv-x="1441" 
d="M1173 1630h-555l21 149h556zM730 1330l-76 -11q-45 -7 -63.5 -29t-25.5 -73l-99 -704q-10 -73 -10 -121q0 -282 244 -282q141 0 220 93t107 295l101 719q4 28 4 36q0 32 -18 45.5t-69 23.5l-42 8l15 104h484l-15 -104l-76 -11q-45 -7 -63.5 -29t-25.5 -73l-104 -738
q-35 -254 -179.5 -383t-391.5 -129q-236 0 -352 104.5t-116 316.5q0 67 10 137l97 692q3 21 3 36q0 31 -18 44.5t-69 24.5l-38 8l8 104h574z" />
    <glyph glyph-name="umacron" unicode="&#x16b;" horiz-adv-x="1228" 
d="M972 1286h-556l22 148h555zM985 183q0 -33 15 -45.5t51 -12.5q38 0 65 4l-7 -101q-121 -48 -209 -48q-82 0 -121 29t-39 92q0 90 87 378h-3q-153 -504 -457 -504q-258 0 -258 233q0 38 10 98l86 495q9 48 9 73q0 24 -8.5 33.5t-27.5 9.5q-36 0 -83 -16v101
q50 32 132.5 55.5t151.5 23.5q77 0 99.5 -17t22.5 -71q0 -58 -15 -142l-93 -530q-10 -56 -10 -95q0 -42 13.5 -60.5t41.5 -18.5q44 0 98 45.5t105.5 123t95 194.5t63.5 247l46 299h274l-131 -824q-4 -25 -4 -49z" />
    <glyph glyph-name="Ubreve" unicode="&#x16c;" horiz-adv-x="1441" 
d="M750 1849q24 -139 163 -139q65 0 107 31.5t76 107.5q30 0 64.5 -11.5t52.5 -27.5q-90 -248 -319 -248q-120 0 -188.5 63.5t-79.5 184.5q22 16 58.5 27.5t65.5 11.5zM730 1330l-76 -11q-45 -7 -63.5 -29t-25.5 -73l-99 -704q-10 -73 -10 -121q0 -282 244 -282
q141 0 220 93t107 295l101 719q4 28 4 36q0 32 -18 45.5t-69 23.5l-42 8l15 104h484l-15 -104l-76 -11q-45 -7 -63.5 -29t-25.5 -73l-104 -738q-35 -254 -179.5 -383t-391.5 -129q-236 0 -352 104.5t-116 316.5q0 67 10 137l97 692q3 21 3 36q0 31 -18 44.5t-69 24.5l-38 8
l8 104h574z" />
    <glyph glyph-name="ubreve" unicode="&#x16d;" horiz-adv-x="1228" 
d="M696 1218q-120 0 -188.5 63.5t-79.5 184.5q22 16 58.5 27.5t65.5 11.5q24 -140 163 -140q65 0 107 32t76 108q30 0 64.5 -11.5t52.5 -27.5q-90 -248 -319 -248zM985 183q0 -33 15 -45.5t51 -12.5q38 0 65 4l-7 -101q-121 -48 -209 -48q-82 0 -121 29t-39 92q0 90 87 378
h-3q-153 -504 -457 -504q-258 0 -258 233q0 38 10 98l86 495q9 48 9 73q0 24 -8.5 33.5t-27.5 9.5q-36 0 -83 -16v101q50 32 132.5 55.5t151.5 23.5q77 0 99.5 -17t22.5 -71q0 -58 -15 -142l-93 -530q-10 -56 -10 -95q0 -42 13.5 -60.5t41.5 -18.5q44 0 98 45.5t105.5 123
t95 194.5t63.5 247l46 299h274l-131 -824q-4 -25 -4 -49z" />
    <glyph glyph-name="Uring" unicode="&#x16e;" horiz-adv-x="1441" 
d="M707 1710q0 100 65 163.5t168 63.5q79 0 126.5 -48t47.5 -127q0 -100 -65 -163t-168 -63q-79 0 -126.5 47.5t-47.5 126.5zM925 1838q-46 0 -75 -31.5t-29 -81.5q0 -90 74 -90q46 0 75.5 31.5t29.5 81.5q0 43 -19.5 66.5t-55.5 23.5zM730 1330l-76 -11q-45 -7 -63.5 -29
t-25.5 -73l-99 -704q-10 -73 -10 -121q0 -282 244 -282q141 0 220 93t107 295l101 719q4 28 4 36q0 32 -18 45.5t-69 23.5l-42 8l15 104h484l-15 -104l-76 -11q-45 -7 -63.5 -29t-25.5 -73l-104 -738q-35 -254 -179.5 -383t-391.5 -129q-236 0 -352 104.5t-116 316.5
q0 67 10 137l97 692q3 21 3 36q0 31 -18 44.5t-69 24.5l-38 8l8 104h574z" />
    <glyph glyph-name="uring" unicode="&#x16f;" horiz-adv-x="1228" 
d="M681 1191q-79 0 -126 48t-47 127q0 100 64.5 163t167.5 63q79 0 126.5 -47.5t47.5 -126.5q0 -100 -65 -163.5t-168 -63.5zM726 1493q-46 0 -75 -31.5t-29 -81.5q0 -90 74 -90q46 0 75 31.5t29 81.5q0 90 -74 90zM985 183q0 -33 15 -45.5t51 -12.5q38 0 65 4l-7 -101
q-121 -48 -209 -48q-82 0 -121 29t-39 92q0 90 87 378h-3q-153 -504 -457 -504q-258 0 -258 233q0 38 10 98l86 495q9 48 9 73q0 24 -8.5 33.5t-27.5 9.5q-36 0 -83 -16v101q50 32 132.5 55.5t151.5 23.5q77 0 99.5 -17t22.5 -71q0 -58 -15 -142l-93 -530q-10 -56 -10 -95
q0 -42 13.5 -60.5t41.5 -18.5q44 0 98 45.5t105.5 123t95 194.5t63.5 247l46 299h274l-131 -824q-4 -25 -4 -49z" />
    <glyph glyph-name="Uhungarumlaut" unicode="&#x170;" horiz-adv-x="1441" 
d="M646 1580l132 356q89 -20 161 -73l-173 -337q-66 15 -120 54zM954 1590l164 346q86 -28 153 -88l-202 -322q-60 17 -115 64zM730 1330l-76 -11q-45 -7 -63.5 -29t-25.5 -73l-99 -704q-10 -73 -10 -121q0 -282 244 -282q141 0 220 93t107 295l101 719q4 28 4 36
q0 32 -18 45.5t-69 23.5l-42 8l15 104h484l-15 -104l-76 -11q-45 -7 -63.5 -29t-25.5 -73l-104 -738q-35 -254 -179.5 -383t-391.5 -129q-236 0 -352 104.5t-116 316.5q0 67 10 137l97 692q3 21 3 36q0 31 -18 44.5t-69 24.5l-38 8l8 104h574z" />
    <glyph glyph-name="uhungarumlaut" unicode="&#x171;" horiz-adv-x="1228" 
d="M728 1518l-174 -336q-66 15 -120 54l132 356q88 -19 162 -74zM1060 1504l-203 -322q-58 17 -114 64l163 346q87 -29 154 -88zM985 183q0 -33 15 -45.5t51 -12.5q38 0 65 4l-7 -101q-121 -48 -209 -48q-82 0 -121 29t-39 92q0 90 87 378h-3q-153 -504 -457 -504
q-258 0 -258 233q0 38 10 98l86 495q9 48 9 73q0 24 -8.5 33.5t-27.5 9.5q-36 0 -83 -16v101q50 32 132.5 55.5t151.5 23.5q77 0 99.5 -17t22.5 -71q0 -58 -15 -142l-93 -530q-10 -56 -10 -95q0 -42 13.5 -60.5t41.5 -18.5q44 0 98 45.5t105.5 123t95 194.5t63.5 247l46 299
h274l-131 -824q-4 -25 -4 -49z" />
    <glyph glyph-name="Uogonek" unicode="&#x172;" horiz-adv-x="1441" 
d="M1502 1434l-15 -104l-76 -11q-45 -7 -63.5 -29t-25.5 -73l-104 -738q-57 -410 -394 -492q-198 -67 -198 -215q0 -51 22.5 -78.5t63.5 -27.5q58 0 110 50q24 -44 25 -98q-91 -81 -225 -81q-86 0 -138.5 50.5t-52.5 133.5q0 78 40.5 142t115.5 106q-206 13 -307 116.5
t-101 302.5q0 67 10 137l97 692q3 21 3 36q0 31 -18 44.5t-69 24.5l-38 8l8 104h574l-16 -104l-76 -11q-45 -7 -63.5 -29t-25.5 -73l-99 -704q-10 -73 -10 -121q0 -282 244 -282q141 0 220 93t107 295l101 719q4 28 4 36q0 32 -18 45.5t-69 23.5l-42 8l15 104h484z" />
    <glyph glyph-name="uogonek" unicode="&#x173;" horiz-adv-x="1228" 
d="M985 183q0 -33 15 -45.5t51 -12.5q38 0 65 4l-7 -107q-127 -35 -203.5 -105.5t-76.5 -151.5q0 -45 23.5 -72t62.5 -27q58 0 110 50q24 -44 25 -98q-92 -81 -225 -81q-86 0 -138.5 50.5t-52.5 133.5q0 87 52.5 156t147.5 109q-94 21 -94 115q0 90 87 378h-3
q-153 -504 -457 -504q-258 0 -258 233q0 38 10 98l86 495q9 48 9 73q0 24 -8.5 33.5t-27.5 9.5q-36 0 -83 -16v101q50 32 132.5 55.5t151.5 23.5q77 0 99.5 -17t22.5 -71q0 -58 -15 -142l-93 -530q-10 -56 -10 -95q0 -42 13.5 -60.5t41.5 -18.5q44 0 98 45.5t105.5 123
t95 194.5t63.5 247l46 299h274l-131 -824q-4 -25 -4 -49z" />
    <glyph glyph-name="Wcircumflex" unicode="&#x174;" horiz-adv-x="2048" 
d="M1221 1693l-255 -142q-40 45 -58 112l340 236l273 -240q-29 -63 -77 -108zM2161 1434l-15 -104l-53 -7q-53 -7 -85 -42.5t-79 -139.5l-518 -1145h-198l-132 975l-435 -975h-197l-172 1145q-16 104 -36.5 138t-73.5 44l-37 7l7 104h574l-16 -104l-53 -7q-54 -7 -74 -26.5
t-20 -70.5q0 -24 7 -85l95 -747l445 1040h187l132 -1040l318 747q42 96 42 128q0 26 -21 37t-73 18l-40 6l16 104h505z" />
    <glyph glyph-name="wcircumflex" unicode="&#x175;" horiz-adv-x="1714" 
d="M981 1349l-255 -143q-40 45 -58 112l340 237l273 -241q-28 -62 -78 -108zM1571 1081q59 0 87 -29t28 -89q0 -147 -140.5 -422t-357.5 -551q-82 1 -184 20l-84 491q-18 105 -27 185q-142 -407 -339 -696q-104 2 -204 20l-118 713q-21 123 -38 158.5t-54 35.5t-82 -16
l-6 101q47 32 124 55.5t133 23.5q60 0 91.5 -21.5t52 -79t36.5 -176.5l36 -258q20 -144 28 -281q185 363 289 779q115 24 231 24q31 -84 60 -276l41 -263q26 -165 35 -263q103 156 174.5 325t71.5 259q0 67 -54 67q-28 0 -73 -16l-7 101q47 32 121.5 55.5t128.5 23.5z" />
    <glyph glyph-name="Ycircumflex" unicode="&#x176;" horiz-adv-x="1327" 
d="M831 1693l-255 -142q-40 45 -58 112l340 236l273 -240q-28 -62 -78 -108zM1431 1434l-16 -104l-38 -5q-44 -5 -68 -18t-52.5 -47t-85.5 -119l-365 -545l-51 -356q-5 -32 -5 -48q0 -35 18 -50t67 -23l79 -14l-16 -105h-624l16 105l93 16q46 8 65.5 33.5t27.5 85.5l51 356
l-239 545q-29 67 -43.5 97.5t-31.5 51t-29 25.5t-38 10l-25 5l8 104h587l-16 -104l-50 -6q-50 -6 -73.5 -23t-23.5 -50q0 -31 23 -85l168 -388l252 388q48 74 48 107q0 41 -77 50l-55 7l16 104h503z" />
    <glyph glyph-name="ycircumflex" unicode="&#x177;" horiz-adv-x="1116" 
d="M654 1349l-255 -143q-40 45 -58 112l340 237l273 -241q-28 -62 -78 -108zM960 1081q59 0 87 -29t28 -89q0 -176 -109 -444t-295 -549q-148 -224 -285.5 -322.5t-302.5 -98.5q-59 0 -103 12q-16 35 -16 85q0 61 31.5 94.5t88.5 33.5q29 0 65.5 -13.5t60.5 -13.5
q77 0 122 78t45 215q0 185 -112 622q-41 162 -64 208.5t-62 46.5q-36 0 -81 -16l-7 101q47 32 124 55.5t133 23.5q43 0 70 -11.5t51.5 -48t44 -95.5t44.5 -164q81 -337 81 -582q0 -50 -2 -72q106 186 176.5 389t70.5 327q0 52 -12 72.5t-42 20.5q-28 0 -73 -16l-7 101
q47 32 121.5 55.5t128.5 23.5z" />
    <glyph glyph-name="Ydieresis" unicode="&#x178;" horiz-adv-x="1327" 
d="M605 1577q-50 0 -82 33t-32 85q0 67 44 110t113 43q50 0 82.5 -33.5t32.5 -85.5q0 -67 -44.5 -109.5t-113.5 -42.5zM1013 1577q-50 0 -82 33t-32 85q0 67 44.5 110t113.5 43q50 0 82 -33.5t32 -85.5q0 -67 -44.5 -109.5t-113.5 -42.5zM1431 1434l-16 -104l-38 -5
q-44 -5 -68 -18t-52.5 -47t-85.5 -119l-365 -545l-51 -356q-5 -32 -5 -48q0 -35 18 -50t67 -23l79 -14l-16 -105h-624l16 105l93 16q46 8 65.5 33.5t27.5 85.5l51 356l-239 545q-29 67 -43.5 97.5t-31.5 51t-29 25.5t-38 10l-25 5l8 104h587l-16 -104l-50 -6
q-50 -6 -73.5 -23t-23.5 -50q0 -31 23 -85l168 -388l252 388q48 74 48 107q0 41 -77 50l-55 7l16 104h503z" />
    <glyph glyph-name="Zacute" unicode="&#x179;" horiz-adv-x="1226" 
d="M1066 1730l-412 -193q-37 44 -63 121l384 243q64 -81 91 -171zM1242 1321l-903 -1187h386q52 0 86 12.5t59.5 46.5t42 80t35.5 126l166 -10q-18 -204 -70 -389h-1053l5 113l903 1187h-353q-72 0 -109.5 -20.5t-62 -72.5t-51.5 -167l-167 10q18 197 70 384h1020z" />
    <glyph glyph-name="zacute" unicode="&#x17a;" horiz-adv-x="1015" 
d="M890 1385l-413 -193q-35 42 -62 122l384 242q64 -81 91 -171zM288 115h291q70 0 106.5 44.5t68.5 163.5l142 -9q-9 -148 -52 -314q-101 -3 -302 -3q-63 0 -156 4.5t-145 4.5q-111 0 -163 -28q-66 49 -90 144q158 168 358 418l320 401h-240q-72 0 -107.5 -41.5
t-68.5 -164.5l-142 9q9 146 52 312h795q29 -46 33 -106l-439 -549q-136 -172 -261 -286z" />
    <glyph glyph-name="Zdotaccent" unicode="&#x17b;" horiz-adv-x="1226" 
d="M748 1570q-57 0 -93 34t-36 88q0 76 49 123.5t128 47.5q57 0 93 -34.5t36 -88.5q0 -76 -49 -123t-128 -47zM1242 1321l-903 -1187h386q52 0 86 12.5t59.5 46.5t42 80t35.5 126l166 -10q-18 -204 -70 -389h-1053l5 113l903 1187h-353q-72 0 -109.5 -20.5t-62 -72.5
t-51.5 -167l-167 10q18 197 70 384h1020z" />
    <glyph glyph-name="zdotaccent" unicode="&#x17c;" horiz-adv-x="1015" 
d="M596 1225q-57 0 -93 34.5t-36 88.5q0 76 49 123t128 47q57 0 93 -34t36 -88q0 -76 -49 -123.5t-128 -47.5zM288 115h291q70 0 106.5 44.5t68.5 163.5l142 -9q-9 -148 -52 -314q-101 -3 -302 -3q-63 0 -156 4.5t-145 4.5q-111 0 -163 -28q-66 49 -90 144q158 168 358 418
l320 401h-240q-72 0 -107.5 -41.5t-68.5 -164.5l-142 9q9 146 52 312h795q29 -46 33 -106l-439 -549q-136 -172 -261 -286z" />
    <glyph glyph-name="Zcaron" unicode="&#x17d;" horiz-adv-x="1226" 
d="M748 1541l-263 240q29 63 77 108l213 -141l244 141q40 -45 58 -112zM1242 1321l-903 -1187h386q52 0 86 12.5t59.5 46.5t42 80t35.5 126l166 -10q-18 -204 -70 -389h-1053l5 113l903 1187h-353q-72 0 -109.5 -20.5t-62 -72.5t-51.5 -167l-167 10q18 197 70 384h1020z" />
    <glyph glyph-name="zcaron" unicode="&#x17e;" horiz-adv-x="1015" 
d="M596 1196l-263 241q28 60 78 107l212 -141l245 141q40 -45 58 -112zM288 115h291q70 0 106.5 44.5t68.5 163.5l142 -9q-9 -148 -52 -314q-101 -3 -302 -3q-63 0 -156 4.5t-145 4.5q-111 0 -163 -28q-66 49 -90 144q158 168 358 418l320 401h-240q-72 0 -107.5 -41.5
t-68.5 -164.5l-142 9q9 146 52 312h795q29 -46 33 -106l-439 -549q-136 -172 -261 -286z" />
    <glyph glyph-name="longs" unicode="&#x17f;" horiz-adv-x="595" 
d="M957 1482q7 -21 7 -48q0 -61 -30.5 -93.5t-86.5 -32.5q-35 0 -63.5 13.5t-44 29t-39.5 29t-52 13.5q-87 0 -108 -152l-173 -1236q-33 -235 -124.5 -345.5t-252.5 -110.5q-94 0 -173 41l28 129q44 -23 92 -23q46 0 73.5 26.5t46.5 90t36 186.5l129 920h-124l13 113
q41 13 134 21l12 91q52 374 446 374q130 0 254 -36z" />
    <glyph glyph-name="Schwa" unicode="&#x18f;" horiz-adv-x="1343" 
d="M734 1466q265 0 406 -155.5t141 -447.5q0 -271 -93 -474t-265.5 -312.5t-402.5 -109.5q-226 0 -349 123.5t-123 349.5q0 135 28 194.5t91 59.5h815q8 75 8 145q0 215 -92.5 335t-257.5 120q-105 0 -193.5 -34.5t-200.5 -119.5l-48 132q135 108 254.5 151t281.5 43z
M558 111q138 0 245.5 122.5t155.5 324.5h-553q-51 0 -73 -36.5t-22 -121.5q0 -131 67.5 -210t179.5 -79z" />
    <glyph glyph-name="florin" unicode="&#x192;" horiz-adv-x="1046" 
d="M1130 1482q3 -16 3 -34q0 -65 -35 -102.5t-97 -37.5q-34 0 -60.5 13.5t-40.5 29t-37 29t-51 13.5q-41 0 -72.5 -39.5t-47.5 -112.5l-70 -308h259l-31 -137h-255l-179 -791q-54 -237 -155.5 -346.5t-266.5 -109.5q-93 0 -169 41l41 129q41 -23 88 -23q67 0 104.5 62
t77.5 241l180 797h-124l23 113q43 13 136 21l48 214q43 193 160 283.5t320 90.5q130 0 251 -36z" />
    <glyph glyph-name="AEacute" unicode="&#x1fc;" horiz-adv-x="1884" 
d="M1609 1730l-412 -193q-36 42 -62 121l383 243q64 -81 91 -171zM1840 1071l-162 -10q2 104 -10 152.5t-45 67.5t-105 19h-266l-71 -506h219q49 0 70.5 21.5t44.5 89.5l13 41l136 4l-65 -458l-134 4v71q-1 49 -21 71t-63 22h-219l-60 -432q0 -3 -1.5 -12.5t-1.5 -14.5
q0 -39 27 -53t97 -14h164q104 0 147 45t80 194l160 -10q-17 -185 -67 -363h-1049l16 104l65 13q46 9 64 29t25 70l34 240h-384l-108 -180q-51 -87 -51 -116q0 -20 16.5 -31t54.5 -18l41 -7l-16 -104h-486l16 104l53 9q50 8 80 32t69 89l593 971q34 54 34 76q0 29 -65 39
l-60 10l8 104h1220q-1 -180 -37 -363zM882 598l99 695l-418 -695h319z" />
    <glyph glyph-name="aeacute" unicode="&#x1fd;" horiz-adv-x="1597" 
d="M1167 1385l-412 -193q-35 42 -62 122l383 242q64 -81 91 -171zM950 460q-30 0 -57 3q-1 -15 -1 -44q0 -278 230 -278q154 0 275 101l39 -125q-96 -75 -195.5 -108.5t-232.5 -33.5q-261 0 -351 188q-59 -90 -151.5 -139t-207.5 -49q-137 0 -210.5 65.5t-73.5 186.5
q0 186 129 290.5t359 104.5q70 0 134 -9l20 126q8 51 8 85q0 138 -103 138q-37 0 -69.5 -17.5t-58 -43t-51.5 -51t-59.5 -43t-72.5 -17.5q-47 0 -72 24.5t-25 70.5q0 41 17 81q197 115 424 115q217 0 266 -136q138 136 348 136q344 0 344 -253q0 -175 -158 -271.5
t-444 -96.5zM1170 944q-90 0 -162 -100t-101 -255q26 -2 36 -2q161 0 255 63t94 171q0 123 -122 123zM405 147q120 0 209 184q-3 31 -3 67q0 55 5 94q-51 7 -92 7q-115 0 -179 -57.5t-64 -161.5q0 -62 33 -97.5t91 -35.5z" />
    <glyph glyph-name="Oslashacute" unicode="&#x1fe;" horiz-adv-x="1505" 
d="M1167 1730l-413 -193q-36 42 -62 121l384 243q64 -81 91 -171zM1326 1511l-91 -148q210 -154 210 -495q0 -268 -97.5 -472.5t-275.5 -316.5t-411 -112q-136 0 -246 46l-95 -156l-110 65l94 154q-213 162 -213 506q0 264 96.5 464.5t274 310t410.5 109.5q139 0 251 -43
l94 154zM850 1323q-132 0 -237.5 -99.5t-164.5 -276t-59 -397.5q0 -162 47 -268l586 984q-69 57 -172 57zM683 111q130 0 236.5 103.5t167 284t60.5 400.5q0 157 -45 257l-586 -986q68 -59 167 -59z" />
    <glyph glyph-name="oslashacute" unicode="&#x1ff;" 
d="M940 1385l-412 -193q-35 42 -62 122l383 242q64 -81 91 -171zM1005 1140l-80 -130q148 -101 148 -345q0 -310 -163.5 -500t-432.5 -190q-87 0 -164 24l-87 -142l-100 59l82 134q-150 109 -150 350q0 305 164 493t431 188q89 0 166 -22l85 140zM633 944
q-84 0 -152.5 -77.5t-107.5 -211t-39 -294.5q0 -50 10 -98l382 651q-39 30 -93 30zM496 112q82 0 151.5 79.5t109.5 215.5t40 296q0 50 -8 93l-383 -652q38 -32 90 -32z" />
    <glyph glyph-name="Scommaaccent" unicode="&#x218;" horiz-adv-x="1114" 
d="M677 1337q-98 0 -156.5 -63t-58.5 -168q0 -59 30 -107.5t77.5 -84.5t105 -70.5t115 -73t105 -84t77.5 -112.5t30 -149q0 -213 -139.5 -335.5t-381.5 -122.5q-139 0 -265 32t-199 86q7 154 46 319l156 6q-5 -152 57.5 -232.5t186.5 -80.5q111 0 183.5 71t72.5 180
q0 62 -29.5 113t-76.5 88t-104 72t-114.5 73t-104.5 81.5t-76.5 108.5t-29.5 144q0 200 132.5 319t356.5 119q99 0 184.5 -13.5t147 -27t101.5 -13.5l-55 -338l-151 -6q-6 140 -59.5 204.5t-163.5 64.5zM501 -83q52 0 80.5 -34t28.5 -95q0 -113 -71 -198t-190 -114
q-27 20 -33 56q93 43 116 137q-33 11 -52.5 41.5t-19.5 71.5q0 61 38.5 98t102.5 37z" />
    <glyph glyph-name="scommaaccent" unicode="&#x219;" horiz-adv-x="921" 
d="M530 965q-61 0 -100 -40.5t-39 -104.5q0 -42 23 -77.5t59 -62t80.5 -52.5t88.5 -55t80 -63t59 -83.5t23 -109.5q0 -157 -116.5 -249.5t-314.5 -92.5q-240 0 -364 102q6 116 35 234l134 6q7 -226 190 -226q70 0 115.5 44.5t45.5 112.5q0 43 -22.5 80t-58.5 64.5t-79 54
t-86.5 55.5t-79.5 62.5t-58.5 82t-22.5 106.5q0 151 108 239.5t292 88.5q91 0 194.5 -24.5t154.5 -24.5l-45 -262l-130 -7q-7 202 -166 202zM393 -83q52 0 80.5 -34t28.5 -95q0 -113 -71 -198t-190 -114q-27 20 -33 56q94 43 117 137q-33 11 -53 41.5t-20 71.5q0 61 38.5 98
t102.5 37z" />
    <glyph glyph-name="uni021A" unicode="&#x21a;" horiz-adv-x="1323" 
d="M184 1434h1188q-1 -179 -40 -384l-169 -10q2 48 2 66q0 120 -29.5 157t-122.5 37h-115l-149 -1060q-5 -32 -5 -48q0 -35 18 -50t67 -23l79 -14l-16 -105h-624l16 105l93 16q46 8 65.5 33t27.5 86l149 1060h-115q-72 0 -109.5 -20.5t-62 -72.5t-51.5 -167l-167 10
q18 197 70 384zM560 -83q52 0 80.5 -34t28.5 -95q0 -113 -71 -198t-190 -114q-27 20 -33 56q94 43 117 137q-33 11 -53 41.5t-20 71.5q0 61 38.5 98t102.5 37z" />
    <glyph glyph-name="uni021B" unicode="&#x21b;" horiz-adv-x="759" 
d="M498 919l-96 -633q-3 -22 -3 -42q0 -101 100 -101q69 0 149 54l25 -118q-147 -104 -324 -104q-123 0 -179.5 46t-56.5 146q0 35 6 75l104 677h-119l13 113q19 6 77.5 15.5t77.5 9.5q48 113 101 199q25 41 44 54t54 13q31 0 81 -11l-39 -256h287l-20 -137h-282zM338 -83
q52 0 80.5 -34t28.5 -95q0 -113 -71.5 -198t-190.5 -114q-26 19 -32 56q93 43 116 137q-33 11 -53 41.5t-20 71.5q0 61 39 98t103 37z" />
    <glyph glyph-name="dotlessj" unicode="&#x237;" horiz-adv-x="600" 
d="M101 901v101q49 32 132 55t152 23q77 0 100 -16.5t23 -70.5q0 -35 -15 -142l-76 -537q-36 -257 -79 -384.5t-128 -215.5q-57 -59 -154.5 -103.5t-210.5 -61.5q-30 35 -30 92q0 78 79 104q19 6 65.5 12t65.5 19q30 20 46 86.5t50 308.5l88 630q7 46 7 74q0 24 -7.5 33
t-24.5 9q-36 0 -83 -16z" />
    <glyph glyph-name="schwa" unicode="&#x259;" horiz-adv-x="1034" 
d="M556 1081q197 0 297 -108t100 -315q0 -202 -72 -357t-204.5 -240.5t-306.5 -85.5q-177 0 -267.5 64t-90.5 189q0 186 159 289.5t445 103.5q32 0 59 -3v19q0 278 -234 278q-75 0 -135.5 -24t-124.5 -77l-38 125q97 76 191.5 109t221.5 33zM394 112q95 0 169.5 108
t100.5 273q-30 2 -40 2q-160 0 -256 -70.5t-96 -189.5q0 -123 122 -123z" />
    <glyph glyph-name="circumflex" unicode="&#x2c6;" horiz-adv-x="1024" 
d="M545 1555l274 -241q-28 -62 -78 -108l-223 143l-254 -143q-41 46 -59 113z" />
    <glyph glyph-name="caron" unicode="&#x2c7;" horiz-adv-x="1024" 
d="M506 1403l244 141q40 -45 58 -112l-329 -236l-263 241q28 62 77 107z" />
    <glyph glyph-name="breve" unicode="&#x2d8;" horiz-adv-x="1024" 
d="M343 1505q24 -140 163 -140q65 0 106.5 32t75.5 108q30 0 65 -11.5t53 -27.5q-90 -248 -319 -248q-120 0 -188.5 63.5t-79.5 184.5q22 16 58.5 27.5t65.5 11.5z" />
    <glyph glyph-name="dotaccent" unicode="&#x2d9;" horiz-adv-x="1024" 
d="M360 1348q0 76 48.5 123t127.5 47q57 0 93 -34t36 -88q0 -76 -48.5 -123.5t-127.5 -47.5q-57 0 -93 34.5t-36 88.5z" />
    <glyph glyph-name="ring" unicode="&#x2da;" horiz-adv-x="1024" 
d="M309 1366q0 100 64.5 163t167.5 63q79 0 126.5 -47.5t47.5 -126.5q0 -100 -64.5 -163.5t-167.5 -63.5q-79 0 -126.5 48t-47.5 127zM527 1493q-46 0 -75 -31.5t-29 -81.5q0 -90 74 -90q46 0 75 31.5t29 81.5q0 90 -74 90z" />
    <glyph glyph-name="ogonek" unicode="&#x2db;" horiz-adv-x="1024" 
d="M554 8l184 -8q-256 -64 -256 -228q0 -51 22.5 -78.5t63.5 -27.5q57 0 109 50q25 -46 26 -98q-91 -81 -225 -81q-86 0 -139 50.5t-53 133.5q0 101 71.5 177.5t196.5 109.5z" />
    <glyph glyph-name="tilde" unicode="&#x2dc;" horiz-adv-x="1024" 
d="M657 1412q85 0 152 71l20 -108q-33 -53 -93 -88t-119 -35q-67 0 -138 31t-112 31q-85 0 -152 -71l-20 108q33 53 93 88t119 35q67 0 138 -31t112 -31z" />
    <glyph glyph-name="hungarumlaut" unicode="&#x2dd;" horiz-adv-x="1024" 
d="M199 1236l132 356q88 -19 162 -74l-174 -336q-66 15 -120 54zM508 1246l163 346q87 -29 154 -88l-203 -322q-58 17 -114 64z" />
    <glyph glyph-name="gravecomb" unicode="&#x300;" horiz-adv-x="0" 
d="M366 1556l383 -242q-27 -80 -62 -122l-412 193q27 90 91 171z" />
    <glyph glyph-name="acutecomb" unicode="&#x301;" horiz-adv-x="0" 
d="M275 1314l383 242q64 -81 91 -171l-412 -193q-35 42 -62 122z" />
    <glyph glyph-name="uni0302" unicode="&#x302;" horiz-adv-x="0" 
d="M545 1555l274 -241q-28 -62 -78 -108l-223 143l-254 -143q-41 46 -59 113z" />
    <glyph glyph-name="tildecomb" unicode="&#x303;" horiz-adv-x="0" 
d="M657 1412q85 0 152 71l20 -108q-33 -53 -93 -88t-119 -35q-67 0 -138 31t-112 31q-85 0 -152 -71l-20 108q33 53 93 88t119 35q67 0 138 -31t112 -31z" />
    <glyph glyph-name="uni0304" unicode="&#x304;" horiz-adv-x="0" 
d="M779 1286h-555l21 148h555z" />
    <glyph glyph-name="uni0306" unicode="&#x306;" horiz-adv-x="0" 
d="M343 1505q24 -140 163 -140q65 0 106.5 32t75.5 108q30 0 65 -11.5t53 -27.5q-90 -248 -319 -248q-120 0 -188.5 63.5t-79.5 184.5q22 16 58.5 27.5t65.5 11.5z" />
    <glyph glyph-name="uni0307" unicode="&#x307;" horiz-adv-x="0" 
d="M360 1348q0 76 48.5 123t127.5 47q57 0 93 -34t36 -88q0 -76 -48.5 -123.5t-127.5 -47.5q-57 0 -93 34.5t-36 88.5z" />
    <glyph glyph-name="uni0308" unicode="&#x308;" horiz-adv-x="0" 
d="M172 1351q0 67 44.5 109.5t113.5 42.5q50 0 82 -33t32 -85q0 -67 -44.5 -110t-113.5 -43q-50 0 -82 33.5t-32 85.5zM580 1351q0 67 44.5 109.5t113.5 42.5q50 0 82 -33t32 -85q0 -67 -44.5 -110t-113.5 -43q-50 0 -82 33.5t-32 85.5z" />
    <glyph glyph-name="uni030A" unicode="&#x30a;" horiz-adv-x="0" 
d="M309 1366q0 100 64.5 163t167.5 63q79 0 126.5 -47.5t47.5 -126.5q0 -100 -64.5 -163.5t-167.5 -63.5q-79 0 -126.5 48t-47.5 127zM527 1493q-46 0 -75 -31.5t-29 -81.5q0 -90 74 -90q46 0 75 31.5t29 81.5q0 90 -74 90z" />
    <glyph glyph-name="uni030B" unicode="&#x30b;" horiz-adv-x="0" 
d="M199 1236l132 356q88 -19 162 -74l-174 -336q-66 15 -120 54zM508 1246l163 346q87 -29 154 -88l-203 -322q-58 17 -114 64z" />
    <glyph glyph-name="uni030C" unicode="&#x30c;" horiz-adv-x="0" 
d="M506 1403l244 141q40 -45 58 -112l-329 -236l-263 241q28 62 77 107z" />
    <glyph glyph-name="uni0312" unicode="&#x312;" horiz-adv-x="0" 
d="M543 1457q33 -11 53 -41t20 -71q0 -61 -39 -98t-103 -37q-52 0 -80.5 33.5t-28.5 94.5q0 113 71.5 198t190.5 114q26 -19 32 -56q-93 -43 -116 -137z" />
    <glyph glyph-name="uni0326" unicode="&#x326;" horiz-adv-x="0" 
d="M550 -83q52 0 80.5 -34t28.5 -95q0 -113 -71.5 -198t-190.5 -114q-26 19 -32 56q93 43 116 137q-33 11 -53 41.5t-20 71.5q0 61 39 98t103 37z" />
    <glyph glyph-name="uni0327" unicode="&#x327;" horiz-adv-x="0" 
d="M639 46l-92 -153q84 0 133 -42t49 -114q0 -109 -71.5 -170.5t-198.5 -61.5q-99 0 -164 61q15 51 44 91q53 -44 120 -44q44 0 68.5 23.5t24.5 67.5q0 41 -33 64.5t-92 23.5l-18 55l109 199h121z" />
    <glyph glyph-name="Delta" unicode="&#x394;" horiz-adv-x="1435" 
d="M1302 0h-1332l778 1438h181zM738 1066l-496 -923h735z" />
    <glyph glyph-name="Omega" unicode="&#x3a9;" horiz-adv-x="1611" 
d="M1352 334l135 -9q-11 -151 -61 -325h-638l23 168q102 36 187.5 155.5t134.5 290t49 350.5q0 176 -70.5 267.5t-206.5 91.5q-192 0 -308 -195t-116 -514q0 -181 52 -300t142 -146l-24 -168h-637q-2 169 32 325l134 9q1 -112 35 -148t136 -36h143q-138 69 -222 219.5
t-84 336.5q0 345 201 552.5t537 207.5q264 0 409.5 -138.5t145.5 -391.5q0 -263 -137 -479t-357 -307h146q101 0 144.5 36t74.5 148z" />
    <glyph glyph-name="mu" unicode="&#x3bc;" horiz-adv-x="1298" 
d="M1024 183q0 -33 15 -45.5t52 -12.5t64 4l-7 -101q-121 -48 -208 -48q-82 0 -121 29t-39 92q0 93 86 378h-2q-151 -504 -454 -504q-20 0 -35 4q-13 -139 -28 -251l-18 -134l-276 -40l175 1247q8 51 8 73q0 25 -8 34t-27 9q-36 0 -83 -16v101q50 32 132.5 55.5t151.5 23.5
q77 0 100 -17t23 -71q0 -37 -15 -142l-69 -485q-13 -87 -13 -137q0 -46 12.5 -64t41.5 -18q42 0 95.5 45.5t104.5 123t94.5 195t63.5 246.5l46 299h273l-130 -824q-5 -32 -5 -49z" />
    <glyph glyph-name="pi" unicode="&#x3c0;" horiz-adv-x="1298" 
d="M1108 924l-110 -692q-5 -32 -5 -48q0 -31 15 -42t52 -11q48 0 75 4l-7 -107q-121 -48 -234 -48q-97 0 -139 32.5t-42 112.5q0 32 8 82l114 717h-316l-147 -924h-273l147 924h-151l-22 35l30 117h1220l-25 -152h-190z" />
    <glyph glyph-name="Wgrave" unicode="&#x1e80;" horiz-adv-x="2048" 
d="M1017 1901l384 -243q-26 -77 -63 -121l-412 193q27 90 91 171zM2161 1434l-15 -104l-53 -7q-53 -7 -85 -42.5t-79 -139.5l-518 -1145h-198l-132 975l-435 -975h-197l-172 1145q-16 104 -36.5 138t-73.5 44l-37 7l7 104h574l-16 -104l-53 -7q-54 -7 -74 -26.5t-20 -70.5
q0 -24 7 -85l95 -747l445 1040h187l132 -1040l318 747q42 96 42 128q0 26 -21 37t-73 18l-40 6l16 104h505z" />
    <glyph glyph-name="wgrave" unicode="&#x1e81;" horiz-adv-x="1714" 
d="M805 1556l384 -242q-26 -78 -63 -122l-412 193q27 90 91 171zM1571 1081q59 0 87 -29t28 -89q0 -147 -140.5 -422t-357.5 -551q-82 1 -184 20l-84 491q-18 105 -27 185q-142 -407 -339 -696q-104 2 -204 20l-118 713q-21 123 -38 158.5t-54 35.5t-82 -16l-6 101
q47 32 124 55.5t133 23.5q60 0 91.5 -21.5t52 -79t36.5 -176.5l36 -258q20 -144 28 -281q185 363 289 779q115 24 231 24q31 -84 60 -276l41 -263q26 -165 35 -263q103 156 174.5 325t71.5 259q0 67 -54 67q-28 0 -73 -16l-7 101q47 32 121.5 55.5t128.5 23.5z" />
    <glyph glyph-name="Wacute" unicode="&#x1e82;" horiz-adv-x="2048" 
d="M1465 1730l-412 -193q-37 44 -63 121l384 243q64 -81 91 -171zM2161 1434l-15 -104l-53 -7q-53 -7 -85 -42.5t-79 -139.5l-518 -1145h-198l-132 975l-435 -975h-197l-172 1145q-16 104 -36.5 138t-73.5 44l-37 7l7 104h574l-16 -104l-53 -7q-54 -7 -74 -26.5t-20 -70.5
q0 -24 7 -85l95 -747l445 1040h187l132 -1040l318 747q42 96 42 128q0 26 -21 37t-73 18l-40 6l16 104h505z" />
    <glyph glyph-name="wacute" unicode="&#x1e83;" horiz-adv-x="1714" 
d="M1205 1385l-412 -193q-37 44 -63 122l384 242q64 -81 91 -171zM1571 1081q59 0 87 -29t28 -89q0 -147 -140.5 -422t-357.5 -551q-82 1 -184 20l-84 491q-18 105 -27 185q-142 -407 -339 -696q-104 2 -204 20l-118 713q-21 123 -38 158.5t-54 35.5t-82 -16l-6 101
q47 32 124 55.5t133 23.5q60 0 91.5 -21.5t52 -79t36.5 -176.5l36 -258q20 -144 28 -281q185 363 289 779q115 24 231 24q31 -84 60 -276l41 -263q26 -165 35 -263q103 156 174.5 325t71.5 259q0 67 -54 67q-28 0 -73 -16l-7 101q47 32 121.5 55.5t128.5 23.5z" />
    <glyph glyph-name="Wdieresis" unicode="&#x1e84;" horiz-adv-x="2048" 
d="M996 1577q-50 0 -82.5 33t-32.5 85q0 67 44.5 110t113.5 43q50 0 82 -33.5t32 -85.5q0 -67 -44 -109.5t-113 -42.5zM1404 1577q-50 0 -82.5 33t-32.5 85q0 67 44.5 110t113.5 43q50 0 82.5 -33.5t32.5 -85.5q0 -67 -44.5 -109.5t-113.5 -42.5zM2161 1434l-15 -104l-53 -7
q-53 -7 -85 -42.5t-79 -139.5l-518 -1145h-198l-132 975l-435 -975h-197l-172 1145q-16 104 -36.5 138t-73.5 44l-37 7l7 104h574l-16 -104l-53 -7q-54 -7 -74 -26.5t-20 -70.5q0 -24 7 -85l95 -747l445 1040h187l132 -1040l318 747q42 96 42 128q0 26 -21 37t-73 18l-40 6
l16 104h505z" />
    <glyph glyph-name="wdieresis" unicode="&#x1e85;" horiz-adv-x="1714" 
d="M757 1232q-50 0 -82 33.5t-32 85.5q0 67 44 109.5t113 42.5q50 0 82.5 -33t32.5 -85q0 -67 -44.5 -110t-113.5 -43zM1165 1232q-50 0 -82 33.5t-32 85.5q0 67 44.5 109.5t113.5 42.5q50 0 82 -33t32 -85q0 -67 -44.5 -110t-113.5 -43zM1571 1081q59 0 87 -29t28 -89
q0 -147 -140.5 -422t-357.5 -551q-82 1 -184 20l-84 491q-18 105 -27 185q-142 -407 -339 -696q-104 2 -204 20l-118 713q-21 123 -38 158.5t-54 35.5t-82 -16l-6 101q47 32 124 55.5t133 23.5q60 0 91.5 -21.5t52 -79t36.5 -176.5l36 -258q20 -144 28 -281q185 363 289 779
q115 24 231 24q31 -84 60 -276l41 -263q26 -165 35 -263q103 156 174.5 325t71.5 259q0 67 -54 67q-28 0 -73 -16l-7 101q47 32 121.5 55.5t128.5 23.5z" />
    <glyph glyph-name="Ygrave" unicode="&#x1ef2;" horiz-adv-x="1327" 
d="M611 1901l384 -243q-26 -77 -63 -121l-412 193q27 90 91 171zM1431 1434l-16 -104l-38 -5q-44 -5 -68 -18t-52.5 -47t-85.5 -119l-365 -545l-51 -356q-5 -32 -5 -48q0 -35 18 -50t67 -23l79 -14l-16 -105h-624l16 105l93 16q46 8 65.5 33.5t27.5 85.5l51 356l-239 545
q-29 67 -43.5 97.5t-31.5 51t-29 25.5t-38 10l-25 5l8 104h587l-16 -104l-50 -6q-50 -6 -73.5 -23t-23.5 -50q0 -31 23 -85l168 -388l252 388q48 74 48 107q0 41 -77 50l-55 7l16 104h503z" />
    <glyph glyph-name="ygrave" unicode="&#x1ef3;" horiz-adv-x="1116" 
d="M430 1556l383 -242q-27 -80 -62 -122l-412 193q27 90 91 171zM960 1081q59 0 87 -29t28 -89q0 -176 -109 -444t-295 -549q-148 -224 -285.5 -322.5t-302.5 -98.5q-59 0 -103 12q-16 35 -16 85q0 61 31.5 94.5t88.5 33.5q29 0 65.5 -13.5t60.5 -13.5q77 0 122 78t45 215
q0 185 -112 622q-41 162 -64 208.5t-62 46.5q-36 0 -81 -16l-7 101q47 32 124 55.5t133 23.5q43 0 70 -11.5t51.5 -48t44 -95.5t44.5 -164q81 -337 81 -582q0 -50 -2 -72q106 186 176.5 389t70.5 327q0 52 -12 72.5t-42 20.5q-28 0 -73 -16l-7 101q47 32 121.5 55.5
t128.5 23.5z" />
    <glyph glyph-name="enspace" unicode="&#x2002;" horiz-adv-x="1024" 
 />
    <glyph glyph-name="uni2003" unicode="&#x2003;" horiz-adv-x="2048" 
 />
    <glyph glyph-name="uni2004" unicode="&#x2004;" horiz-adv-x="681" 
 />
    <glyph glyph-name="uni2005" unicode="&#x2005;" horiz-adv-x="512" 
 />
    <glyph glyph-name="uni2006" unicode="&#x2006;" horiz-adv-x="339" 
 />
    <glyph glyph-name="uni2007" unicode="&#x2007;" 
 />
    <glyph glyph-name="uni2008" unicode="&#x2008;" horiz-adv-x="577" 
 />
    <glyph glyph-name="uni2009" unicode="&#x2009;" horiz-adv-x="256" 
 />
    <glyph glyph-name="uni200A" unicode="&#x200a;" horiz-adv-x="153" 
 />
    <glyph glyph-name="zerowidthspace" unicode="&#x200b;" horiz-adv-x="0" 
 />
    <glyph glyph-name="endash" unicode="&#x2013;" horiz-adv-x="1271" 
d="M1152 648l-24 -166h-1024l24 166h1024z" />
    <glyph glyph-name="emdash" unicode="&#x2014;" horiz-adv-x="2295" 
d="M2176 648l-24 -166h-2048l24 166h2048z" />
    <glyph glyph-name="quoteleft" unicode="&#x2018;" horiz-adv-x="512" 
d="M380 1285q48 -11 76 -49t28 -95q0 -85 -54.5 -139.5t-139.5 -54.5q-67 0 -102.5 45.5t-35.5 129.5q0 160 108 294t259 161q39 -24 42 -75q-148 -67 -181 -217z" />
    <glyph glyph-name="quoteright" unicode="&#x2019;" horiz-adv-x="516" 
d="M408 1552q67 0 103 -45.5t36 -129.5q0 -160 -108.5 -294t-259.5 -161q-38 24 -41 75q147 67 180 217q-48 11 -76 49t-28 95q0 85 54.5 139.5t139.5 54.5z" />
    <glyph glyph-name="quotesinglbase" unicode="&#x201a;" horiz-adv-x="512" 
d="M214 315q67 0 102.5 -45.5t35.5 -129.5q0 -160 -108 -294t-259 -161q-39 24 -42 74q148 67 181 218q-48 11 -76 49t-28 95q0 85 54.5 139.5t139.5 54.5z" />
    <glyph glyph-name="quotedblleft" unicode="&#x201c;" horiz-adv-x="964" 
d="M561 1502q-148 -67 -181 -217q48 -11 76 -49t28 -95q0 -85 -54.5 -139.5t-139.5 -54.5q-67 0 -102.5 45.5t-35.5 129.5q0 160 108 294t259 161q39 -24 42 -75zM833 1285q48 -11 76 -49t28 -95q0 -85 -54.5 -139.5t-139.5 -54.5q-67 0 -103 45.5t-36 129.5
q0 160 108.5 294t259.5 161q38 -24 41 -75q-147 -67 -180 -217z" />
    <glyph glyph-name="quotedblright" unicode="&#x201d;" horiz-adv-x="968" 
d="M408 1552q67 0 103 -45.5t36 -129.5q0 -160 -108.5 -294t-259.5 -161q-38 24 -41 75q147 67 180 217q-48 11 -76 49t-28 95q0 85 54.5 139.5t139.5 54.5zM861 1552q67 0 102.5 -45.5t35.5 -129.5q0 -160 -108 -294t-259 -161q-39 24 -42 75q148 67 181 217q-48 11 -76 49
t-28 95q0 85 54.5 139.5t139.5 54.5z" />
    <glyph glyph-name="quotedblbase" unicode="&#x201e;" horiz-adv-x="964" 
d="M214 315q67 0 102.5 -45.5t35.5 -129.5q0 -160 -108 -294t-259 -161q-39 24 -42 74q148 67 181 218q-48 11 -76 49t-28 95q0 85 54.5 139.5t139.5 54.5zM666 315q67 0 103 -45.5t36 -129.5q0 -160 -108.5 -294t-259.5 -161q-38 24 -41 74q147 67 180 218q-48 11 -76 49
t-28 95q0 85 54.5 139.5t139.5 54.5z" />
    <glyph glyph-name="dagger" unicode="&#x2020;" horiz-adv-x="1013" 
d="M1009 985l-28 -197l-84 -5l-16 11q-28 18 -73 18h-174l-84 -599q-37 -266 -117 -571h-123q3 282 43 571l84 599h-174q-52 0 -80 -18l-17 -11l-83 5l29 197l83 4l17 -10q29 -19 72 -19h174l44 311q2 11 2 27q0 29 -23 42l-21 13l15 81h296l-7 -81l-24 -13
q-20 -10 -28.5 -24t-12.5 -45l-44 -311h174q52 0 81 19l16 10z" />
    <glyph glyph-name="daggerdbl" unicode="&#x2021;" horiz-adv-x="1103" 
d="M681 812l-77 -549h174q52 0 80 18l17 11l83 -4l-29 -197l-83 -5l-17 11q-28 18 -72 18h-174l-44 -311q-2 -11 -2 -27q0 -29 23 -42l21 -13l-15 -80h-296l7 80l24 13q20 10 28.5 24t12.5 45l44 311h-174q-53 0 -81 -18l-16 -11l-83 5l28 197l84 4l16 -11q28 -18 73 -18
h174l77 549h-173q-53 0 -81 -18l-17 -11l-83 5l29 197l83 4l17 -10q29 -19 72 -19h174l44 311q2 11 2 27q0 30 -22 42l-22 13l16 81h295l-7 -81l-24 -13q-20 -10 -28.5 -24t-12.5 -45l-44 -311h174q52 0 81 19l16 10l83 -4l-28 -197l-84 -5l-16 11q-28 18 -73 18h-174z" />
    <glyph glyph-name="bullet" unicode="&#x2022;" horiz-adv-x="833" 
d="M121 640q0 151 101 252t253 101q114 0 184.5 -74.5t70.5 -195.5q0 -151 -101 -252.5t-253 -101.5q-114 0 -184.5 75t-70.5 196z" />
    <glyph glyph-name="ellipsis" unicode="&#x2026;" horiz-adv-x="1499" 
d="M21 121q0 85 54.5 139.5t139.5 54.5q64 0 103 -40.5t39 -107.5q0 -85 -54.5 -139.5t-139.5 -54.5q-64 0 -103 40.5t-39 107.5zM518 121q0 85 54.5 139.5t139.5 54.5q64 0 102.5 -40.5t38.5 -107.5q0 -85 -54.5 -139.5t-139.5 -54.5q-64 0 -102.5 40.5t-38.5 107.5z
M1015 121q0 85 54.5 139.5t139.5 54.5q64 0 102.5 -40.5t38.5 -107.5q0 -85 -54.5 -139.5t-139.5 -54.5q-64 0 -102.5 40.5t-38.5 107.5z" />
    <glyph glyph-name="perthousand" unicode="&#x2030;" horiz-adv-x="2662" 
d="M381 -102h-183l1295 1638h182zM120 990q0 209 111 334.5t298 125.5q149 0 225.5 -75t76.5 -221q0 -213 -111.5 -339.5t-298.5 -126.5q-143 0 -222 79.5t-79 222.5zM514 1331q-80 0 -135 -103.5t-55 -252.5q0 -81 29.5 -124.5t83.5 -43.5q78 0 134 107t56 254
q0 163 -113 163zM1043 285q0 210 111 335.5t297 125.5q149 0 226 -75t77 -221q0 -213 -111.5 -339.5t-299.5 -126.5q-143 0 -221.5 79t-78.5 222zM1861 285q0 210 111.5 335.5t297.5 125.5q149 0 225.5 -75t76.5 -221q0 -213 -111.5 -339.5t-298.5 -126.5q-143 0 -222 79
t-79 222zM1436 626q-80 0 -134.5 -103t-54.5 -252q0 -81 29.5 -124.5t83.5 -43.5q78 0 133.5 107t55.5 254q0 162 -113 162zM2255 626q-80 0 -134.5 -103t-54.5 -252q0 -81 29.5 -124.5t83.5 -43.5q78 0 133.5 107t55.5 254q0 162 -113 162z" />
    <glyph glyph-name="guilsinglleft" unicode="&#x2039;" horiz-adv-x="641" 
d="M598 862l-292 -333q109 -219 182 -347l-121 -79q-46 25 -130 138t-186 287q324 370 435 425z" />
    <glyph glyph-name="guilsinglright" unicode="&#x203a;" horiz-adv-x="641" 
d="M128 873l122 80q46 -25 129.5 -137.5t185.5 -287.5q-324 -370 -435 -425l-112 91l292 333q-105 210 -182 346z" />
    <glyph glyph-name="fraction" unicode="&#x2044;" horiz-adv-x="436" 
d="M-323 -102h-183l1294 1638h183z" />
    <glyph glyph-name="Euro" unicode="&#x20ac;" horiz-adv-x="1415" 
d="M979 1323q-137 0 -243 -110t-161 -302h383l-17 -126h-394q-12 -77 -16 -136h390l-17 -125h-376q3 -200 75.5 -306.5t207.5 -106.5q130 0 202.5 71.5t113.5 235.5l151 -9l-48 -338q-225 -104 -448 -104q-262 0 -403 142.5t-149 414.5h-176l18 125h160q4 65 17 136h-158
l18 126h169q79 260 267 407.5t448 147.5q113 0 231 -25.5t182 -25.5q-15 -175 -52 -367l-158 -10q0 155 -48.5 220t-168.5 65z" />
    <glyph glyph-name="uni2113" unicode="&#x2113;" horiz-adv-x="837" 
d="M490 143q84 0 164 54l7 -118q-147 -104 -304 -104q-128 0 -186 47.5t-58 150.5q0 38 5 69l24 171q-5 -2 -32 -13.5t-42 -17.5l-21 116q57 28 115 60l64 457q37 262 133 377t278 115q121 0 180 -59t59 -181q0 -416 -455 -707l-38 -274q-4 -30 -4 -42q0 -53 27 -77t84 -24z
M498 1107l-50 -355q119 106 171.5 226t52.5 276q0 52 -13 75.5t-44 23.5q-46 0 -72 -54t-45 -192z" />
    <glyph glyph-name="uni2116" unicode="&#x2116;" horiz-adv-x="2267" 
d="M1874 729q-143 0 -218.5 72.5t-75.5 208.5q0 201 111.5 322.5t297.5 121.5q297 0 297 -274q0 -205 -112.5 -328t-299.5 -123zM1538 1434l-16 -104l-76 -11q-45 -7 -63.5 -29t-25.5 -73l-171 -1217h-268l-343 839q-63 155 -103 349q-9 -169 -29 -311l-93 -661
q-3 -21 -3 -35q0 -31 17.5 -44t68.5 -23l51 -10l-16 -104h-464l16 104l64 13q46 9 64.5 29t25.5 70l140 1001q4 28 4 36q0 31 -18 44.5t-69 24.5l-38 8l7 104h424l343 -839q56 -137 95 -308q9 148 26 270l93 660q3 21 3 36q0 31 -17.5 44.5t-68.5 24.5l-38 8l7 104h471z
M1973 1352q-73 0 -124 -109.5t-51 -264.5q0 -71 24.5 -109.5t68.5 -38.5q72 0 124.5 113.5t52.5 266.5q0 142 -95 142zM1547 598h631l-16 -111h-631z" />
    <glyph glyph-name="uni2117" unicode="&#x2117;" horiz-adv-x="1724" 
d="M877 1487q220 0 396 -99t275 -275t99 -396q0 -218 -103.5 -395.5t-279.5 -276t-387 -98.5t-387 98.5t-279.5 276t-103.5 395.5t103.5 395.5t279.5 276t387 98.5zM877 85q128 0 241.5 48t196 131t130.5 201t48 252t-48 252t-130.5 201t-196 131t-241.5 48t-241.5 -48
t-196 -131t-130.5 -201t-48 -252t48 -252t130.5 -201t196 -131t241.5 -48zM897 1059q157 0 229 -51.5t72 -163.5q0 -100 -81.5 -157t-225.5 -57q-25 0 -55 3v-126q0 -30 7 -39.5t34 -13.5l45 -7l-2 -66h-337l2 66l25 5q22 5 29 13.5t7 33.5v436q0 26 -7.5 35t-34.5 14l-19 4
l-2 66h75q48 0 122 2.5t117 2.5zM888 715q57 0 87 33t30 96q0 69 -27 100.5t-84 31.5q-26 0 -62 -4v-254q22 -3 56 -3z" />
    <glyph glyph-name="trademark" unicode="&#x2122;" horiz-adv-x="1851" 
d="M1822 1434l-9 -66l-31 -4q-23 -3 -32 -13.5t-11 -36.5l-25 -449v-13q0 -19 7 -26t29 -11l23 -4l-9 -66h-309l10 66l27 5q19 4 26.5 13.5t9.5 35.5l21 242q8 86 17 169q-46 -116 -100 -229l-147 -302h-159l-50 289q-19 108 -30 239q-24 -138 -39 -197l-50 -211
q-4 -20 -4 -23q0 -21 32 -27l23 -4l-10 -66h-232l10 66l26 5q21 4 28 13t14 36l106 449q3 14 3 21q0 12 -8 17.5t-31 11.5l-17 4l4 66h286l77 -493l227 493h297zM820 1236l-108 -5q2 79 -10 100t-60 21h-38l-66 -477q0 -3 -1.5 -12.5t-1.5 -13.5q0 -16 7.5 -23t28.5 -10
l36 -5l-10 -66h-341l10 66l39 7q23 4 31 15t13 42l66 477h-38q-48 0 -66 -21t-37 -100l-107 5q5 79 35 198h639q0 -100 -21 -198z" />
    <glyph glyph-name="Ohm" unicode="&#x2126;" horiz-adv-x="1611" 
d="M1352 334l135 -9q-11 -151 -61 -325h-638l23 168q102 36 187.5 155.5t134.5 290t49 350.5q0 176 -70.5 267.5t-206.5 91.5q-192 0 -308 -195t-116 -514q0 -181 52 -300t142 -146l-24 -168h-637q-2 169 32 325l134 9q1 -112 35 -148t136 -36h143q-138 69 -222 219.5
t-84 336.5q0 345 201 552.5t537 207.5q264 0 409.5 -138.5t145.5 -391.5q0 -263 -137 -479t-357 -307h146q101 0 144.5 36t74.5 148z" />
    <glyph glyph-name="estimated" unicode="&#x212e;" horiz-adv-x="1576" 
d="M402 653v-327q73 -113 183.5 -173.5t230.5 -60.5q85 0 159 22.5t126.5 61t89.5 82.5t61 94h187q-35 -74 -89.5 -139.5t-130.5 -122t-180 -90t-223 -33.5q-155 0 -287.5 59t-223.5 160.5t-142.5 239t-51.5 291.5q0 213 94 385t255 268t356 96q220 0 381 -97t242 -265
t81 -387q0 -44 -2 -64h-1116zM816 1341q-128 0 -236 -54.5t-178 -161.5v-334h836v321q-70 114 -180 171.5t-242 57.5z" />
    <glyph glyph-name="uni2153" unicode="&#x2153;" horiz-adv-x="1716" 
d="M1541 1536l-1294 -1638h-183l1294 1638h183zM534 582h-469l11 79l61 9q42 6 61.5 19.5t23.5 42.5l77 547q-61 -21 -125 -31l-28 -5l-1 79l261 120h127l-101 -710q-2 -12 -2 -17q0 -21 15 -30t56 -16l45 -7zM1439 450q163 -36 163 -180q0 -134 -98.5 -209t-273.5 -75
q-150 0 -250 53q-2 12 -2 26q0 49 23 76t65 27q28 0 49 -13.5t33 -29t35 -29t54 -13.5q66 0 105 48.5t39 128.5q0 126 -185 126q-28 0 -67 -7l9 107q142 0 209 39.5t67 123.5q0 49 -31 75t-89 26q-84 0 -173 -65l-14 112q109 73 275 73q123 0 189 -47.5t66 -137.5
q0 -92 -51 -152t-147 -83z" />
    <glyph glyph-name="uni2154" unicode="&#x2154;" horiz-adv-x="1826" 
d="M1653 1536l-1295 -1638h-182l1294 1638h183zM615 582h-561l16 108q221 173 309 287.5t88 226.5q0 55 -29.5 85t-82.5 30q-87 0 -176 -77l-15 126q51 39 128.5 61.5t159.5 22.5q117 0 177.5 -53.5t60.5 -156.5q0 -144 -98 -272t-307 -257q83 10 192 10h156zM1551 450
q163 -36 163 -180q0 -134 -98.5 -209t-273.5 -75q-150 0 -250 53q-2 12 -2 26q0 49 23 76t64 27q28 0 49.5 -13.5t33.5 -29t35 -29t54 -13.5q66 0 105 48.5t39 128.5q0 126 -185 126q-28 0 -67 -7l8 107q143 0 210 39.5t67 123.5q0 49 -31 75t-89 26q-84 0 -173 -65l-15 112
q109 73 276 73q123 0 188.5 -47.5t65.5 -137.5q0 -92 -50.5 -152t-146.5 -83z" />
    <glyph glyph-name="uni2155" unicode="&#x2155;" horiz-adv-x="1714" 
d="M1541 1536l-1294 -1638h-183l1294 1638h183zM534 582h-469l11 79l61 9q42 6 61.5 19.5t23.5 42.5l77 547q-61 -21 -125 -31l-28 -5l-1 79l261 120h127l-101 -710q-2 -12 -2 -17q0 -21 15 -30t56 -16l45 -7zM1271 697l-59 -234q69 63 175 63q104 0 162.5 -59t58.5 -164
q0 -154 -96.5 -235.5t-273.5 -81.5q-150 0 -250 53q-2 12 -2 26q0 49 23 76t65 27q28 0 49 -13.5t33 -29t35 -29t54 -13.5q63 0 104 53.5t41 139.5q0 121 -106 121q-62 0 -118 -57l-109 32l114 480h496l-21 -155h-375z" />
    <glyph glyph-name="uni2156" unicode="&#x2156;" horiz-adv-x="1826" 
d="M1653 1536l-1295 -1638h-182l1294 1638h183zM615 582h-561l16 108q221 173 309 287.5t88 226.5q0 55 -29.5 85t-82.5 30q-87 0 -176 -77l-15 126q51 39 128.5 61.5t159.5 22.5q117 0 177.5 -53.5t60.5 -156.5q0 -144 -98 -272t-307 -257q83 10 192 10h156zM1382 697
l-58 -234q69 63 174 63q104 0 163 -59t59 -164q0 -154 -96.5 -235.5t-273.5 -81.5q-150 0 -250 53q-2 12 -2 26q0 49 23 76t65 27q28 0 49 -13.5t33 -29t35 -29t54 -13.5q63 0 104 53.5t41 139.5q0 59 -27 90.5t-79 31.5q-61 0 -118 -58l-109 32l114 480h496l-22 -155h-375z
" />
    <glyph glyph-name="uni2157" unicode="&#x2157;" horiz-adv-x="1855" 
d="M1681 1536l-1295 -1638h-182l1294 1638h183zM678 851q0 -134 -98.5 -209t-273.5 -75q-150 0 -250 53q-2 12 -2 26q0 49 23 76.5t64 27.5q28 0 49.5 -13.5t33.5 -29t35 -29t54 -13.5q66 0 105 48.5t39 128.5q0 125 -185 125q-28 0 -67 -7l8 108q143 0 210 39.5t67 123.5
q0 100 -120 100q-84 0 -173 -65l-15 113q109 73 276 73q123 0 188.5 -47.5t65.5 -137.5q0 -92 -50.5 -152.5t-146.5 -83.5q163 -36 163 -180zM1410 697l-58 -234q69 63 174 63q104 0 163 -59t59 -164q0 -154 -96.5 -235.5t-273.5 -81.5q-150 0 -250 53q-2 12 -2 26
q0 49 23 76t65 27q28 0 49 -13.5t33 -29t35 -29t54 -13.5q63 0 104 53.5t41 139.5q0 59 -27 90.5t-79 31.5q-61 0 -118 -58l-109 32l113 480h497l-22 -155h-375z" />
    <glyph glyph-name="uni2158" unicode="&#x2158;" horiz-adv-x="1892" 
d="M1718 1536l-1294 -1638h-183l1294 1638h183zM426 795h-368l13 88l453 552h190l-73 -520h96l-17 -120h-96l-30 -213h-198zM456 915l46 321l-269 -321h223zM1448 697l-59 -234q69 63 175 63q104 0 162.5 -59t58.5 -164q0 -154 -96.5 -235.5t-273.5 -81.5q-149 0 -249 53
q-3 18 -3 26q0 49 23 76t65 27q28 0 49.5 -13.5t33.5 -29t35 -29t54 -13.5q63 0 103.5 53.5t40.5 139.5q0 59 -27 90.5t-79 31.5q-61 0 -118 -58l-109 32l114 480h496l-21 -155h-375z" />
    <glyph glyph-name="uni2159" unicode="&#x2159;" horiz-adv-x="1757" 
d="M1541 1536l-1294 -1638h-183l1294 1638h183zM534 582h-469l11 79l61 9q42 6 61.5 19.5t23.5 42.5l77 547q-61 -21 -125 -31l-28 -5l-1 79l261 120h127l-101 -710q-2 -12 -2 -17q0 -21 15 -30t56 -16l45 -7zM1523 758q-121 0 -191.5 -84t-98.5 -259q63 125 224 125
q96 0 147 -56.5t51 -161.5q0 -156 -95 -246t-261 -90q-134 0 -199.5 73.5t-65.5 224.5q0 275 126.5 430.5t351.5 155.5q115 0 191 -39l-27 -108q-75 35 -153 35zM1371 415q-61 0 -101.5 -58.5t-40.5 -147.5q0 -55 23.5 -86t66.5 -31q60 0 98 60.5t38 153.5q0 53 -22 81
t-62 28z" />
    <glyph glyph-name="uni215A" unicode="&#x215a;" horiz-adv-x="1894" 
d="M1680 1536l-1295 -1638h-182l1294 1638h183zM684 884q0 -154 -96.5 -235.5t-273.5 -81.5q-150 0 -250 53q-2 12 -2 26q0 49 23.5 76.5t64.5 27.5q28 0 49 -13.5t33 -29t35 -29t54 -13.5q63 0 104 53.5t41 139.5q0 121 -106 121q-62 0 -118 -57l-109 32l114 480h496
l-22 -156h-375l-58 -233q69 63 175 63q104 0 162.5 -59.5t58.5 -164.5zM1662 758q-121 0 -191.5 -84t-98.5 -259q63 125 224 125q96 0 147 -56.5t51 -161.5q0 -156 -95 -246t-261 -90q-134 0 -200 73.5t-66 224.5q0 275 127 430.5t352 155.5q115 0 191 -39l-27 -108
q-75 35 -153 35zM1510 415q-61 0 -101.5 -58.5t-40.5 -147.5q0 -55 23.5 -86t65.5 -31q60 0 98.5 60.5t38.5 153.5q0 53 -22 81t-62 28z" />
    <glyph glyph-name="oneeighth" unicode="&#x215b;" horiz-adv-x="1740" 
d="M1541 1536l-1294 -1638h-183l1294 1638h183zM534 582h-469l11 79l61 9q42 6 61.5 19.5t23.5 42.5l77 547q-61 -21 -125 -31l-28 -5l-1 79l261 120h127l-101 -710q-2 -12 -2 -17q0 -21 15 -30t56 -16l45 -7zM1473 483q74 -44 115 -90.5t41 -116.5q0 -129 -97.5 -209.5
t-255.5 -80.5q-129 0 -196.5 51t-67.5 148q0 88 50.5 152.5t145.5 97.5q-55 36 -85 76.5t-30 99.5q0 123 85.5 191t240.5 68q118 0 180.5 -45t62.5 -132q0 -157 -189 -210zM1411 777q-50 0 -82 -31t-32 -81q0 -41 24.5 -72t70.5 -61q107 56 107 160q0 41 -23 63t-65 22z
M1284 79q64 0 102 37.5t38 101.5q0 55 -33 91.5t-95 73.5q-120 -66 -120 -189q0 -53 29.5 -84t78.5 -31z" />
    <glyph glyph-name="threeeighths" unicode="&#x215c;" horiz-adv-x="1880" 
d="M1681 1536l-1295 -1638h-182l1294 1638h183zM678 851q0 -134 -98.5 -209t-273.5 -75q-150 0 -250 53q-2 12 -2 26q0 49 23 76.5t64 27.5q28 0 49.5 -13.5t33.5 -29t35 -29t54 -13.5q66 0 105 48.5t39 128.5q0 125 -185 125q-28 0 -67 -7l8 108q143 0 210 39.5t67 123.5
q0 100 -120 100q-84 0 -173 -65l-15 113q109 73 276 73q123 0 188.5 -47.5t65.5 -137.5q0 -92 -50.5 -152.5t-146.5 -83.5q163 -36 163 -180zM1613 483q74 -44 115 -90.5t41 -116.5q0 -129 -98 -209.5t-256 -80.5q-129 0 -196.5 51t-67.5 148q0 88 51 152.5t146 97.5
q-55 36 -85.5 76.5t-30.5 99.5q0 123 86 191t241 68q117 0 179.5 -45t62.5 -132q0 -157 -188 -210zM1550 777q-50 0 -81.5 -31t-31.5 -81q0 -41 24.5 -72t70.5 -61q106 56 106 160q0 41 -23 63t-65 22zM1424 79q64 0 101.5 37.5t37.5 101.5q0 55 -33 91.5t-95 73.5
q-119 -66 -119 -189q0 -53 29.5 -84t78.5 -31z" />
    <glyph glyph-name="fiveeighths" unicode="&#x215d;" horiz-adv-x="1878" 
d="M1680 1536l-1295 -1638h-182l1294 1638h183zM684 884q0 -154 -96.5 -235.5t-273.5 -81.5q-150 0 -250 53q-2 12 -2 26q0 49 23.5 76.5t64.5 27.5q28 0 49 -13.5t33 -29t35 -29t54 -13.5q63 0 104 53.5t41 139.5q0 121 -106 121q-62 0 -118 -57l-109 32l114 480h496
l-22 -156h-375l-58 -233q69 63 175 63q104 0 162.5 -59.5t58.5 -164.5zM1612 483q75 -45 115.5 -90.5t40.5 -115.5q0 -129 -98 -210t-256 -81q-129 0 -196 50.5t-67 148.5q0 88 50.5 152.5t145.5 97.5q-55 36 -85 76.5t-30 99.5q0 123 85.5 191t240.5 68q117 0 179.5 -45
t62.5 -132q0 -157 -188 -210zM1549 777q-50 0 -81.5 -31t-31.5 -81q0 -41 24.5 -72t70.5 -61q106 56 106 160q0 41 -23 63t-65 22zM1423 79q64 0 101.5 37.5t37.5 101.5q0 55 -32.5 91.5t-94.5 73.5q-120 -66 -120 -189q0 -53 29.5 -84t78.5 -31z" />
    <glyph glyph-name="seveneighths" unicode="&#x215e;" horiz-adv-x="1777" 
d="M1578 1536l-1294 -1638h-183l1295 1638h182zM241 894q111 187 299 390h-408l22 150h586l-9 -103l-93 -141q-157 -239 -251 -467q-36 -88 -54 -145q-39 -9 -86 -9q-53 0 -77 20t-24 66q0 79 95 239zM1511 483q74 -44 115 -90.5t41 -116.5q0 -129 -98 -209.5t-256 -80.5
q-129 0 -196.5 51t-67.5 148q0 88 51 152.5t146 97.5q-55 36 -85.5 76.5t-30.5 99.5q0 123 86 191t241 68q117 0 179.5 -45t62.5 -132q0 -157 -188 -210zM1448 777q-50 0 -81.5 -31t-31.5 -81q0 -41 24.5 -72t70.5 -61q106 56 106 160q0 41 -23 63t-65 22zM1322 79
q64 0 101.5 37.5t37.5 101.5q0 55 -33 91.5t-95 73.5q-119 -66 -119 -189q0 -53 29.5 -84t78.5 -31z" />
    <glyph glyph-name="onefraction" unicode="&#x215f;" horiz-adv-x="1005" 
d="M1541 1536l-1294 -1638h-183l1294 1638h183zM534 582h-469l11 79l61 9q42 6 61.5 19.5t23.5 42.5l77 547q-61 -21 -125 -31l-28 -5l-1 79l261 120h127l-101 -710q-2 -12 -2 -17q0 -21 15 -30t56 -16l45 -7z" />
    <glyph glyph-name="arrowleft" unicode="&#x2190;" horiz-adv-x="1646" 
d="M1563 449h-944q-119 0 -221 9q65 -64 144 -168l247 -326l-103 -59l-627 627l627 628l103 -59l-247 -326q-79 -104 -144 -168q102 9 221 9h944v-167z" />
    <glyph glyph-name="arrowup" unicode="&#x2191;" horiz-adv-x="1646" 
d="M1465 684l-59 -103l-326 247q-104 79 -168 144q9 -102 9 -221v-944h-167v944q0 119 9 221q-64 -65 -168 -144l-326 -247l-59 103l628 627z" />
    <glyph glyph-name="arrowright" unicode="&#x2192;" horiz-adv-x="1646" 
d="M1616 532l-627 -627l-103 59l247 326q79 104 144 168q-102 -9 -220 -9h-944v167h944q118 0 220 -9q-65 64 -144 168l-247 326l103 59z" />
    <glyph glyph-name="arrowdown" unicode="&#x2193;" horiz-adv-x="1646" 
d="M1465 381l-627 -627l-628 627l59 103l326 -247q104 -79 168 -144q-9 102 -9 220v944h167v-944q0 -118 -9 -220q64 65 168 144l326 247z" />
    <glyph glyph-name="uni2196" unicode="&#x2196;" horiz-adv-x="1646" 
d="M1409 79l-118 -117l-668 667q-77 78 -149 162v-12q0 -85 -17 -208l-56 -406l-114 32v887h887l31 -114l-405 -56q-131 -18 -209 -18h-12q85 -71 162 -149z" />
    <glyph glyph-name="uni2197" unicode="&#x2197;" horiz-adv-x="1646" 
d="M1389 1084v-887l-114 -32l-56 405q-18 130 -18 209v12q-71 -84 -149 -162l-667 -668l-118 118l667 668q78 78 162 149h-12q-77 0 -208 18l-405 56l31 114h887z" />
    <glyph glyph-name="uni2198" unicode="&#x2198;" horiz-adv-x="1646" 
d="M1389 868v-887h-887l-31 114l405 56q131 18 208 18h12q-84 72 -162 149l-667 668l118 117l667 -667q78 -78 149 -162v12q0 78 18 208l56 406z" />
    <glyph glyph-name="uni2199" unicode="&#x2199;" horiz-adv-x="1646" 
d="M591 169q79 0 209 -18l405 -56l-31 -114h-888v887l115 32l56 -406q17 -123 17 -208v-12q72 85 149 162l668 667l118 -117l-668 -668q-77 -77 -162 -149h12z" />
    <glyph glyph-name="partialdiff" unicode="&#x2202;" horiz-adv-x="1144" 
d="M551 1454q259 0 396 -142.5t137 -411.5q0 -257 -84.5 -469t-232.5 -333t-329 -121q-196 0 -303.5 99t-107.5 280q0 250 135.5 409t348.5 159q139 0 214.5 -76.5t83.5 -225.5h3q34 140 34 262q0 195 -93 305t-257 110q-74 0 -148 -20l5 147q79 28 198 28zM445 136
q108 0 183 112t75 273q0 232 -156 232q-108 0 -178.5 -115.5t-70.5 -288.5q0 -104 38 -158.5t109 -54.5z" />
    <glyph glyph-name="increment" unicode="&#x2206;" horiz-adv-x="1435" 
d="M1302 0h-1332l778 1438h181zM738 1066l-496 -923h735z" />
    <glyph glyph-name="product" unicode="&#x220f;" horiz-adv-x="1523" 
d="M1542 1330l-76 -11q-45 -7 -63.5 -29t-25.5 -73l-191 -1359q-3 -21 -3 -36q0 -31 17.5 -44t69.5 -23l51 -10l-16 -103h-564l16 103l65 13q43 9 60.5 29.5t24.5 70.5l202 1433h-510l-200 -1433q-3 -21 -3 -36q0 -31 17 -44t66 -23l51 -10l-16 -103h-564l16 103l65 13
q46 9 64 29.5t25 70.5l191 1359q3 21 3 36q0 31 -18 44.5t-69 24.5l-38 8l8 104h1361z" />
    <glyph glyph-name="summation" unicode="&#x2211;" horiz-adv-x="1263" 
d="M1222 1050l-168 -10q2 48 2 66q0 120 -29.5 157t-122.5 37h-430l296 -742l-543 -738h470q54 0 86 9t58 39t42.5 77.5t36.5 133.5l167 -9q-27 -248 -77 -428h-1076l9 107l545 741l-324 836l22 108h1076q-1 -179 -40 -384z" />
    <glyph glyph-name="minus" unicode="&#x2212;" 
d="M1013 486h-907l22 157h907z" />
    <glyph glyph-name="radical" unicode="&#x221a;" horiz-adv-x="1228" 
d="M1336 1495l-720 -1499h-235l-144 831q-10 62 -30.5 86.5t-67.5 32.5l-51 8l8 102h379l120 -749l550 1188h191z" />
    <glyph glyph-name="infinity" unicode="&#x221e;" horiz-adv-x="1906" 
d="M1520 977q144 0 228.5 -73t84.5 -197q0 -175 -140 -293.5t-347 -118.5q-123 0 -207 39.5t-236 172.5q-167 -116 -284 -164t-228 -48q-143 0 -227.5 73t-84.5 197q0 175 139.5 293.5t346.5 118.5q123 0 207 -40t237 -173q168 117 284 165t227 48zM1412 490
q87 0 143.5 55.5t56.5 140.5q0 65 -42 103.5t-115 38.5q-58 0 -132 -36t-202 -126q118 -104 178.5 -140t112.5 -36zM300 586q0 -65 42 -103.5t114 -38.5q58 0 133 36t202 126q-118 104 -178.5 140t-112.5 36q-87 0 -143.5 -55.5t-56.5 -140.5z" />
    <glyph glyph-name="integral" unicode="&#x222b;" horiz-adv-x="778" 
d="M243 676q0 409 95 595.5t304 186.5q108 0 203 -51q4 -17 4 -41q0 -55 -26 -85.5t-73 -30.5q-31 0 -52 14t-29.5 30.5t-21.5 30.5t-30 14q-52 0 -83.5 -160.5t-31.5 -422.5q0 -58 6.5 -178t6.5 -178q0 -409 -95 -596t-304 -187q-107 0 -202 51q-4 17 -4 42q0 55 25.5 85
t72.5 30q31 0 52 -14t29.5 -30.5t22 -30.5t30.5 -14q52 0 83.5 160.5t31.5 422.5q0 57 -7 178t-7 179z" />
    <glyph glyph-name="approxequal" unicode="&#x2248;" horiz-adv-x="1181" 
d="M839 776q67 0 118.5 23.5t106.5 79.5l25 -121q-127 -139 -281 -139q-71 0 -134.5 13t-102 28.5t-90 28.5t-101.5 13q-67 0 -118.5 -23.5t-106.5 -78.5l-25 120q128 140 281 140q90 0 164.5 -21t138 -42t125.5 -21zM794 458q67 0 118.5 23.5t106.5 78.5l25 -120
q-128 -140 -281 -140q-71 0 -134.5 13t-102 28.5t-90 28.5t-101.5 13q-67 0 -119.5 -23.5t-106.5 -78.5l-25 120q128 140 282 140q71 0 134.5 -13t102 -28.5t90 -28.5t101.5 -13z" />
    <glyph glyph-name="notequal" unicode="&#x2260;" horiz-adv-x="1150" 
d="M685 658l-83 -168h432l-22 -155h-486l-125 -256l-116 60l95 196h-320l22 155h374l83 168h-434l22 154h488l125 255l116 -60l-95 -195h318l-22 -154h-372z" />
    <glyph glyph-name="lessequal" unicode="&#x2264;" horiz-adv-x="962" 
d="M894 959l-546 -235l479 -235l-25 -183l-691 360l18 125l792 360zM45 195h741l-22 -155h-741z" />
    <glyph glyph-name="greaterequal" unicode="&#x2265;" horiz-adv-x="962" 
d="M886 791l-17 -125l-793 -360l27 191l546 236l-479 235l25 183zM61 195h741l-22 -155h-741z" />
    <glyph glyph-name="filledbox" unicode="&#x25a0;" horiz-adv-x="1843" 
d="M1653 0h-1434v1434h1434v-1434z" />
    <glyph glyph-name="whiteSquare" unicode="&#x25a1;" horiz-adv-x="1843" 
d="M1653 0h-1434v1434h1434v-1434zM1474 179v1075h-1076v-1075h1076z" />
    <glyph glyph-name="triagup" unicode="&#x25b2;" horiz-adv-x="1372" 
d="M1243 236h-1085l542 1095z" />
    <glyph glyph-name="whiteuppointingtriangle" unicode="&#x25b3;" horiz-adv-x="1372" 
d="M1243 236h-1085l542 1095zM700 967l-271 -566h542z" />
    <glyph glyph-name="blackuppointingsmalltriangle" unicode="&#x25b4;" horiz-adv-x="958" 
d="M901 369h-815l408 821z" />
    <glyph glyph-name="whiteuppointingsmalltriangle" unicode="&#x25b5;" horiz-adv-x="958" 
d="M901 369h-815l408 821zM660 514l-166 349l-167 -349h333z" />
    <glyph glyph-name="blackrightpointingtriangle" unicode="&#x25b6;" horiz-adv-x="1372" 
d="M219 174v1086l1096 -543z" />
    <glyph glyph-name="whiterightpointingtriangle" unicode="&#x25b7;" horiz-adv-x="1372" 
d="M219 174v1086l1096 -543zM951 717l-567 271v-542z" />
    <glyph glyph-name="uni25B8" unicode="&#x25b8;" horiz-adv-x="958" 
d="M117 309v815l821 -407z" />
    <glyph glyph-name="whiterightpointingsmalltriangle" unicode="&#x25b9;" horiz-adv-x="958" 
d="M117 309v815l821 -407zM262 550l349 167l-349 167v-334z" />
    <glyph glyph-name="triagdn" unicode="&#x25bc;" horiz-adv-x="1372" 
d="M158 1208h1085l-543 -1095z" />
    <glyph glyph-name="whitedownpointingtriangle" unicode="&#x25bd;" horiz-adv-x="1372" 
d="M158 1208h1085l-543 -1095zM700 476l271 567h-542z" />
    <glyph glyph-name="uni25BE" unicode="&#x25be;" horiz-adv-x="958" 
d="M86 1075h815l-407 -821z" />
    <glyph glyph-name="whitedownpointingsmalltriangle" unicode="&#x25bf;" horiz-adv-x="958" 
d="M86 1075h815l-407 -821zM327 930l167 -349l166 349h-333z" />
    <glyph glyph-name="blackleftpointingtriangle" unicode="&#x25c0;" horiz-adv-x="1372" 
d="M1182 1260v-1086l-1096 543z" />
    <glyph glyph-name="whiteleftpointingtriangle" unicode="&#x25c1;" horiz-adv-x="1372" 
d="M1182 1260v-1086l-1096 543zM450 717l567 -271v542z" />
    <glyph glyph-name="uni25C2" unicode="&#x25c2;" horiz-adv-x="958" 
d="M870 1124v-815l-821 408z" />
    <glyph glyph-name="whiteleftpointingsmalltriangle" unicode="&#x25c3;" horiz-adv-x="958" 
d="M870 1124v-815l-821 408zM725 884l-349 -167l349 -167v334z" />
    <glyph glyph-name="blackDiamond" unicode="&#x25c6;" horiz-adv-x="1114" 
d="M1077 717l-506 -506l-505 506l505 506z" />
    <glyph glyph-name="whiteDiamond" unicode="&#x25c7;" horiz-adv-x="1114" 
d="M1077 717l-506 -506l-505 506l505 506zM853 717l-282 281l-281 -281l281 -282z" />
    <glyph glyph-name="whitediamondcontainingblacksmalldiamond" unicode="&#x25c8;" horiz-adv-x="1114" 
d="M1077 717l-506 -506l-505 506l505 506zM869 717l-298 298l-298 -298l298 -298zM571 839l123 -122l-123 -123l-122 123z" />
    <glyph glyph-name="lozenge" unicode="&#x25ca;" horiz-adv-x="1177" 
d="M1142 717l-566 -721h-170l-341 721l566 721h170zM903 719l-225 476l-374 -480l225 -476z" />
    <glyph glyph-name="whitecircle" unicode="&#x25cb;" horiz-adv-x="1843" 
d="M117 717q0 167 65 318.5t174.5 261t261 174.5t318.5 65t318.5 -65t261 -174.5t174.5 -261t65 -318.5t-65 -318.5t-174.5 -261t-261 -174.5t-318.5 -65t-318.5 65t-261 174.5t-174.5 261t-65 318.5zM305 717q0 -128 50 -245t134.5 -201.5t201.5 -134.5t245 -50t245 50
t201.5 134.5t134.5 201.5t50 245q0 171 -84.5 316t-230 229.5t-316.5 84.5t-316.5 -84.5t-230 -229.5t-84.5 -316z" />
    <glyph glyph-name="blackcircle" unicode="&#x25cf;" horiz-adv-x="1843" 
d="M117 717q0 167 65 318.5t174.5 261t261 174.5t318.5 65t318.5 -65t261 -174.5t174.5 -261t65 -318.5t-65 -318.5t-174.5 -261t-261 -174.5t-318.5 -65t-318.5 65t-261 174.5t-174.5 261t-65 318.5z" />
    <glyph glyph-name="uni25FB" unicode="&#x25fb;" horiz-adv-x="1314" 
d="M1145 244h-946v946h946v-946zM976 412v609h-609v-609h609z" />
    <glyph glyph-name="uni25FC" unicode="&#x25fc;" horiz-adv-x="1314" 
d="M1145 244h-946v946h946v-946z" />
    <glyph glyph-name="uni25FD" unicode="&#x25fd;" horiz-adv-x="958" 
d="M852 358h-717v717h717v-717zM692 518v398h-397v-398h397z" />
    <glyph glyph-name="uni25FE" unicode="&#x25fe;" horiz-adv-x="958" 
d="M852 358h-717v717h717v-717z" />
    <glyph glyph-name="threequartersemdash" unicode="&#xf6de;" horiz-adv-x="1783" 
d="M1664 648l-24 -166h-1536l24 166h1536z" />
    <glyph glyph-name="J.titl" horiz-adv-x="1060" 
d="M1101 1330l-75 -11q-45 -7 -63.5 -29t-25.5 -73l-104 -757q-37 -277 -151.5 -385t-370.5 -108q-161 0 -245 66.5t-84 194.5q0 75 33 147q46 40 114 40q51 0 78.5 -23.5t27.5 -65.5q0 -19 -10 -58t-10 -65q0 -53 32 -81.5t92 -28.5q90 0 133.5 57t63.5 202l118 842
q4 25 4 47q0 35 -18 49.5t-67 22.5l-84 14l7 107h621z" />
    <glyph glyph-name="IJ.titl" horiz-adv-x="1802" 
d="M758 1330l-76 -11q-45 -7 -63.5 -29t-25.5 -73l-140 -1001q-4 -28 -4 -35q0 -31 17.5 -44t69.5 -23l51 -10l-16 -104h-567l16 104l64 13q46 9 64.5 29t25.5 70l140 1001q4 28 4 36q0 31 -18 44.5t-69 24.5l-38 8l7 104h574zM1842 1330l-76 -11q-45 -7 -63.5 -29
t-25.5 -73l-103 -757q-37 -277 -152 -385t-371 -108q-161 0 -245 66.5t-84 194.5q0 75 33 147q46 40 114 40q51 0 79 -23.5t28 -65.5q0 -19 -10.5 -58t-10.5 -65q0 -53 32 -81.5t92 -28.5q90 0 134 57t64 202l117 842q4 25 4 47q0 35 -17.5 49.5t-66.5 22.5l-85 14l8 107
h621z" />
    <glyph glyph-name="Jcircumflex.titl" horiz-adv-x="1060" 
d="M845 1693l-255 -142q-41 46 -59 112l340 236l274 -240q-28 -62 -78 -108zM496 1434h621l-16 -104l-75 -11q-45 -7 -63.5 -29t-25.5 -73l-104 -757q-37 -277 -151.5 -385t-370.5 -108q-161 0 -245 66.5t-84 194.5q0 75 33 147q46 40 114 40q51 0 78.5 -23.5t27.5 -65.5
q0 -19 -10 -58t-10 -65q0 -53 32 -81.5t92 -28.5q90 0 133.5 57t63.5 202l118 842q4 25 4 47q0 35 -18 49.5t-67 22.5l-84 14z" />
    </font>
</defs>
</svg>
