<?xml version="1.0" standalone="no"?>
<!DOCTYPE svg PUBLIC "-//W3C//DTD SVG 1.1//EN" "http://www.w3.org/Graphics/SVG/1.1/DTD/svg11.dtd" >
<svg xmlns="http://www.w3.org/2000/svg" xmlns:xlink="http://www.w3.org/1999/xlink" version="1.1">
<metadata>
Created by FontForge 20170731 at Thu Oct  8 12:50:53 2020
 By Aleksey,,,
Copyright (c) Stefan Willerstorfer 2009-2014. All rights reserved.
</metadata>
<defs>
<font id="Sindelar-Semibold" horiz-adv-x="1024" >
  <font-face 
    font-family="Sindelar Semibold"
    font-weight="600"
    font-stretch="normal"
    units-per-em="2048"
    panose-1="2 4 7 3 4 4 6 2 2 4"
    ascent="1556"
    descent="-492"
    x-height="1056"
    cap-height="1434"
    bbox="-400 -719 2663 1942"
    underline-thickness="161"
    underline-position="-431"
    unicode-range="U+0020-FB04"
  />
<missing-glyph horiz-adv-x="1189" 
d="M1016 1434v-1434h-842v1434h842zM854 1331h-518l259 -524zM276 162l275 555l-275 555v-1110zM913 1272l-274 -555l274 -555v1110zM336 102h518l-259 525z" />
    <glyph glyph-name="f_f" unicode="ff" horiz-adv-x="1466" 
d="M1556 1482q12 -28 12 -64q0 -53 -29.5 -84t-80.5 -31q-38 0 -70.5 13.5t-52.5 29t-48.5 29t-58.5 13.5q-43 0 -61 -33t-18 -114v-185h279v-142h-20h-255v-694q0 -56 16.5 -73t80.5 -27l84 -13l-4 -107h-576l5 104l45 11q41 10 53.5 27.5t12.5 67.5v704h-124h-261v-704
q0 -56 14.5 -73t71.5 -25l51 -8l-4 -104h-535l4 104l49 11q41 9 53.5 26.5t12.5 68.5v704h-124l-4 118l131 21v35q0 207 114 308t332 101q166 0 320 -64q109 85 301 85q156 0 284 -36zM873 1056v52q0 101 8 154q-40 8 -85 35.5t-90.5 49t-97.5 21.5q-65 0 -96 -39.5
t-31 -141.5v-131h392z" />
    <glyph glyph-name="fi" unicode="fi" horiz-adv-x="1337" 
d="M1294 104l-4 -104h-536l5 104l45 11q41 10 53.5 27.5t12.5 67.5v607q0 54 -21.5 75.5t-75.5 21.5h-18h-270v-704q0 -56 14.5 -73t71.5 -25l51 -8l-4 -104h-535l4 104l49 11q41 9 53.5 26.5t12.5 68.5v704h-124l-4 118l131 21v55q0 207 114.5 308.5t331.5 101.5
q127 0 249.5 -23.5t179.5 -63.5q12 -28 12 -65q0 -56 -31 -87t-92 -31q-53 0 -101.5 22t-79.5 48t-79 48t-101 22q-65 0 -96 -39t-31 -141v-152h493l179 19v-865q0 -56 15 -72.5t75 -25.5z" />
    <glyph glyph-name="fl" unicode="fl" horiz-adv-x="1347" 
d="M1304 104l-4 -104h-535l4 104l45 11q41 10 53.5 27.5t12.5 67.5v1076q-34 11 -80 38.5t-91.5 45.5t-100.5 18q-65 0 -96 -39t-31 -141v-152h255v-142h-251v-704q0 -56 15 -72.5t75 -25.5l51 -8l-4 -104h-539l4 104l49 11q41 9 53.5 26.5t12.5 68.5v704h-124l-4 118
l131 21v55q0 207 114.5 308.5t331.5 101.5q191 0 348 -45l164 24v-1287q0 -56 15 -72.5t75 -25.5z" />
    <glyph glyph-name="f_f_i" unicode="ffi" horiz-adv-x="2004" 
d="M1962 104l-4 -104h-535l4 104l45 11q41 10 53.5 27.5t12.5 67.5v607q0 54 -21.5 75.5t-75.5 21.5h-288v-704q0 -56 14.5 -73t71.5 -25l51 -8l-4 -104h-532l5 104l45 11q41 10 53.5 27.5t12.5 67.5v704h-124h-261v-704q0 -56 14.5 -73t71.5 -25l51 -8l-4 -104h-535l4 104
l49 11q41 9 53.5 26.5t12.5 68.5v704h-124l-4 118l131 21v35q0 207 114 308t332 101q166 0 320 -64q114 85 349 85q127 0 249 -23.5t179 -63.5q12 -28 12 -65q0 -56 -31 -87t-92 -31q-53 0 -101.5 22t-79.5 48t-79 48t-101 22q-65 0 -96 -39t-31 -141v-152h493l179 19v-865
q0 -56 15 -72.5t75 -25.5zM873 1056v52q0 101 8 154q-40 8 -85 35.5t-90.5 49t-97.5 21.5q-65 0 -96 -39.5t-31 -141.5v-131h392z" />
    <glyph glyph-name="f_f_l" unicode="ffl" horiz-adv-x="2015" 
d="M1972 104l-4 -104h-535l4 104l45 11q41 10 53.5 27.5t12.5 67.5v1076q-34 11 -80 38.5t-91.5 45.5t-100.5 18q-65 0 -96 -39t-31 -141v-152h255v-142h-251v-704q0 -56 15 -72.5t75 -25.5l51 -8l-4 -104h-536l5 104l45 11q41 10 53.5 27.5t12.5 67.5v704h-124h-261v-704
q0 -56 14.5 -73t71.5 -25l51 -8l-4 -104h-535l4 104l49 11q41 9 53.5 26.5t12.5 68.5v704h-124l-4 118l131 21v35q0 207 114 308t332 101q166 0 320 -64q114 85 349 85q190 0 347 -45l164 24v-1287q0 -56 15 -72.5t75 -25.5zM873 1056v52q0 101 8 154q-40 8 -85 35.5
t-90.5 49t-97.5 21.5q-65 0 -96 -39.5t-31 -141.5v-131h392z" />
    <glyph glyph-name="f_b.liga" unicode="fb" horiz-adv-x="1947" 
d="M1448 1081q200 0 308 -143t108 -408q0 -251 -130.5 -403t-346.5 -152q-166 0 -264 92l-151 -92l-102 28v1287q-30 11 -75.5 38t-89.5 43.5t-97 16.5q-65 0 -96 -39t-31 -141v-152h245v-142h-241v-694q0 -56 16.5 -73t80.5 -27l84 -13l-4 -107h-579l4 104l49 11
q41 9 53.5 26.5t12.5 68.5v704h-124l-4 118l131 21v55q0 207 114.5 308.5t331.5 101.5q193 0 345 -44l157 23v-364q0 -111 -5 -218q50 80 127 123t173 43zM1320 130q120 0 183 100.5t63 292.5q0 186 -56 283.5t-163 97.5q-125 0 -194 -129v-562q70 -83 167 -83z" />
    <glyph glyph-name="f_h.liga" unicode="fh" horiz-adv-x="1976" 
d="M1951 104l-4 -104h-528l4 104l45 11q36 9 47 24.5t11 58.5v511q0 195 -158 195q-133 0 -205 -130v-576q0 -48 13 -62t67 -23l49 -9l-4 -104h-523l4 104l45 11q41 10 53.5 27.5t12.5 67.5v1076q-34 11 -80 38.5t-91.5 45.5t-100.5 18q-65 0 -96 -39t-31 -141v-152h255
v-142h-251v-704q0 -56 15 -72.5t75 -25.5l51 -8l-4 -104h-539l4 104l49 11q41 9 53.5 26.5t12.5 68.5v704h-124l-4 118l131 21v55q0 207 114.5 308.5t331.5 101.5q191 0 348 -45l164 24v-364q0 -113 -5 -220q51 80 132.5 124t181.5 44q166 0 251.5 -88t85.5 -258v-525
q0 -56 15 -72.5t75 -25.5z" />
    <glyph glyph-name="f_j.liga" unicode="fj" horiz-adv-x="1296" 
d="M1153 1075v-752q0 -232 -35.5 -378t-117.5 -234q-117 -125 -340 -162q-42 39 -42 103q0 73 70 98q21 8 65.5 13t65.5 18q31 20 39.5 91t8.5 308v637q0 54 -21.5 75.5t-75.5 21.5h-15h-270v-697q0 -56 15 -73t75 -26l78 -11l-4 -107h-566l4 104l49 11q41 9 53.5 26.5
t12.5 68.5v704h-124l-4 118l131 21v55q0 207 114.5 308.5t331.5 101.5q127 0 249.5 -23.5t179.5 -63.5q12 -28 12 -65q0 -56 -31 -87t-92 -31q-53 0 -101.5 22t-79.5 48t-79 48t-101 22q-65 0 -96 -39t-31 -141v-152h493z" />
    <glyph glyph-name="f_k.liga" unicode="fk" horiz-adv-x="1882" 
d="M1163 1497v-1299q0 -49 13.5 -63.5t66.5 -23.5l40 -7l-4 -104h-514l4 104l45 11q41 10 53.5 27.5t12.5 67.5v1076q-34 11 -80 38.5t-91.5 45.5t-100.5 18q-65 0 -96 -39t-31 -141v-152h255v-142h-251v-704q0 -56 15 -72.5t75 -25.5l51 -8l-4 -104h-539l4 104l49 11
q41 9 53.5 26.5t12.5 68.5v704h-124l-4 118l131 21v55q0 207 114.5 308.5t331.5 101.5q191 0 348 -45zM1522 518l166 -251q56 -85 98 -123t89 -48l-4 -86q-70 -24 -157 -24q-103 0 -160.5 38t-133.5 158l-131 203q-73 115 -123 177l233 253q55 59 55 91q0 30 -55 39l-37 7
l-4 104h460l-4 -104l-27 -6q-57 -12 -90.5 -33t-86.5 -77l-180 -191q36 -43 92 -127z" />
    <glyph glyph-name="f_f_b.liga" unicode="ffb" horiz-adv-x="2615" 
d="M2116 1081q200 0 308 -143t108 -408q0 -251 -130.5 -403t-346.5 -152q-166 0 -264 92l-151 -92l-102 28v1287q-30 11 -75.5 38t-89.5 43.5t-97 16.5q-65 0 -96 -39t-31 -141v-152h245v-142h-21h-220v-694q0 -56 16.5 -73t80.5 -27l84 -13l-4 -107h-576l5 104l45 11
q41 10 53.5 27.5t12.5 67.5v704h-124h-261v-704q0 -56 14.5 -73t71.5 -25l51 -8l-4 -104h-535l4 104l49 11q41 9 53.5 26.5t12.5 68.5v704h-124l-4 118l131 21v35q0 207 114 308t332 101q166 0 320 -64q114 85 349 85q192 0 344 -44l157 23v-364q0 -111 -5 -218
q50 80 127 123t173 43zM873 1056v52q0 101 8 154q-40 8 -85 35.5t-90.5 49t-97.5 21.5q-65 0 -96 -39.5t-31 -141.5v-131h392zM1988 130q120 0 183 100.5t63 292.5q0 186 -56 283.5t-163 97.5q-125 0 -194 -129v-562q70 -83 167 -83z" />
    <glyph glyph-name="f_f_h.liga" unicode="ffh" horiz-adv-x="2643" 
d="M2619 104l-4 -104h-528l4 104l45 11q36 9 47 24.5t11 58.5v511q0 195 -158 195q-133 0 -205 -130v-576q0 -48 13 -62t67 -23l49 -9l-4 -104h-523l4 104l45 11q41 10 53.5 27.5t12.5 67.5v1076q-34 11 -80 38.5t-91.5 45.5t-100.5 18q-65 0 -96 -39t-31 -141v-152h255
v-142h-251v-704q0 -56 15 -72.5t75 -25.5l51 -8l-4 -104h-536l5 104l45 11q41 10 53.5 27.5t12.5 67.5v704h-124h-261v-704q0 -56 14.5 -73t71.5 -25l51 -8l-4 -104h-535l4 104l49 11q41 9 53.5 26.5t12.5 68.5v704h-124l-4 118l131 21v35q0 207 114 308t332 101
q166 0 320 -64q114 85 349 85q190 0 347 -45l164 24v-364q0 -113 -5 -220q51 80 132.5 124t181.5 44q166 0 251.5 -88t85.5 -258v-525q0 -56 15 -72.5t75 -25.5zM873 1056v52q0 101 8 154q-40 8 -85 35.5t-90.5 49t-97.5 21.5q-65 0 -96 -39.5t-31 -141.5v-131h392z" />
    <glyph glyph-name="f_f_j.liga" unicode="ffj" horiz-adv-x="1964" 
d="M1821 1075v-752q0 -232 -35.5 -378t-117.5 -234q-117 -125 -340 -162q-42 39 -42 103q0 73 70 98q21 8 65.5 13t65.5 18q31 20 39.5 91t8.5 308v637q0 54 -21.5 75.5t-75.5 21.5h-285v-697q0 -56 15 -73t75 -26l78 -11l-4 -107h-563l5 104l45 11q41 10 53.5 27.5
t12.5 67.5v704h-124h-261v-704q0 -56 14.5 -73t71.5 -25l51 -8l-4 -104h-535l4 104l49 11q41 9 53.5 26.5t12.5 68.5v704h-124l-4 118l131 21v35q0 207 114 308t332 101q166 0 320 -64q114 85 349 85q127 0 249 -23.5t179 -63.5q12 -28 12 -65q0 -56 -31 -87t-92 -31
q-53 0 -101.5 22t-79.5 48t-79 48t-101 22q-65 0 -96 -39t-31 -141v-152h493zM873 1056v52q0 101 8 154q-40 8 -85 35.5t-90.5 49t-97.5 21.5q-65 0 -96 -39.5t-31 -141.5v-131h392z" />
    <glyph glyph-name="f_f_k.liga" unicode="ffk" horiz-adv-x="2549" 
d="M1831 1497v-1299q0 -49 13.5 -63.5t66.5 -23.5l40 -7l-4 -104h-514l4 104l45 11q41 10 53.5 27.5t12.5 67.5v1076q-34 11 -80 38.5t-91.5 45.5t-100.5 18q-65 0 -96 -39t-31 -141v-152h255v-142h-251v-704q0 -56 15 -72.5t75 -25.5l51 -8l-4 -104h-536l5 104l45 11
q41 10 53.5 27.5t12.5 67.5v704h-124h-261v-704q0 -56 14.5 -73t71.5 -25l51 -8l-4 -104h-535l4 104l49 11q41 9 53.5 26.5t12.5 68.5v704h-124l-4 118l131 21v35q0 207 114 308t332 101q166 0 320 -64q114 85 349 85q190 0 347 -45zM873 1056v52q0 101 8 154
q-40 8 -85 35.5t-90.5 49t-97.5 21.5q-65 0 -96 -39.5t-31 -141.5v-131h392zM2190 518l166 -251q56 -85 98 -123t89 -48l-4 -86q-70 -24 -157 -24q-103 0 -160.5 38t-133.5 158l-131 203q-69 109 -123 177l233 253q55 59 55 91q0 30 -55 39l-37 7l-4 104h460l-4 -104l-27 -6
q-57 -12 -90.5 -33t-86.5 -77l-180 -191q36 -43 92 -127z" />
    <glyph glyph-name=".notdef" horiz-adv-x="1189" 
d="M1016 1434v-1434h-842v1434h842zM854 1331h-518l259 -524zM276 162l275 555l-275 555v-1110zM913 1272l-274 -555l274 -555v1110zM336 102h518l-259 525z" />
    <glyph glyph-name=".null" horiz-adv-x="0" 
 />
    <glyph glyph-name="nonmarkingreturn" horiz-adv-x="682" 
 />
    <glyph glyph-name="space" unicode=" " horiz-adv-x="466" 
 />
    <glyph glyph-name="exclam" unicode="!" horiz-adv-x="555" 
d="M182 477l-65 996l322 11l-66 -1007h-191zM106 144q0 74 48.5 122.5t122.5 48.5t123 -48.5t49 -122.5t-49 -122.5t-123 -48.5t-122.5 48.5t-48.5 122.5z" />
    <glyph glyph-name="quotedbl" unicode="&#x22;" horiz-adv-x="802" 
d="M111 1516h220q0 -184 -20 -512h-180q-20 328 -20 512zM472 1516h219q0 -184 -20 -512h-179q-20 328 -20 512z" />
    <glyph glyph-name="numbersign" unicode="#" horiz-adv-x="1312" 
d="M1022 876l-56 -318h196v-148h-222l-72 -410h-188l72 410h-299l-72 -410h-188l72 410h-200v148h226l56 318h-196v148h222l72 410h188l-73 -410h300l72 410h188l-72 -410h200v-148h-226zM834 876h-299l-56 -318h299z" />
    <glyph glyph-name="dollar" unicode="$" horiz-adv-x="1120" 
d="M1051 391q0 -168 -109 -278.5t-299 -137.5v-200h-141v193q-115 3 -226 34.5t-189 82.5q-12 100 -12 180q0 47 5 139l159 6q17 -150 88 -229t189 -79q110 0 179.5 64t69.5 164q0 56 -22.5 101t-60.5 76.5t-87.5 58.5t-104 51.5t-108.5 51t-103.5 62t-87.5 79t-60.5 107.5
t-22.5 142q0 161 106 268.5t288 132.5v199h141v-193q95 -3 205.5 -28.5t153.5 -25.5v-338l-153 -6q-26 139 -85.5 201.5t-165.5 62.5q-95 0 -153 -58t-58 -152q0 -53 22.5 -96t61 -73t88.5 -56t105 -50.5t110 -51.5t105 -63.5t88.5 -81.5t61 -111.5t22.5 -147.5z" />
    <glyph glyph-name="percent" unicode="%" horiz-adv-x="1878" 
d="M495 -102h-175l1063 1638h175zM61 1070q0 183 99.5 281.5t262.5 98.5q362 0 362 -380q0 -180 -98.5 -281t-263.5 -101q-176 0 -269 99.5t-93 282.5zM277 1070q0 -126 38.5 -193t107.5 -67t107 67t38 193q0 258 -145 258q-146 0 -146 -258zM1092 365q0 183 100 282t262 99
q363 0 363 -381q0 -180 -99 -280.5t-264 -100.5q-176 0 -269 99t-93 282zM1309 365q0 -126 38 -192.5t107 -66.5t107.5 66.5t38.5 192.5q0 259 -146 259q-145 0 -145 -259z" />
    <glyph glyph-name="ampersand" unicode="&#x26;" horiz-adv-x="1609" 
d="M1271 282q121 -92 196.5 -132t143.5 -49l-6 -93q-67 -20 -162 -20q-148 0 -338 117q-187 -138 -433 -138q-274 0 -426 114t-152 321q0 139 77.5 243t223.5 163q-99 152 -99 306q0 160 100.5 256t268.5 96q159 0 245 -74t86 -211q0 -120 -75 -216.5t-217 -158.5
q161 -205 423 -413q19 60 19 132q0 32 -7.5 83t-7.5 75q0 69 35.5 105t103.5 36q63 0 107 -27q11 -46 11 -103q0 -230 -117 -412zM667 1326q-58 0 -91 -49t-33 -132q0 -124 88 -247q77 41 112.5 106t35.5 164q0 76 -29.5 117t-82.5 41zM376 454q0 -162 89.5 -250t254.5 -88
q143 0 251 80q-152 112 -285.5 246t-209.5 252q-100 -84 -100 -240z" />
    <glyph glyph-name="quotesingle" unicode="'" horiz-adv-x="442" 
d="M111 1516h220q0 -184 -20 -512h-180q-20 328 -20 512z" />
    <glyph glyph-name="parenleft" unicode="(" horiz-adv-x="622" 
d="M588 -410h-150q-185 238 -268.5 466.5t-83.5 510.5q0 269 85 505t267 472h150q-257 -469 -257 -977q0 -243 66 -496t191 -481z" />
    <glyph glyph-name="parenright" unicode=")" horiz-adv-x="622" 
d="M35 1544h150q185 -239 269 -467.5t84 -509.5q0 -269 -85.5 -505t-267.5 -472h-150q257 469 257 977q0 243 -66 496t-191 481z" />
    <glyph glyph-name="asterisk" unicode="*" horiz-adv-x="991" 
d="M586 1072q137 -123 229 -250q-68 -66 -153 -111q-101 140 -167 292q-66 -152 -167 -292q-83 43 -152 111q94 130 228 250q-176 19 -332 69q18 96 59 175q153 -50 304 -137q-37 170 -37 335q45 8 97 8t97 -8q0 -170 -36 -335q152 88 303 137q41 -79 59 -175
q-156 -50 -332 -69z" />
    <glyph glyph-name="plus" unicode="+" horiz-adv-x="1110" 
d="M1045 483h-399v-424h-181v424h-400v162h400v424h181v-424h399v-162z" />
    <glyph glyph-name="comma" unicode="," horiz-adv-x="524" 
d="M259 315q83 0 127 -54.5t44 -156.5q0 -150 -92 -273.5t-219 -145.5q-41 23 -52 74q138 66 151 218q-58 13 -94 58.5t-36 108.5q0 74 48.5 122.5t122.5 48.5z" />
    <glyph glyph-name="hyphen" unicode="-" horiz-adv-x="796" 
d="M673 472h-549v185h549v-185z" />
    <glyph glyph-name="period" unicode="." horiz-adv-x="518" 
d="M88 144q0 74 48.5 122.5t122.5 48.5t122.5 -48.5t48.5 -122.5t-48.5 -122.5t-122.5 -48.5t-122.5 48.5t-48.5 122.5z" />
    <glyph glyph-name="slash" unicode="/" horiz-adv-x="782" 
d="M257 -377h-199l468 1856h199z" />
    <glyph glyph-name="zero" unicode="0" horiz-adv-x="1210" 
d="M89 538q0 135 39.5 243t110 177.5t164 106t203.5 36.5q254 0 385 -143t131 -420q0 -262 -143 -412.5t-373 -150.5q-246 0 -381.5 148t-135.5 415zM373 538q0 -189 63 -294t170 -105t170 105t63 294q0 199 -60 299t-173 100t-173 -100t-60 -299z" />
    <glyph glyph-name="one" unicode="1" horiz-adv-x="847" 
d="M807 107l-4 -107h-698l5 107l106 16q58 9 78.5 29t20.5 68v632q-76 -34 -176 -54l-47 -9l-19 111l355 189h170v-869q0 -53 23 -70.5t102 -29.5z" />
    <glyph glyph-name="two" unicode="2" horiz-adv-x="1048" 
d="M966 192v-192h-879v153q535 322 535 587q0 92 -50.5 140.5t-147.5 48.5q-145 0 -287 -115l-46 159q157 128 417 128q199 0 305.5 -85t106.5 -244q0 -328 -506 -587q87 7 230 7h322z" />
    <glyph glyph-name="three" unicode="3" horiz-adv-x="1081" 
d="M677 413q157 -29 238.5 -118.5t81.5 -232.5q0 -199 -140 -310.5t-389 -111.5q-236 0 -402 96q-6 30 -6 58q0 60 28.5 92.5t80.5 32.5q32 0 60 -14t50.5 -34.5t46.5 -41t60.5 -34.5t80.5 -14q106 0 169 75.5t63 202.5q0 135 -88 198t-277 63q-58 0 -96 -8l-10 154
q218 0 322 63t104 194q0 100 -56.5 153t-161.5 53q-146 0 -288 -115l-46 159q157 128 417 128q208 0 320.5 -89.5t112.5 -256.5q0 -125 -73.5 -215.5t-201.5 -126.5z" />
    <glyph glyph-name="four" unicode="4" horiz-adv-x="1150" 
d="M1085 198v-175h-161v-359h-276v359h-611v118l634 938h253v-881h161zM654 198v560l-382 -560h382z" />
    <glyph glyph-name="five" unicode="5" horiz-adv-x="1083" 
d="M587 535q188 0 303 -121.5t115 -321.5q0 -221 -137 -336.5t-389 -115.5q-235 0 -401 96q-6 30 -6 58q0 60 28.5 92.5t80.5 32.5q32 0 60 -14t50.5 -34.5t46.5 -41t60.5 -34.5t80.5 -14q107 0 169 80.5t62 227.5q0 121 -64 192t-174 71q-123 0 -205 -103l-155 47l81 780
h781v-220h-617l-48 -426q48 49 122 77t156 28z" />
    <glyph glyph-name="six" unicode="6" horiz-adv-x="1169" 
d="M693 890q185 0 290.5 -120t105.5 -330q0 -212 -135 -338.5t-362 -126.5q-252 0 -374.5 162.5t-122.5 495.5q0 382 171 593t482 211q173 0 302 -59l-29 -154q-122 53 -247 53q-194 0 -300 -154t-113 -446q42 101 128.5 157t203.5 56zM597 130q94 0 150.5 79.5t56.5 212.5
q0 135 -49 213t-141 78q-95 0 -156 -80t-61 -211q0 -134 53.5 -213t146.5 -79z" />
    <glyph glyph-name="seven" unicode="7" horiz-adv-x="983" 
d="M959 940l-150 -315q-109 -229 -172.5 -394t-120.5 -371q-28 -104 -44 -205q-45 -11 -111 -11q-81 0 -117.5 32t-36.5 103q0 93 74 280q179 450 431 804h-666v213h906z" />
    <glyph glyph-name="eight" unicode="8" horiz-adv-x="1161" 
d="M772 793q52 -26 91 -50.5t80.5 -60.5t67.5 -75.5t43 -94.5t17 -119q0 -184 -140.5 -301t-361.5 -117q-224 0 -349.5 101t-125.5 281q0 119 70 213t196 148q-108 64 -168 145.5t-60 205.5q0 167 124.5 267.5t332.5 100.5q203 0 316.5 -87t113.5 -240q0 -108 -64.5 -190
t-182.5 -127zM596 1295q-85 0 -133 -50t-48 -136q0 -83 54 -137.5t158 -107.5q151 81 151 243q0 91 -47 139.5t-135 48.5zM563 117q108 0 166.5 57.5t58.5 162.5q0 34 -8.5 64.5t-21.5 54t-36.5 47t-44 40t-55 37t-58 32.5t-63.5 32q-165 -93 -165 -284q0 -111 61.5 -177
t165.5 -66z" />
    <glyph glyph-name="nine" unicode="9" horiz-adv-x="1155" 
d="M570 1101q252 0 374 -162.5t122 -495.5q0 -382 -170.5 -592.5t-481.5 -210.5q-177 0 -303 58l30 154q120 -52 246 -52q194 0 300 153.5t113 445.5q-42 -101 -128.5 -157t-203.5 -56q-185 0 -290.5 120.5t-105.5 330.5q0 212 135.5 338t362.5 126zM548 363q95 0 156 80.5
t61 211.5q0 133 -54 212t-147 79q-94 0 -150 -79t-56 -212q0 -136 49 -214t141 -78z" />
    <glyph glyph-name="colon" unicode=":" horiz-adv-x="575" 
d="M117 805q0 74 48.5 122.5t122.5 48.5t122.5 -48.5t48.5 -122.5t-48.5 -122.5t-122.5 -48.5t-122.5 48.5t-48.5 122.5zM117 144q0 74 48.5 122.5t122.5 48.5t122.5 -48.5t48.5 -122.5t-48.5 -122.5t-122.5 -48.5t-122.5 48.5t-48.5 122.5z" />
    <glyph glyph-name="semicolon" unicode=";" horiz-adv-x="579" 
d="M290 634q-74 0 -122.5 48.5t-48.5 122.5t48.5 122.5t122.5 48.5t122.5 -48.5t48.5 -122.5t-48.5 -122.5t-122.5 -48.5zM290 315q83 0 127 -54.5t44 -156.5q0 -150 -92 -273.5t-219 -145.5q-41 23 -52 74q138 66 151 218q-58 13 -94 58.5t-36 108.5q0 74 48.5 122.5
t122.5 48.5z" />
    <glyph glyph-name="less" unicode="&#x3c;" horiz-adv-x="946" 
d="M833 877l-542 -270l542 -271v-196l-771 401v124l771 401v-189z" />
    <glyph glyph-name="equal" unicode="=" horiz-adv-x="1232" 
d="M1107 655h-980v159h980v-159zM1107 332h-980v160h980v-160z" />
    <glyph glyph-name="greater" unicode="&#x3e;" horiz-adv-x="946" 
d="M885 665v-124l-771 -401v188l542 271l-542 270v197z" />
    <glyph glyph-name="question" unicode="?" horiz-adv-x="1017" 
d="M536 1501q192 0 304.5 -88.5t112.5 -240.5q0 -72 -22.5 -131t-58.5 -98.5t-79 -73t-86.5 -63t-79.5 -60t-58.5 -72t-22.5 -91.5q0 -61 12 -101l-183 -18q-32 66 -32 155q0 57 18.5 104.5t47.5 80.5t65 63t71.5 60t64.5 63.5t47.5 80.5t18.5 104q0 84 -43 133t-117 49
q-75 0 -119.5 -42.5t-63.5 -137.5q-16 -82 -51 -117.5t-100 -35.5q-45 0 -79 23t-47 63q31 191 153.5 291t326.5 100zM317 144q0 74 48.5 122.5t122.5 48.5t122.5 -48.5t48.5 -122.5t-48.5 -122.5t-122.5 -48.5t-122.5 48.5t-48.5 122.5z" />
    <glyph glyph-name="at" unicode="@" horiz-adv-x="1941" 
d="M1087 144q0 68 52 251h-3q-122 -415 -362 -415q-123 0 -178 71.5t-55 230.5q0 163 56 302.5t152 221.5t208 82q133 0 204 -89l3 6q21 47 44.5 65t64.5 18q60 0 116 -30l-85 -538q-17 -112 -17 -142q0 -101 87 -101q109 0 184 137.5t75 336.5q0 273 -156 425.5t-436 152.5
q-216 0 -380 -96.5t-253 -274.5t-89 -412q0 -315 166.5 -477t490.5 -162q216 0 380 47l21 -108q-202 -70 -426 -70q-414 0 -639 201t-225 570q0 267 120 475t337.5 323t495.5 115q365 0 587.5 -188.5t222.5 -498.5q0 -168 -68 -305t-188 -215t-268 -78q-115 0 -177 44
t-62 125zM842 130q29 0 68.5 36.5t78 98.5t72.5 155.5t49 194.5l12 81q-39 61 -98 61q-60 0 -115.5 -69t-89 -181.5t-33.5 -235.5q0 -76 12.5 -108.5t43.5 -32.5z" />
    <glyph glyph-name="A" unicode="A" horiz-adv-x="1423" 
d="M814 106l50 9q46 9 65.5 24.5t19.5 47.5q0 34 -23 106l-39 119h-464l-41 -119q-25 -72 -25 -108q0 -32 22.5 -47t79.5 -24l43 -8l-4 -106h-501l4 106l51 9q51 9 75.5 40.5t63.5 137.5l415 1146h229l388 -1146q35 -105 58.5 -136t76.5 -42l40 -9l4 -106h-592zM841 555
l-180 559l-190 -559h370z" />
    <glyph glyph-name="B" unicode="B" horiz-adv-x="1314" 
d="M919 774q152 -26 234.5 -122t82.5 -247q0 -197 -146.5 -306t-412.5 -109q-77 0 -223 5t-237 5h-125l4 106l63 13q46 10 61 29t15 68v1001q0 54 -17 71.5t-81 30.5l-41 8l-4 107h125q91 0 237 4.5t223 4.5q264 0 390 -84t126 -260q0 -116 -76 -204.5t-198 -120.5z
M899 1066q0 123 -58 181.5t-178 58.5q-92 0 -147 -10v-462q54 -5 131 -5q121 0 186.5 62t65.5 175zM647 127q290 0 290 281q0 134 -71.5 207t-202.5 73q-92 0 -147 -5v-455q0 -57 28.5 -79t102.5 -22z" />
    <glyph glyph-name="C" unicode="C" horiz-adv-x="1314" 
d="M773 1466q118 0 253.5 -25.5t198.5 -25.5q4 -79 4 -195q0 -112 -4 -172l-160 -10q-17 144 -86 212t-199 68q-183 0 -283 -154.5t-100 -446.5q0 -285 97.5 -443t285.5 -158q140 0 213.5 73t90.5 229l154 -9v-338q-95 -49 -219 -76.5t-246 -27.5q-337 0 -513 196.5
t-176 553.5q0 174 53 316.5t145.5 236.5t218.5 145t272 51z" />
    <glyph glyph-name="D" unicode="D" horiz-adv-x="1499" 
d="M677 1443q363 0 550 -184t187 -542q0 -328 -202 -527.5t-535 -199.5q-77 0 -223 5t-237 5h-125l4 106l63 13q46 10 61 29t15 68v1001q0 54 -17 71.5t-81 30.5l-41 8l-4 107h125q91 0 237 4.5t223 4.5zM654 127q213 0 330 154t117 436q0 286 -111.5 437.5t-319.5 151.5
q-92 0 -147 -10v-1068q0 -57 28.5 -79t102.5 -22z" />
    <glyph glyph-name="E" unicode="E" horiz-adv-x="1269" 
d="M92 1434h1047q27 -194 27 -363l-163 -10q-17 143 -56 188.5t-147 45.5h-277v-499h236q49 0 68 20.5t32 88.5l8 41l136 4v-458l-136 4l-11 71q-7 48 -30 69t-67 21h-236v-429q0 -53 27 -71t109 -18h174q108 0 147 45.5t56 188.5l163 -10q0 -169 -27 -363h-1080l4 106
l63 13q46 10 61 29t15 68v1001q0 54 -17 71.5t-81 30.5l-41 8z" />
    <glyph glyph-name="F" unicode="F" horiz-adv-x="1228" 
d="M92 1434h1047q27 -194 27 -367l-163 -10q-17 146 -56 192t-147 46h-277v-536h265q49 0 67 20.5t32 88.5l8 41l137 4v-458l-137 4l-10 71q-7 48 -30 69t-67 21h-265v-380q0 -64 17 -84.5t81 -30.5l101 -15l-4 -110h-626l4 106l63 13q46 10 61 29t15 68v1001q0 54 -17 71.5
t-81 30.5l-41 8z" />
    <glyph glyph-name="G" unicode="G" horiz-adv-x="1458" 
d="M1422 709l-4 -106l-56 -11q-46 -9 -61.5 -29t-15.5 -70v-440q-245 -86 -512 -86q-337 0 -513 196.5t-176 553.5q0 175 53 317t147 236t222.5 145t279.5 51q128 0 275.5 -25.5t208.5 -25.5q4 -79 4 -195q0 -112 -4 -172l-160 -10q-16 142 -95 211t-222 69
q-192 0 -294 -153.5t-102 -447.5q0 -278 97.5 -434.5t285.5 -156.5q133 0 234 37v330q0 54 -17 71.5t-81 30.5l-41 8l-4 106h551z" />
    <glyph glyph-name="H" unicode="H" horiz-adv-x="1566" 
d="M1331 1217v-1001q0 -54 16.5 -70.5t81.5 -28.5l53 -11l-4 -106h-575l4 106l63 13q43 9 57.5 28t14.5 69v444h-519v-444q0 -53 16.5 -70t78.5 -29l53 -11l-4 -106h-575l4 106l63 13q46 10 61 29t15 68v1001q0 54 -17 71.5t-81 30.5l-41 8l-4 107h579l-4 -107l-68 -10
q-44 -7 -60 -28.5t-16 -71.5v-409h519v409q0 54 -17.5 73t-79.5 30l-42 7l4 107h575l-4 -107l-71 -11q-45 -7 -60.5 -28t-15.5 -71z" />
    <glyph glyph-name="I" unicode="I" horiz-adv-x="759" 
d="M671 1327l-72 -11q-45 -7 -60.5 -28t-15.5 -71v-1001q0 -54 16.5 -70.5t81.5 -28.5l54 -11l-4 -106h-579l4 106l63 13q46 10 61 29t15 68v1001q0 54 -17 71.5t-81 30.5l-41 8l-4 107h583z" />
    <glyph glyph-name="J" unicode="J" horiz-adv-x="722" 
d="M507 1217v-869q0 -228 -36.5 -365.5t-119.5 -226.5q-117 -124 -342 -162q-42 39 -42 103q0 77 70 102q21 8 65.5 13t65.5 18q31 20 39.5 89.5t8.5 305.5v992q0 54 -17 71.5t-79 30.5l-41 8l-4 107h584l-5 -107l-71 -11q-45 -7 -60.5 -28t-15.5 -71z" />
    <glyph glyph-name="K" unicode="K" horiz-adv-x="1366" 
d="M523 1217v-1001q0 -54 15.5 -70.5t75.5 -28.5l54 -11l-4 -106h-572l4 106l63 13q46 10 61 29t15 68v1001q0 54 -17 71.5t-81 30.5l-41 8l-4 107h583l-4 -107l-72 -11q-45 -7 -60.5 -28t-15.5 -71zM907 660l281 -421q81 -120 179 -134l-4 -99q-80 -20 -151 -20
q-134 0 -199 42t-155 188l-156 253q-58 95 -91.5 143t-84.5 109l362 443q62 77 62 112q0 37 -64 46l-31 5l-5 107h482l-4 -107q-86 -26 -131 -59t-136 -141l-263 -311q39 -50 109 -156z" />
    <glyph glyph-name="L" unicode="L" horiz-adv-x="1224" 
d="M671 1327l-72 -11q-45 -7 -60.5 -28t-15.5 -71v-989q0 -53 27 -71t109 -18h151q103 0 141 61t55 227l170 -10q0 -223 -27 -417h-1057l4 106l63 13q46 10 61 29t15 68v1001q0 54 -17 71.5t-81 30.5l-41 8l-4 107h583z" />
    <glyph glyph-name="M" unicode="M" horiz-adv-x="1992" 
d="M1940 106l-4 -106h-567l4 106l62 13q43 9 57.5 29.5t11.5 67.5l-33 493q-18 272 -18 445q-67 -220 -183 -535l-228 -619h-223l-214 628q-102 301 -161 529q-1 -154 -24 -448l-39 -493q-4 -51 12.5 -69t78.5 -30l53 -11l-4 -106h-466l5 106l62 13q44 9 58 27t18 70
l83 1001q4 52 -13.5 70t-84.5 32l-41 8l-4 107h486l359 -1084l385 1084h497l-4 -107l-72 -11q-47 -8 -63.5 -29t-12.5 -70l76 -1001q4 -56 19.5 -71.5t78.5 -27.5z" />
    <glyph glyph-name="N" unicode="N" horiz-adv-x="1521" 
d="M1455 1434l-4 -107l-71 -11q-45 -7 -60.5 -28t-15.5 -71v-1217h-278l-482 838q-83 144 -140 312q11 -136 11 -273v-661q0 -54 16.5 -70.5t81.5 -28.5l54 -11l-4 -106h-471l4 106l63 13q46 10 61 29t15 68v1001q0 54 -17 71.5t-81 30.5l-41 8l-4 107h431l482 -838
q78 -138 127 -273q-9 126 -9 234v660q0 54 -17 71.5t-81 30.5l-41 8l-4 107h475z" />
    <glyph glyph-name="O" unicode="O" horiz-adv-x="1544" 
d="M84 717q0 352 187.5 550.5t501.5 198.5q328 0 508 -196.5t180 -552.5q0 -221 -84 -391t-240.5 -264.5t-363.5 -94.5q-319 0 -504 206t-185 544zM397 717q0 -279 101 -440t275 -161t274.5 161t100.5 440q0 294 -96.5 447.5t-278.5 153.5t-279 -154t-97 -447z" />
    <glyph glyph-name="P" unicode="P" horiz-adv-x="1288" 
d="M654 540q-77 0 -131 5v-305q0 -64 17 -84.5t81 -30.5l101 -15l-4 -110h-626l4 106l63 13q46 10 61 29t15 68v1001q0 54 -17 71.5t-81 30.5l-41 8l-4 107h125q91 0 237 4.5t223 4.5q282 0 418.5 -111.5t136.5 -339.5q0 -210 -154.5 -331t-423.5 -121zM933 992
q0 314 -263 314q-92 0 -147 -10v-610q54 -5 131 -5q132 0 205.5 81t73.5 230z" />
    <glyph glyph-name="Q" unicode="Q" horiz-adv-x="1544" 
d="M1449 -18q117 0 117 -133q0 -41 -9 -71q-87 -42 -193 -42q-143 0 -260.5 64.5t-186.5 179.5q-66 -13 -144 -13q-319 0 -504 206t-185 544q0 352 187.5 550.5t501.5 198.5q328 0 508 -196.5t180 -552.5q0 -246 -104 -427t-289 -263q80 -77 199 -77q43 0 96.5 16t85.5 16z
M397 717q0 -279 101 -440t275 -161t274.5 161t100.5 440q0 294 -96.5 447.5t-278.5 153.5t-279 -154t-97 -447z" />
    <glyph glyph-name="R" unicode="R" horiz-adv-x="1366" 
d="M1353 107l-5 -99q-71 -22 -170 -22q-117 0 -173.5 41.5t-108.5 168.5l-116 281q-35 83 -77.5 115t-121.5 32q-21 0 -61 -4v-404q0 -54 15.5 -70.5t75.5 -28.5l53 -11l-4 -106h-568l4 106l63 13q46 10 61 29t15 68v1001q0 54 -17 71.5t-81 30.5l-41 8l-4 107h125
q91 0 237 4.5t223 4.5q269 0 397.5 -93t128.5 -285q0 -136 -84.5 -230t-233.5 -127q55 -16 93 -51t72 -98q27 -49 84.5 -180.5t93.5 -193.5q23 -39 45.5 -55.5t58.5 -20.5zM650 767q121 0 190 71.5t69 197.5q0 270 -243 270q-91 0 -146 -10v-524q54 -5 130 -5z" />
    <glyph glyph-name="S" unicode="S" horiz-adv-x="1138" 
d="M613 1466q112 0 234.5 -27t162.5 -27v-338l-153 -6q-26 139 -85.5 201.5t-165.5 62.5q-95 0 -153 -58t-58 -152q0 -53 22.5 -96t61 -73t88.5 -56t105 -50.5t110 -51.5t105 -63.5t88.5 -81.5t61 -111.5t22.5 -147.5q0 -194 -143 -309t-384 -115q-118 0 -236 32t-200 86
q-13 109 -13 180q0 47 5 139l159 6q17 -150 88 -229t189 -79q110 0 180 64t70 164q0 56 -22.5 101t-60.5 76.5t-87.5 58.5t-104 51.5t-109 51t-104 62t-87.5 79t-60.5 107.5t-22.5 142q0 183 136 295t361 112z" />
    <glyph glyph-name="T" unicode="T" horiz-adv-x="1353" 
d="M75 1434h1203q26 -186 26 -384l-169 -10q-17 159 -53.5 207t-143.5 48h-117v-1055q0 -65 17.5 -87t80.5 -32l82 -13l-4 -108h-636l4 108l91 16q45 8 60.5 32t15.5 84v1055h-117q-107 0 -143.5 -48t-53.5 -207l-169 10q0 198 26 384z" />
    <glyph glyph-name="U" unicode="U" horiz-adv-x="1478" 
d="M639 1327l-71 -11q-45 -7 -60.5 -28t-15.5 -71v-704q0 -204 72.5 -301.5t223.5 -97.5q286 0 286 387v716q0 54 -17 72t-81 30l-45 8l4 107h489l-4 -107l-72 -11q-45 -7 -60.5 -28t-15.5 -71v-734q0 -245 -135 -380.5t-381 -135.5q-283 0 -418 136.5t-135 421.5v692
q0 54 -17 71.5t-81 30.5l-41 8l-4 107h583z" />
    <glyph glyph-name="V" unicode="V" horiz-adv-x="1419" 
d="M1425 1434l-4 -107l-51 -7q-50 -7 -74.5 -38.5t-64.5 -140.5l-421 -1145h-216l-395 1145q-37 109 -60.5 140t-73.5 39l-41 7l-4 107h596l-4 -107l-50 -7q-46 -6 -66 -22t-20 -50q0 -36 24 -107l261 -793l276 793q26 75 26 110q0 34 -23.5 49t-79.5 22l-43 5l4 107h504z
" />
    <glyph glyph-name="W" unicode="W" horiz-adv-x="2115" 
d="M2118 1434l-4 -107l-50 -7q-52 -7 -79 -41.5t-61 -137.5l-372 -1145h-216l-270 975l-310 -975h-217l-334 1145q-30 102 -55.5 136t-79.5 43l-40 7l-4 107h589l-4 -107l-51 -7q-47 -6 -65 -19.5t-18 -45.5q0 -36 21 -114l204 -764l321 1057h193l283 -1057l231 764
q25 84 25 116t-22 45t-79 20l-44 5l4 107h504z" />
    <glyph glyph-name="X" unicode="X" horiz-adv-x="1294" 
d="M1274 106l-4 -106h-572l4 106l33 7q42 8 60.5 20.5t18.5 35.5q0 28 -31 85l-178 327l-191 -327q-34 -57 -34 -85q0 -23 20 -35.5t63 -18.5l55 -9l-4 -106h-494l4 106l32 7q60 11 85.5 35t86.5 124l253 419l-266 470q-60 104 -83.5 128t-76.5 33l-27 5l-4 107h576l-4 -107
l-33 -4q-80 -10 -80 -56q0 -29 32 -87l173 -321l188 321q33 57 33 87q0 45 -82 54l-56 6l4 107h495l-4 -107l-33 -4q-57 -7 -82.5 -31.5t-89.5 -130.5l-248 -412l270 -477q56 -99 80.5 -123t79.5 -36z" />
    <glyph glyph-name="Y" unicode="Y" horiz-adv-x="1353" 
d="M1353 1434l-4 -107l-35 -5q-59 -8 -85 -34t-96 -147l-312 -545v-356q0 -65 17.5 -87t80.5 -32l82 -13l-4 -108h-636l4 108l91 16q45 8 60.5 32t15.5 84v356l-315 545q-71 123 -94 148t-72 33l-28 5l-4 107h603l-4 -107l-48 -6q-87 -11 -87 -64q0 -34 33 -91l225 -389
l216 389q36 64 36 97q0 26 -20.5 39t-65.5 18l-59 7l4 107h501z" />
    <glyph glyph-name="Z" unicode="Z" horiz-adv-x="1245" 
d="M1000 399l170 -10q0 -195 -27 -389h-1071l-6 113l750 1182h-360q-107 0 -143.5 -48t-53.5 -207l-169 10q0 190 27 384h1037l6 -113l-750 -1182h394q104 0 141.5 55t54.5 205z" />
    <glyph glyph-name="bracketleft" unicode="[" horiz-adv-x="602" 
d="M543 1544v-138h-182v-1677h182v-139h-410v1954h410z" />
    <glyph glyph-name="backslash" unicode="\" horiz-adv-x="786" 
d="M728 -377h-202l-468 1856h201z" />
    <glyph glyph-name="bracketright" unicode="]" horiz-adv-x="602" 
d="M59 -410v139h182v1677h-182v138h410v-1954h-410z" />
    <glyph glyph-name="asciicircum" unicode="^" horiz-adv-x="1122" 
d="M839 614l-278 619l-289 -619h-206l409 840h181l399 -840h-216z" />
    <glyph glyph-name="underscore" unicode="_" 
d="M1024 -355h-1024v166h1024v-166z" />
    <glyph glyph-name="grave" unicode="`" 
d="M374 1560l378 -248q-25 -73 -72 -122l-408 201q35 92 102 169z" />
    <glyph glyph-name="a" unicode="a" horiz-adv-x="1101" 
d="M1075 156l18 -95q-97 -81 -234 -81q-88 0 -130 42.5t-45 132.5q-51 -84 -133 -132t-174 -48q-140 0 -225 83.5t-85 221.5q0 160 124 250.5t344 90.5q60 0 130 -10v128q0 114 -33 166t-104 52q-41 0 -74 -17.5t-55.5 -43l-45 -51t-54 -43t-70.5 -17.5q-54 0 -84.5 32.5
t-30.5 89.5q0 31 8 59q186 115 419 115q212 0 304.5 -86.5t92.5 -283.5v-411q0 -95 14.5 -128.5t57.5 -33.5q34 0 65 18zM475 152q119 0 190 135v205q-54 7 -100 7q-110 0 -168 -47t-58 -137q0 -76 36.5 -119.5t99.5 -43.5z" />
    <glyph glyph-name="b" unicode="b" horiz-adv-x="1226" 
d="M727 1081q200 0 308.5 -143.5t108.5 -407.5q0 -251 -131 -403t-347 -152q-166 0 -264 92l-150 -92l-103 28v1251q0 57 -12.5 76.5t-54.5 28.5l-48 10l-4 100l402 49v-385q0 -111 -5 -218q50 80 127 123t173 43zM599 130q120 0 183 100.5t63 292.5q0 186 -56 283.5
t-162 97.5q-126 0 -195 -129v-562q70 -83 167 -83z" />
    <glyph glyph-name="c" unicode="c" horiz-adv-x="1005" 
d="M558 -25q-226 0 -352 145.5t-126 407.5q0 176 70 303t186.5 188.5t266.5 61.5q185 0 334 -82q13 -31 13 -74q0 -58 -33 -92t-90 -34q-38 0 -65.5 14.5t-44 35l-33 41t-42.5 35t-61 14.5q-98 0 -150.5 -102.5t-52.5 -308.5q0 -182 70.5 -280.5t197.5 -98.5q135 0 257 96
l51 -128q-89 -74 -183.5 -108t-212.5 -34z" />
    <glyph glyph-name="d" unicode="d" horiz-adv-x="1253" 
d="M1208 118l-4 -106l-360 -32q-19 71 -24 179q-50 -88 -133 -136t-187 -48q-200 0 -308 143t-108 408q0 251 130.5 403t346.5 152q150 0 239 -92q-5 107 -5 218v47q0 57 -12.5 76.5t-54.5 28.5l-47 10l-5 100l402 49v-1286q0 -56 16 -78t64 -29zM601 152q125 0 194 129v562
q-70 83 -167 83q-120 0 -183 -100.5t-63 -292.5q0 -186 56 -283.5t163 -97.5z" />
    <glyph glyph-name="e" unicode="e" horiz-adv-x="1093" 
d="M670 146q83 0 148.5 23t129.5 73l51 -125q-90 -75 -187.5 -108.5t-229.5 -33.5q-242 0 -372 145t-130 408q0 176 70 303t186.5 188.5t266.5 61.5q194 0 304 -114.5t110 -316.5q0 -76 -14.5 -102.5t-56.5 -26.5h-575q1 -189 80.5 -282t218.5 -93zM572 939
q-168 0 -195 -289h316q32 0 44 16t12 57q0 100 -48 158t-129 58z" />
    <glyph glyph-name="f" unicode="f" horiz-adv-x="798" 
d="M888 1482q12 -28 12 -64q0 -53 -29.5 -84t-80.5 -31q-38 0 -70.5 13.5t-52.5 29t-48.5 29t-58.5 13.5q-43 0 -61 -33t-18 -114v-185h279v-142h-275v-694q0 -56 16.5 -73t80.5 -27l84 -13l-4 -107h-579l4 104l49 11q41 9 53.5 26.5t12.5 68.5v704h-124l-4 118l131 21v89
q0 184 101.5 280t297.5 96q156 0 284 -36z" />
    <glyph glyph-name="g" unicode="g" horiz-adv-x="1132" 
d="M1111 988q0 -47 -23 -68t-74 -21q-54 0 -166 40q56 -39 89 -100t33 -129q0 -151 -119.5 -246.5t-314.5 -95.5q-90 0 -165 20q-38 -32 -38 -70q0 -39 36 -61t120 -33l214 -29q202 -27 288.5 -90.5t86.5 -185.5q0 -167 -147.5 -268.5t-391.5 -101.5q-226 0 -356 73.5
t-130 200.5q0 81 57.5 142t163.5 94q-72 23 -111.5 69t-39.5 106q0 62 39 111.5t111 81.5q-85 46 -131 123t-46 174q0 167 122.5 262t317.5 95q118 0 211 -40q171 2 350 23q14 -38 14 -76zM536 500q78 0 125.5 60.5t47.5 163.5q0 110 -44 167t-129 57t-129.5 -57t-44.5 -167
q0 -103 47.5 -163.5t126.5 -60.5zM813 -143q0 54 -33.5 84t-116.5 49.5t-248 35.5q-122 -59 -122 -174q0 -82 68.5 -130t182.5 -48q121 0 195 50t74 133z" />
    <glyph glyph-name="h" unicode="h" horiz-adv-x="1275" 
d="M1250 104l-4 -104h-528l4 104l46 11q36 9 47 24.5t11 58.5v511q0 195 -159 195q-133 0 -205 -130v-576q0 -48 13 -62t67 -23l49 -9l-4 -104h-527l4 104l49 11q41 9 53.5 26.5t12.5 68.5v1044q0 57 -12.5 76.5t-54.5 28.5l-48 10l-4 100l402 49v-385q0 -113 -5 -220
q51 80 132.5 124t181.5 44q166 0 252 -88t86 -258v-525q0 -56 15 -72.5t75 -25.5z" />
    <glyph glyph-name="i" unicode="i" horiz-adv-x="673" 
d="M168 1372q0 67 43.5 108t114.5 41t115 -41t44 -108t-44 -108t-115 -41t-114.5 41t-43.5 108zM487 1081v-871q0 -56 15 -72.5t75 -25.5l51 -8l-4 -104h-539l4 104l49 11q41 9 53.5 26.5t12.5 68.5v607q0 57 -12.5 76.5t-54.5 28.5l-48 10l-4 100z" />
    <glyph glyph-name="j" unicode="j" horiz-adv-x="612" 
d="M144 1372q0 67 44 108t115 41t114.5 -41t43.5 -108t-43.5 -108t-114.5 -41t-115 41t-44 108zM463 1081v-758q0 -233 -35 -378.5t-117 -233.5q-117 -125 -340 -162q-42 39 -42 103q0 73 70 98q21 8 65.5 13t65.5 18q31 19 39 90t8 309v637q0 57 -12 77t-52 28l-47 10
l-4 100z" />
    <glyph glyph-name="k" unicode="k" horiz-adv-x="1181" 
d="M462 1518v-1320q0 -49 13.5 -63.5t66.5 -23.5l40 -7l-4 -104h-518l4 104l49 11q41 9 53.5 26.5t12.5 68.5v1044q0 57 -12.5 76.5t-54.5 28.5l-48 10l-4 100zM821 518l166 -251q56 -85 98 -123t89 -48l-4 -86q-70 -24 -157 -24q-103 0 -160.5 38t-133.5 158l-130 203
q-65 103 -124 177l233 253q55 59 55 91q0 30 -55 39l-36 7l-5 104h460l-4 -104l-27 -6q-57 -12 -90.5 -33t-86.5 -77l-180 -191q36 -43 92 -127z" />
    <glyph glyph-name="l" unicode="l" horiz-adv-x="651" 
d="M467 1518v-1308q0 -56 15 -72.5t75 -25.5l51 -8l-4 -104h-539l4 104l49 11q41 9 53.5 26.5t12.5 68.5v1044q0 57 -12.5 76.5t-54.5 28.5l-48 10l-4 100z" />
    <glyph glyph-name="m" unicode="m" horiz-adv-x="1929" 
d="M1905 104l-5 -104h-527l4 104l45 11q36 9 47 24.5t11 58.5v511q0 99 -38 147t-118 48q-132 0 -202 -132q1 -12 1 -37v-537q0 -48 13 -62t67 -23l49 -9l-4 -104h-515l4 104l45 11q36 9 47 24.5t11 58.5v511q0 99 -38 147t-118 48q-131 0 -201 -130v-576q0 -48 13 -62
t67 -23l50 -9l-5 -104h-526l4 104l48 11q41 9 53.5 26.5t12.5 68.5v607q0 57 -12 76.5t-54 28.5l-48 10l-4 100l352 49q20 -74 25 -185q51 89 135.5 137t193.5 48q237 0 307 -178q52 85 137.5 131.5t195.5 46.5q166 0 250.5 -88t84.5 -258v-525q0 -56 15 -72.5t75 -25.5z
" />
    <glyph glyph-name="n" unicode="n" horiz-adv-x="1296" 
d="M1271 104l-4 -104h-527l4 104l45 11q36 9 47 24.5t11 58.5v511q0 195 -159 195q-133 0 -205 -130v-576q0 -48 13 -62t67 -23l50 -9l-5 -104h-526l4 104l48 11q41 9 53.5 26.5t12.5 68.5v607q0 57 -12 76.5t-54 28.5l-48 10l-4 100l352 49q20 -74 25 -185
q51 88 137.5 136.5t195.5 48.5q166 0 252 -88t86 -258v-525q0 -56 15 -72.5t75 -25.5z" />
    <glyph glyph-name="o" unicode="o" horiz-adv-x="1206" 
d="M80 528q0 176 70 303t186.5 188.5t266.5 61.5q257 0 389.5 -140.5t132.5 -412.5q0 -257 -144.5 -405t-377.5 -148q-249 0 -386 145.5t-137 407.5zM378 528q0 -197 59.5 -304t165.5 -107t165 107t59 304q0 411 -224 411q-225 0 -225 -411z" />
    <glyph glyph-name="p" unicode="p" horiz-adv-x="1257" 
d="M757 1081q200 0 308 -143t108 -408q0 -251 -131 -403t-347 -152q-149 0 -238 92q4 -85 4 -218v-59q0 -56 16.5 -73t81.5 -27l84 -13l-4 -107h-579l4 104l49 11q41 9 53 26.5t12 68.5v1037q0 57 -12 76.5t-54 28.5l-48 10l-4 100l352 49q20 -74 25 -184q50 88 133 136
t187 48zM629 130q120 0 183 100.5t63 292.5q0 186 -56 283.5t-163 97.5q-126 0 -195 -129v-562q70 -83 168 -83z" />
    <glyph glyph-name="q" unicode="q" horiz-adv-x="1228" 
d="M1220 -326l-5 -104h-539l5 104l48 11q41 9 53.5 26.5t12.5 68.5v143q0 111 5 218q-50 -80 -127 -123t-173 -43q-200 0 -308 143t-108 408q0 251 130.5 403t346.5 152q166 0 264 -92l151 92l102 -28v-1273q0 -56 15 -72.5t75 -25.5zM601 152q125 0 194 129v562
q-70 83 -167 83q-120 0 -183 -100.5t-63 -292.5q0 -186 56 -283.5t163 -97.5z" />
    <glyph glyph-name="r" unicode="r" horiz-adv-x="923" 
d="M883 1039q14 -35 14 -84q0 -69 -31 -108t-86 -39q-35 0 -80.5 22.5t-84.5 22.5q-101 0 -132 -214v-419q0 -56 16.5 -73t81.5 -27l84 -13l-4 -107h-579l4 104l48 11q41 9 53.5 26.5t12.5 68.5v607q0 57 -12 76.5t-54 28.5l-48 10l-4 100l346 49q25 -90 26 -280
q26 133 94 206.5t169 73.5q92 0 166 -42z" />
    <glyph glyph-name="s" unicode="s" horiz-adv-x="958" 
d="M839 770l-132 -7q-20 95 -69 146t-122 51q-67 0 -106 -35.5t-39 -96.5q0 -40 22 -72.5t58 -53.5t81.5 -43.5t93.5 -41t93.5 -47.5t81.5 -62.5t58 -85.5t22 -117q0 -155 -117 -242.5t-324 -87.5q-97 0 -192.5 27.5t-158.5 74.5q-9 60 -9 122q0 53 4 112l137 6
q19 -104 77 -162.5t141 -58.5q75 0 120 39t45 105q0 41 -21.5 74t-57 55t-80.5 45t-92.5 42.5t-92.5 48.5t-80.5 62t-57 84t-21.5 114q0 149 109 232.5t302 83.5q74 0 173 -24.5t154 -24.5v-262z" />
    <glyph glyph-name="t" unicode="t" horiz-adv-x="800" 
d="M748 197l34 -118q-141 -104 -317 -104q-147 0 -216 65t-68 202l4 672h-118l-5 118l150 25q33 112 75 199q20 40 38 53.5t53 13.5t87 -11v-256h306v-142h-303v-628q0 -72 31 -105.5t97 -33.5q75 0 152 50z" />
    <glyph glyph-name="u" unicode="u" horiz-adv-x="1284" 
d="M1233 118l-4 -106l-360 -32q-19 71 -24 180q-51 -88 -136.5 -136.5t-195.5 -48.5q-166 0 -250.5 88t-84.5 258v496q0 57 -12 76.5t-54 28.5l-48 10l-4 100l401 49v-734q0 -99 38 -147t118 -48q131 0 203 130v535q0 57 -13.5 75.5t-62.5 29.5l-48 10l-4 100l411 49v-849
q0 -56 16 -78t64 -29z" />
    <glyph glyph-name="v" unicode="v" horiz-adv-x="1171" 
d="M1172 1056l-5 -104l-26 -6q-48 -10 -69 -31t-47 -87l-334 -831h-223l-315 831q-27 71 -44 91t-55 26l-38 7l-5 104h549l-4 -104l-45 -7q-41 -6 -59.5 -19.5t-18.5 -39.5q0 -25 13 -58l198 -539l200 539q17 48 17 66q0 23 -18 34t-62 17l-45 7l4 104h432z" />
    <glyph glyph-name="w" unicode="w" horiz-adv-x="1738" 
d="M1737 1056l-4 -104l-27 -6q-49 -10 -70.5 -32t-44.5 -85l-298 -832h-218l-204 666l-225 -666h-218l-272 832q-22 67 -40 88t-59 28l-38 7l-4 104h536l-5 -104l-45 -7q-42 -6 -59.5 -18.5t-17.5 -38.5q0 -21 12 -59l159 -522l242 749h178l227 -749l168 522q16 51 16 70
q0 22 -17 31t-63 15l-44 7l4 104h431z" />
    <glyph glyph-name="x" unicode="x" horiz-adv-x="1118" 
d="M1083 104l-4 -104h-496l4 104l27 6q42 9 42 39q0 24 -18 53l-128 216l-135 -216q-22 -34 -22 -56q0 -28 44 -36l33 -6l-4 -104h-390l4 104l23 6q49 11 69.5 27.5t60.5 74.5l205 301l-203 331q-35 58 -55 75t-65 26l-31 7l-4 104h500l-4 -104l-27 -6q-42 -9 -42 -39
q0 -24 18 -53l124 -209l131 209q22 34 22 56q0 28 -44 36l-33 6l4 104h390l-4 -104l-23 -6q-49 -11 -69.5 -27.5t-60.5 -74.5l-200 -295l206 -337q36 -59 56 -76.5t64 -25.5z" />
    <glyph glyph-name="y" unicode="y" horiz-adv-x="1171" 
d="M1169 1056l-4 -104l-27 -6q-48 -10 -69 -30.5t-47 -86.5l-341 -848q-97 -241 -203.5 -336.5t-280.5 -95.5q-49 0 -96 12q-29 49 -29 102t31.5 84.5t83.5 31.5q29 0 69 -14t65 -14q60 0 97.5 41t81.5 155l14 38q-50 35 -84 123l-280 720q-28 72 -44.5 91.5t-54.5 25.5
l-38 7l-4 104h549l-5 -104l-45 -7q-41 -6 -59.5 -19.5t-18.5 -39.5q0 -25 13 -58l198 -539l200 539q17 48 17 66q0 23 -18 34t-62 17l-45 7l4 104h432z" />
    <glyph glyph-name="z" unicode="z" horiz-adv-x="1054" 
d="M832 323l147 -9q0 -150 -22 -314h-884l-8 109l583 828h-256q-76 0 -109 -42.5t-47 -159.5l-147 9q0 155 21 312h856l7 -109l-583 -828h286q75 0 108 45.5t48 158.5z" />
    <glyph glyph-name="braceleft" unicode="{" horiz-adv-x="681" 
d="M460 1257v-328q0 -136 -52.5 -228t-147.5 -125q94 -37 147 -135t53 -235v-329q0 -83 27.5 -117.5t93.5 -34.5h42v-135h-168q-116 0 -172.5 70.5t-56.5 230.5v334q0 131 -45 199t-131 68v151q86 0 131 67.5t45 198.5v334q0 149 58 225t171 76h168v-134h-42
q-66 0 -93.5 -35t-27.5 -118z" />
    <glyph glyph-name="bar" unicode="|" horiz-adv-x="458" 
d="M326 -430h-193v1989h193v-1989z" />
    <glyph glyph-name="braceright" unicode="}" horiz-adv-x="681" 
d="M456 1243v-334q0 -131 45 -198.5t131 -67.5v-151q-86 0 -131 -68t-45 -199v-334q0 -149 -58 -225t-171 -76h-169v135h42q66 0 93.5 34.5t27.5 117.5v329q0 136 53 227.5t148 124.5q-94 37 -147.5 135.5t-53.5 235.5v328q0 83 -27.5 118t-93.5 35h-42v134h169
q116 0 172.5 -70.5t56.5 -230.5z" />
    <glyph glyph-name="asciitilde" unicode="~" horiz-adv-x="1214" 
d="M838 610q69 0 121 24t100 77l39 -125q-50 -66 -126.5 -104t-160.5 -38q-93 0 -170 21t-140 41.5t-123 20.5q-70 0 -121.5 -23.5t-99.5 -76.5l-39 124q50 67 127.5 105t160.5 38q93 0 169.5 -21t139.5 -42t123 -21z" />
    <glyph glyph-name="uni00A0" unicode="&#xa0;" horiz-adv-x="466" 
 />
    <glyph glyph-name="exclamdown" unicode="&#xa1;" horiz-adv-x="536" 
d="M97 912q0 74 48.5 122.5t122.5 48.5t122.5 -48.5t48.5 -122.5t-48.5 -122.5t-122.5 -48.5t-122.5 48.5t-48.5 122.5zM364 579l64 -996l-321 -11l65 1007h192z" />
    <glyph glyph-name="cent" unicode="&#xa2;" horiz-adv-x="1032" 
d="M902 245l51 -128q-133 -111 -288 -134v-208h-141v201q-211 11 -327.5 155.5t-116.5 396.5q0 240 122 382t322 166v205h141v-203q151 -12 271 -79q14 -33 14 -74q0 -58 -33.5 -92t-90.5 -34q-38 0 -65.5 14.5t-44 35l-33 41t-42.5 35t-61 14.5q-98 0 -150 -102.5
t-52 -308.5q0 -182 70 -280.5t197 -98.5q135 0 257 96z" />
    <glyph glyph-name="sterling" unicode="&#xa3;" horiz-adv-x="1263" 
d="M1005 427l169 -10q0 -231 -26 -417h-1084l4 117q72 7 112 61.5t58 172.5t19 328h-163v147h163v156q0 233 127.5 358.5t365.5 125.5q102 0 211 -27t152 -27v-338l-153 -6q-26 141 -74.5 202.5t-138.5 61.5q-108 0 -159 -79.5t-51 -245.5v-181h358v-147h-359
q-5 -213 -35.5 -342.5t-91.5 -199.5q81 9 166 9h234q104 0 141.5 58t54.5 223z" />
    <glyph glyph-name="currency" unicode="&#xa4;" horiz-adv-x="1175" 
d="M1050 554q0 -190 -110 -306l143 -160l-138 -114l-141 181q-93 -40 -216 -40q-126 0 -219 36l-138 -177l-138 114l139 155q-106 112 -106 311q0 190 110 306l-143 159l138 114l141 -181q95 40 216 40q129 0 221 -34l136 175l138 -114l-135 -151q102 -110 102 -314z
M588 258q91 0 143 76.5t52 219.5q0 295 -195 295t-195 -295q0 -143 52 -219.5t143 -76.5z" />
    <glyph glyph-name="yen" unicode="&#xa5;" horiz-adv-x="1449" 
d="M1394 1434l-4 -107l-36 -5q-59 -8 -84.5 -33.5t-95.5 -147.5l-186 -324h220v-130h-295l-52 -91v-41h347v-130h-347v-185q0 -65 17.5 -87t80.5 -32l82 -13l-4 -108h-636l4 108l92 16q45 8 60.5 32t15.5 84v185h-347v130h347v41l-53 91h-294v130h219l-188 324
q-71 123 -94 148t-72 33l-28 5l-4 107h603l-4 -107l-48 -6q-86 -10 -86 -64q0 -34 33 -91l224 -389l216 389q36 64 36 97q0 26 -20.5 39t-65.5 18l-58 7l4 107h501z" />
    <glyph glyph-name="brokenbar" unicode="&#xa6;" horiz-adv-x="493" 
d="M344 862h-193v697h193v-697zM344 -430h-193v696h193v-696z" />
    <glyph glyph-name="section" unicode="&#xa7;" horiz-adv-x="1052" 
d="M738 257q80 -57 125 -126t45 -164q0 -155 -117 -242t-324 -87q-98 0 -192.5 27.5t-157.5 73.5q-9 60 -9 122q0 53 4 112l137 6q19 -104 77 -162.5t141 -58.5q75 0 120 39t45 106q0 51 -29.5 95t-77 77.5t-105 66.5t-115 70.5t-105 80t-77 105t-29.5 136.5q0 115 63.5 196
t179.5 119q-85 59 -133 128.5t-48 164.5q0 148 109 232t303 84q74 0 172.5 -24t153.5 -24v-263l-132 -6q-20 95 -69 146t-122 51q-67 0 -106 -35.5t-39 -96.5q0 -51 30 -94t78 -75.5t106 -64.5t116 -69t106 -80t78 -106.5t30 -140.5q0 -113 -60.5 -195t-171.5 -124zM329 605
q0 -42 17.5 -77t61.5 -69t73.5 -52t96.5 -54q21 -11 31 -17q57 21 89 64.5t32 103.5q0 43 -19 79.5t-59.5 69.5t-75.5 54.5t-96 55.5q-3 2 -4.5 2.5t-4 2t-4.5 2.5q-65 -15 -101.5 -58t-36.5 -107z" />
    <glyph glyph-name="dieresis" unicode="&#xa8;" 
d="M164 1368q0 58 40.5 96.5t99.5 38.5t99.5 -38.5t40.5 -96.5t-40.5 -97t-99.5 -39t-99.5 39t-40.5 97zM580 1368q0 58 40.5 96.5t99.5 38.5t99.5 -38.5t40.5 -96.5t-40.5 -97t-99.5 -39t-99.5 39t-40.5 97z" />
    <glyph glyph-name="copyright" unicode="&#xa9;" horiz-adv-x="1712" 
d="M86 717q0 218 103.5 395.5t279.5 276t387 98.5q220 0 396 -99t275 -275t99 -396q0 -218 -103.5 -395.5t-279.5 -276t-387 -98.5t-387 98.5t-279.5 276t-103.5 395.5zM240 717q0 -134 48 -252t130.5 -201t196 -131t241.5 -48t241.5 48t196 131t130.5 201t48 252t-48 252
t-130.5 201t-196 131t-241.5 48t-241.5 -48t-196 -131t-130.5 -201t-48 -252zM892 1069q66 0 135 -13t98 -13q2 -48 2 -95q0 -69 -2 -88l-102 -6q-15 128 -124 128q-158 0 -158 -264q0 -265 158 -265q120 0 135 135l99 -6v-170q-100 -47 -241 -47q-178 0 -267.5 91.5
t-89.5 261.5q0 166 99 258.5t258 92.5z" />
    <glyph glyph-name="ordfeminine" unicode="&#xaa;" horiz-adv-x="849" 
d="M398 1155q30 0 84 -6v84q0 68 -19.5 99t-62.5 31q-27 0 -48.5 -12t-36 -29.5t-30 -35t-38 -29.5t-51.5 -12q-41 0 -63.5 23.5t-22.5 65.5q0 21 7 43q129 77 294 77q151 0 217 -56.5t66 -184.5v-266q0 -59 9.5 -80.5t35.5 -21.5q21 0 39 10l12 -70q-71 -53 -169 -53
q-62 0 -92 28t-32 88q-33 -56 -88.5 -87.5t-119.5 -31.5q-95 0 -152 55.5t-57 146.5q0 106 83.5 165t234.5 59zM372 859q68 0 110 76v129q-36 4 -60 4q-135 0 -135 -110q0 -47 22 -73t63 -26zM110 598h643v-113h-643v113z" />
    <glyph glyph-name="guillemotleft" unicode="&#xab;" horiz-adv-x="1114" 
d="M567 872l-237 -334q135 -209 237 -354l-117 -81q-108 58 -385 425q277 367 385 425zM1026 872l-236 -334q146 -226 236 -354l-116 -81q-108 58 -385 425q277 367 385 425z" />
    <glyph glyph-name="logicalnot" unicode="&#xac;" horiz-adv-x="1079" 
d="M945 182h-181v325h-640v159h821v-484z" />
    <glyph glyph-name="registered" unicode="&#xae;" horiz-adv-x="1712" 
d="M856 1487q220 0 396 -99t275 -275t99 -396q0 -218 -103.5 -395.5t-279.5 -276t-387 -98.5t-387 98.5t-279.5 276t-103.5 395.5t103.5 395.5t279.5 276t387 98.5zM856 85q128 0 241.5 48t196 131t130.5 201t48 252t-48 252t-130.5 201t-196 131t-241.5 48t-241.5 -48
t-196 -131t-130.5 -201t-48 -252t48 -252t130.5 -201t196 -131t241.5 -48zM1147 495q13 -25 23 -34.5t26 -12.5l11 -2l-2 -60q-45 -12 -109 -12q-66 0 -95.5 22t-58.5 93l-45 109q-16 38 -33 52t-50 14q-11 0 -27 -2v-163q0 -26 6.5 -35t29.5 -13l23 -4l-2 -66h-305l2 66
l26 5q22 5 28.5 13.5t6.5 33.5v436q0 26 -7 35t-34 14l-20 4l-2 66h76q49 0 122.5 2t116.5 2q148 0 216.5 -42t68.5 -134q0 -60 -39 -102.5t-110 -60.5q55 -16 86 -74q13 -25 37 -77.5t34 -72.5zM841 749q52 0 80.5 29.5t28.5 83.5q0 114 -103 114q-26 0 -62 -4v-219
q34 -4 56 -4z" />
    <glyph glyph-name="macron" unicode="&#xaf;" 
d="M801 1283h-578v153h578v-153z" />
    <glyph glyph-name="degree" unicode="&#xb0;" horiz-adv-x="731" 
d="M74 1274q0 127 86.5 207.5t204.5 80.5q140 0 215.5 -77.5t75.5 -210.5q0 -123 -85 -205t-206 -82q-132 0 -211.5 80.5t-79.5 206.5zM238 1274q0 -62 36.5 -103t90.5 -41t91 41t37 103q0 66 -35 105t-93 39t-92.5 -39t-34.5 -105z" />
    <glyph glyph-name="plusminus" unicode="&#xb1;" horiz-adv-x="1128" 
d="M1020 775v-161h-365v-336h-181v336h-366v161h366v336h181v-336h365zM108 186h912v-162h-912v162z" />
    <glyph glyph-name="twosuperior" unicode="&#xb2;" horiz-adv-x="696" 
d="M633 890v-145h-577v109q333 278 333 493q0 70 -30.5 101.5t-96.5 31.5q-97 0 -177 -74l-26 126q45 38 122.5 61t159.5 23q136 0 206 -62.5t70 -182.5q0 -131 -85.5 -256.5t-250.5 -234.5q98 10 185 10h167z" />
    <glyph glyph-name="threesuperior" unicode="&#xb3;" horiz-adv-x="729" 
d="M463 1197q203 -38 203 -211q0 -122 -92 -188.5t-259 -66.5q-153 0 -262 53q-6 26 -6 42q0 90 78 90q27 0 50 -13t37.5 -29t40 -29t57.5 -13q59 0 93 40.5t34 111.5q0 74 -51.5 109.5t-158.5 35.5q-28 0 -72 -7l-7 110q261 0 261 146q0 114 -131 114q-88 0 -175 -62
l-26 113q106 73 278 73q135 0 209 -55t74 -155q0 -79 -45.5 -132.5t-129.5 -76.5z" />
    <glyph glyph-name="acute" unicode="&#xb4;" 
d="M272 1312l378 248q67 -77 102 -169l-408 -201q-47 49 -72 122z" />
    <glyph glyph-name="uni00B5" unicode="&#xb5;" horiz-adv-x="1314" 
d="M1242 118l-4 -106l-360 -32q-19 71 -24 180q-50 -87 -132 -136t-178 -49q-46 0 -84 9q7 -89 7 -149v-241l-280 -40v1263q0 57 -12 76.5t-54 28.5l-48 10l-4 100l401 49v-734q0 -99 38 -147t118 -48q131 0 203 130v535q0 57 -13.5 75.5t-62.5 29.5l-48 10l-4 100l411 49
v-849q0 -56 16 -78t64 -29z" />
    <glyph glyph-name="paragraph" unicode="&#xb6;" horiz-adv-x="1239" 
d="M57 986q0 196 132 322t337 126h164v-1792h-164v897q-209 0 -339 120t-130 327zM1160 1434l-4 -107l-71 -11q-45 -7 -60.5 -28t-15.5 -71v-1575h-165v1792h316z" />
    <glyph glyph-name="periodcentered" unicode="&#xb7;" horiz-adv-x="538" 
d="M99 586q0 74 48.5 122.5t122.5 48.5t122.5 -48.5t48.5 -122.5t-48.5 -122.5t-122.5 -48.5t-122.5 48.5t-48.5 122.5z" />
    <glyph glyph-name="cedilla" unicode="&#xb8;" 
d="M588 46l-72 -151q97 0 155.5 -48t58.5 -127q0 -99 -69.5 -157t-190.5 -58q-103 0 -176 61q10 58 34 91q55 -41 127 -41q44 0 69.5 22.5t25.5 62.5q0 42 -38.5 65.5t-108.5 23.5l-27 57l85 199h127z" />
    <glyph glyph-name="onesuperior" unicode="&#xb9;" horiz-adv-x="577" 
d="M546 827l-2 -82h-475l2 82l57 9q42 6 59 18.5t17 41.5v547q-53 -19 -122 -31l-27 -5l-13 79l248 120h131v-710q0 -31 15 -42t63 -19z" />
    <glyph glyph-name="ordmasculine" unicode="&#xba;" horiz-adv-x="845" 
d="M59 1092q0 174 101.5 268t262.5 94q364 0 364 -362q0 -170 -100 -266.5t-264 -96.5q-175 0 -269.5 94.5t-94.5 268.5zM289 1092q0 -127 34.5 -193t99.5 -66t99 65.5t34 193.5q0 135 -32 196.5t-101 61.5t-101.5 -61.5t-32.5 -196.5zM750 485h-654v113h654v-113z" />
    <glyph glyph-name="guillemotright" unicode="&#xbb;" horiz-adv-x="1114" 
d="M87 872l117 81q108 -58 385 -425q-277 -367 -385 -425l-117 81l236 334q-146 226 -236 354zM547 872l117 81q108 -58 385 -425q-277 -367 -385 -425l-117 81l236 334q-146 226 -236 354z" />
    <glyph glyph-name="onequarter" unicode="&#xbc;" horiz-adv-x="1701" 
d="M1416 1536l-1063 -1638h-175l1063 1638h175zM71 664l57 8q42 6 59 18.5t17 41.5v547q-53 -19 -122 -31l-27 -5l-13 79l248 120h131v-710q0 -31 15 -42t63 -19l47 -7l-2 -82h-475zM1648 337v-124h-96v-213h-207v213h-376v88l387 552h196v-516h96zM1359 337v317l-228 -317
h228z" />
    <glyph glyph-name="onehalf" unicode="&#xbd;" horiz-adv-x="1712" 
d="M1416 1536l-1063 -1638h-175l1063 1638h175zM71 664l57 8q42 6 59 18.5t17 41.5v547q-53 -19 -122 -31l-27 -5l-13 79l248 120h131v-710q0 -31 15 -42t63 -19l47 -7l-2 -82h-475zM1649 144v-144h-576v109q332 277 332 493q0 70 -30.5 101.5t-96.5 31.5q-96 0 -176 -74
l-27 126q45 37 122.5 60t159.5 23q136 0 206.5 -62.5t70.5 -182.5q0 -266 -337 -490q88 9 186 9h166z" />
    <glyph glyph-name="threequarters" unicode="&#xbe;" horiz-adv-x="1853" 
d="M1567 1536l-1063 -1638h-175l1063 1638h175zM666 822q0 -122 -92 -188.5t-259 -66.5q-153 0 -262 53q-6 26 -6 42q0 91 78 91q27 0 50 -13.5t37.5 -29t40 -29t57.5 -13.5q59 0 93 41t34 112q0 74 -51 109t-159 35q-28 0 -72 -7l-7 110q261 0 261 146q0 115 -131 115
q-86 0 -175 -63l-26 113q106 73 278 73q135 0 209 -55t74 -155q0 -79 -45.5 -132.5t-129.5 -76.5q203 -38 203 -211zM1799 337v-124h-96v-213h-207v213h-376v88l387 552h196v-516h96zM1510 337v317l-228 -317h228z" />
    <glyph glyph-name="questiondown" unicode="&#xbf;" horiz-adv-x="1009" 
d="M353 912q0 74 48.5 122.5t122.5 48.5t123 -48.5t49 -122.5t-49 -122.5t-123 -48.5t-122.5 48.5t-48.5 122.5zM477 -445q-192 0 -304.5 88.5t-112.5 240.5q0 72 22.5 131t58.5 98.5t79.5 73t86.5 63t79 60t58.5 72t22.5 91.5q0 58 -13 101l184 18q31 -64 31 -155
q0 -57 -18.5 -104.5t-47.5 -80.5t-64.5 -63l-71 -60t-64.5 -63.5t-47.5 -80.5t-18.5 -104q0 -85 42.5 -133.5t116.5 -48.5q75 0 119.5 42.5t63.5 137.5q16 82 51 117.5t100 35.5q45 0 79 -23t47 -63q-31 -191 -153 -291t-326 -100z" />
    <glyph glyph-name="Agrave" unicode="&#xc0;" horiz-adv-x="1423" 
d="M576 1905l377 -249q-25 -74 -71 -121l-408 201q35 92 102 169zM814 106l50 9q46 9 65.5 24.5t19.5 47.5q0 34 -23 106l-39 119h-464l-41 -119q-25 -72 -25 -108q0 -32 22.5 -47t79.5 -24l43 -8l-4 -106h-501l4 106l51 9q51 9 75.5 40.5t63.5 137.5l415 1146h229
l388 -1146q35 -105 58.5 -136t76.5 -42l40 -9l4 -106h-592zM841 555l-180 559l-190 -559h370z" />
    <glyph glyph-name="Aacute" unicode="&#xc1;" horiz-adv-x="1423" 
d="M980 1736l-407 -201q-47 49 -72 121l378 249q65 -75 101 -169zM814 106l50 9q46 9 65.5 24.5t19.5 47.5q0 34 -23 106l-39 119h-464l-41 -119q-25 -72 -25 -108q0 -32 22.5 -47t79.5 -24l43 -8l-4 -106h-501l4 106l51 9q51 9 75.5 40.5t63.5 137.5l415 1146h229
l388 -1146q35 -105 58.5 -136t76.5 -42l40 -9l4 -106h-592zM841 555l-180 559l-190 -559h370z" />
    <glyph glyph-name="Acircumflex" unicode="&#xc2;" horiz-adv-x="1423" 
d="M715 1694l-243 -143q-45 45 -66 110l314 238l315 -238q-20 -61 -69 -110zM814 106l50 9q46 9 65.5 24.5t19.5 47.5q0 34 -23 106l-39 119h-464l-41 -119q-25 -72 -25 -108q0 -32 22.5 -47t79.5 -24l43 -8l-4 -106h-501l4 106l51 9q51 9 75.5 40.5t63.5 137.5l415 1146
h229l388 -1146q35 -105 58.5 -136t76.5 -42l40 -9l4 -106h-592zM841 555l-180 559l-190 -559h370z" />
    <glyph glyph-name="Atilde" unicode="&#xc3;" horiz-adv-x="1423" 
d="M577 1655q-89 0 -150 -69l-31 108q31 54 90 90t116 36q71 0 144 -31t118 -31q88 0 150 69l30 -108q-31 -54 -89.5 -90t-115.5 -36q-71 0 -144 31t-118 31zM814 106l50 9q46 9 65.5 24.5t19.5 47.5q0 34 -23 106l-39 119h-464l-41 -119q-25 -72 -25 -108q0 -32 22.5 -47
t79.5 -24l43 -8l-4 -106h-501l4 106l51 9q51 9 75.5 40.5t63.5 137.5l415 1146h229l388 -1146q35 -105 58.5 -136t76.5 -42l40 -9l4 -106h-592zM841 555l-180 559l-190 -559h370z" />
    <glyph glyph-name="Adieresis" unicode="&#xc4;" horiz-adv-x="1423" 
d="M513 1577q-59 0 -99.5 38.5t-40.5 96.5t40.5 97t99.5 39t99 -39t40 -97t-40 -96.5t-99 -38.5zM928 1577q-59 0 -99.5 38.5t-40.5 96.5t40.5 97t99.5 39t99.5 -39t40.5 -97t-40.5 -96.5t-99.5 -38.5zM814 106l50 9q46 9 65.5 24.5t19.5 47.5q0 34 -23 106l-39 119h-464
l-41 -119q-25 -72 -25 -108q0 -32 22.5 -47t79.5 -24l43 -8l-4 -106h-501l4 106l51 9q51 9 75.5 40.5t63.5 137.5l415 1146h229l388 -1146q35 -105 58.5 -136t76.5 -42l40 -9l4 -106h-592zM841 555l-180 559l-190 -559h370z" />
    <glyph glyph-name="Aring" unicode="&#xc5;" horiz-adv-x="1423" 
d="M720 1530q-90 0 -147.5 56t-57.5 150q0 87 61 146.5t144 59.5q90 0 148 -56t58 -150q0 -87 -61.5 -146.5t-144.5 -59.5zM720 1833q-39 0 -66 -27t-27 -70t27 -70t66 -27t66.5 27t27.5 70t-27.5 70t-66.5 27zM814 106l50 9q46 9 65.5 24.5t19.5 47.5q0 34 -23 106l-39 119
h-464l-41 -119q-25 -72 -25 -108q0 -32 22.5 -47t79.5 -24l43 -8l-4 -106h-501l4 106l51 9q51 9 75.5 40.5t63.5 137.5l415 1146h229l388 -1146q35 -105 58.5 -136t76.5 -42l40 -9l4 -106h-592zM841 555l-180 559l-190 -559h370z" />
    <glyph glyph-name="AE" unicode="&#xc6;" horiz-adv-x="1933" 
d="M1700 373l163 -10q0 -169 -27 -363h-1073l4 106l63 13q46 10 61 29t15 68v237h-406l-86 -177q-38 -79 -38 -109q0 -23 18.5 -34.5t60.5 -18.5l43 -8l-4 -106h-487l4 106l50 9q51 9 78.5 32.5t58.5 86.5l481 971q23 46 23 68q0 35 -72 45l-63 9l-4 107h1240
q27 -194 27 -363l-163 -10q-17 143 -56 188.5t-147 45.5h-277v-499h236q49 0 67 20.5t32 88.5l9 41l136 4v-458l-136 4l-11 71q-7 48 -30 69t-67 21h-236v-429q0 -53 27 -71t109 -18h174q108 0 147 45.5t56 188.5zM906 600v696l-336 -696h336z" />
    <glyph glyph-name="Ccedilla" unicode="&#xc7;" horiz-adv-x="1314" 
d="M1238 409v-338q-176 -89 -405 -102l-35 -74q97 0 156 -48t59 -127q0 -99 -70 -157t-191 -58q-103 0 -176 61q10 56 35 91q55 -41 126 -41q44 0 69.5 22.5t25.5 62.5q0 42 -38.5 65.5t-108.5 23.5l-26 57l52 122q-308 19 -467.5 213.5t-159.5 534.5q0 174 53 316.5
t145.5 236.5t218.5 145t272 51q118 0 253.5 -25.5t198.5 -25.5q4 -79 4 -195q0 -112 -4 -172l-160 -10q-17 144 -86 212t-199 68q-183 0 -283 -154.5t-100 -446.5q0 -285 97.5 -443t285.5 -158q140 0 213.5 73t90.5 229z" />
    <glyph glyph-name="Egrave" unicode="&#xc8;" horiz-adv-x="1269" 
d="M499 1905l377 -249q-25 -74 -71 -121l-408 201q35 92 102 169zM92 1434h1047q27 -194 27 -363l-163 -10q-17 143 -56 188.5t-147 45.5h-277v-499h236q49 0 68 20.5t32 88.5l8 41l136 4v-458l-136 4l-11 71q-7 48 -30 69t-67 21h-236v-429q0 -53 27 -71t109 -18h174
q108 0 147 45.5t56 188.5l163 -10q0 -169 -27 -363h-1080l4 106l63 13q46 10 61 29t15 68v1001q0 54 -17 71.5t-81 30.5l-41 8z" />
    <glyph glyph-name="Eacute" unicode="&#xc9;" horiz-adv-x="1269" 
d="M465 1656l378 249q65 -75 101 -169l-407 -201q-47 49 -72 121zM92 1434h1047q27 -194 27 -363l-163 -10q-17 143 -56 188.5t-147 45.5h-277v-499h236q49 0 68 20.5t32 88.5l8 41l136 4v-458l-136 4l-11 71q-7 48 -30 69t-67 21h-236v-429q0 -53 27 -71t109 -18h174
q108 0 147 45.5t56 188.5l163 -10q0 -169 -27 -363h-1080l4 106l63 13q46 10 61 29t15 68v1001q0 54 -17 71.5t-81 30.5l-41 8z" />
    <glyph glyph-name="Ecircumflex" unicode="&#xca;" horiz-adv-x="1269" 
d="M648 1694l-243 -143q-46 46 -67 110l315 238l315 -238q-20 -61 -69 -110zM1036 373l163 -10q0 -169 -27 -363h-1080l4 106l63 13q46 10 61 29t15 68v1001q0 54 -17 71.5t-81 30.5l-41 8l-4 107h1047q27 -194 27 -363l-163 -10q-17 143 -56 188.5t-147 45.5h-277v-499h236
q49 0 68 20.5t32 88.5l8 41l136 4v-458l-136 4l-11 71q-7 48 -30 69t-67 21h-236v-429q0 -53 27 -71t109 -18h174q108 0 147 45.5t56 188.5z" />
    <glyph glyph-name="Edieresis" unicode="&#xcb;" horiz-adv-x="1269" 
d="M305 1712q0 58 40.5 97t99.5 39t99.5 -39t40.5 -97t-40.5 -96.5t-99.5 -38.5t-99.5 38.5t-40.5 96.5zM721 1712q0 58 40.5 97t99.5 39t99.5 -39t40.5 -97t-40.5 -96.5t-99.5 -38.5t-99.5 38.5t-40.5 96.5zM92 1434h1047q27 -194 27 -363l-163 -10q-17 143 -56 188.5
t-147 45.5h-277v-499h236q49 0 68 20.5t32 88.5l8 41l136 4v-458l-136 4l-11 71q-7 48 -30 69t-67 21h-236v-429q0 -53 27 -71t109 -18h174q108 0 147 45.5t56 188.5l163 -10q0 -169 -27 -363h-1080l4 106l63 13q46 10 61 29t15 68v1001q0 54 -17 71.5t-81 30.5l-41 8z" />
    <glyph glyph-name="Igrave" unicode="&#xcc;" horiz-adv-x="759" 
d="M242 1905l378 -249q-25 -72 -72 -121l-407 201q36 94 101 169zM671 1327l-72 -11q-45 -7 -60.5 -28t-15.5 -71v-1001q0 -54 16.5 -70.5t81.5 -28.5l54 -11l-4 -106h-579l4 106l63 13q46 10 61 29t15 68v1001q0 54 -17 71.5t-81 30.5l-41 8l-4 107h583z" />
    <glyph glyph-name="Iacute" unicode="&#xcd;" horiz-adv-x="759" 
d="M159 1656l377 249q67 -77 102 -169l-408 -201q-46 47 -71 121zM671 1327l-72 -11q-45 -7 -60.5 -28t-15.5 -71v-1001q0 -54 16.5 -70.5t81.5 -28.5l54 -11l-4 -106h-579l4 106l63 13q46 10 61 29t15 68v1001q0 54 -17 71.5t-81 30.5l-41 8l-4 107h583z" />
    <glyph glyph-name="Icircumflex" unicode="&#xce;" horiz-adv-x="759" 
d="M374 1694l-243 -143q-46 46 -67 110l315 238l315 -238q-20 -61 -69 -110zM671 1327l-72 -11q-45 -7 -60.5 -28t-15.5 -71v-1001q0 -54 16.5 -70.5t81.5 -28.5l54 -11l-4 -106h-579l4 106l63 13q46 10 61 29t15 68v1001q0 54 -17 71.5t-81 30.5l-41 8l-4 107h583z" />
    <glyph glyph-name="Idieresis" unicode="&#xcf;" horiz-adv-x="759" 
d="M31 1712q0 58 40.5 97t99.5 39t99.5 -39t40.5 -97t-40.5 -96.5t-99.5 -38.5t-99.5 38.5t-40.5 96.5zM447 1712q0 58 40.5 97t99.5 39t99.5 -39t40.5 -97t-40.5 -96.5t-99.5 -38.5t-99.5 38.5t-40.5 96.5zM671 1327l-72 -11q-45 -7 -60.5 -28t-15.5 -71v-1001
q0 -54 16.5 -70.5t81.5 -28.5l54 -11l-4 -106h-579l4 106l63 13q46 10 61 29t15 68v1001q0 54 -17 71.5t-81 30.5l-41 8l-4 107h583z" />
    <glyph glyph-name="Eth" unicode="&#xd0;" horiz-adv-x="1499" 
d="M677 1443q363 0 550 -184t187 -542q0 -328 -202 -527.5t-535 -199.5q-77 0 -223 5t-237 5h-125l4 106l63 13q46 10 61 29t15 68v451h-128v135h128v415q0 54 -17 71.5t-81 30.5l-41 8l-4 107h125q91 0 237 4.5t223 4.5zM654 127q213 0 330 154t117 436q0 286 -111.5 437.5
t-319.5 151.5q-92 0 -147 -10v-494h248v-135h-248v-439q0 -57 28.5 -79t102.5 -22z" />
    <glyph glyph-name="Ntilde" unicode="&#xd1;" horiz-adv-x="1521" 
d="M626 1655q-88 0 -150 -69l-30 108q31 54 89.5 90t115.5 36q71 0 144 -31t118 -31q89 0 150 69l31 -108q-31 -54 -90 -90t-116 -36q-71 0 -144 31t-118 31zM1455 1434l-4 -107l-71 -11q-45 -7 -60.5 -28t-15.5 -71v-1217h-278l-482 838q-83 144 -140 312q11 -136 11 -273
v-661q0 -54 16.5 -70.5t81.5 -28.5l54 -11l-4 -106h-471l4 106l63 13q46 10 61 29t15 68v1001q0 54 -17 71.5t-81 30.5l-41 8l-4 107h431l482 -838q78 -138 127 -273q-9 126 -9 234v660q0 54 -17 71.5t-81 30.5l-41 8l-4 107h475z" />
    <glyph glyph-name="Ograve" unicode="&#xd2;" horiz-adv-x="1544" 
d="M611 1905l377 -249q-25 -74 -71 -121l-408 201q35 92 102 169zM84 717q0 352 187.5 550.5t501.5 198.5q328 0 508 -196.5t180 -552.5q0 -221 -84 -391t-240.5 -264.5t-363.5 -94.5q-319 0 -504 206t-185 544zM397 717q0 -279 101 -440t275 -161t274.5 161t100.5 440
q0 294 -96.5 447.5t-278.5 153.5t-279 -154t-97 -447z" />
    <glyph glyph-name="Oacute" unicode="&#xd3;" horiz-adv-x="1544" 
d="M557 1656l377 249q67 -77 102 -169l-408 -201q-46 47 -71 121zM84 717q0 352 187.5 550.5t501.5 198.5q328 0 508 -196.5t180 -552.5q0 -221 -84 -391t-240.5 -264.5t-363.5 -94.5q-319 0 -504 206t-185 544zM397 717q0 -279 101 -440t275 -161t274.5 161t100.5 440
q0 294 -96.5 447.5t-278.5 153.5t-279 -154t-97 -447z" />
    <glyph glyph-name="Ocircumflex" unicode="&#xd4;" horiz-adv-x="1544" 
d="M767 1694l-243 -143q-45 45 -66 110l315 238l314 -238q-20 -61 -69 -110zM773 1466q328 0 508 -196.5t180 -552.5q0 -221 -84 -391t-240.5 -264.5t-363.5 -94.5q-319 0 -504 206t-185 544q0 352 187.5 550.5t501.5 198.5zM773 116q174 0 274.5 161t100.5 440
q0 294 -96.5 447.5t-278.5 153.5t-279 -154t-97 -447q0 -279 101 -440t275 -161z" />
    <glyph glyph-name="Otilde" unicode="&#xd5;" horiz-adv-x="1544" 
d="M916 1758q89 0 150 69l30 -108q-31 -54 -89.5 -90t-115.5 -36q-71 0 -144 31t-118 31q-89 0 -150 -69l-30 108q31 54 89.5 90t115.5 36q71 0 144 -31t118 -31zM84 717q0 352 187.5 550.5t501.5 198.5q328 0 508 -196.5t180 -552.5q0 -221 -84 -391t-240.5 -264.5
t-363.5 -94.5q-319 0 -504 206t-185 544zM397 717q0 -279 101 -440t275 -161t274.5 161t100.5 440q0 294 -96.5 447.5t-278.5 153.5t-279 -154t-97 -447z" />
    <glyph glyph-name="Odieresis" unicode="&#xd6;" horiz-adv-x="1544" 
d="M425 1712q0 58 40.5 97t99.5 39t99.5 -39t40.5 -97t-40.5 -96.5t-99.5 -38.5t-99.5 38.5t-40.5 96.5zM840 1712q0 58 40.5 97t99.5 39t99.5 -39t40.5 -97t-40.5 -96.5t-99.5 -38.5t-99.5 38.5t-40.5 96.5zM84 717q0 352 187.5 550.5t501.5 198.5q328 0 508 -196.5
t180 -552.5q0 -221 -84 -391t-240.5 -264.5t-363.5 -94.5q-319 0 -504 206t-185 544zM397 717q0 -279 101 -440t275 -161t274.5 161t100.5 440q0 294 -96.5 447.5t-278.5 153.5t-279 -154t-97 -447z" />
    <glyph glyph-name="multiply" unicode="&#xd7;" horiz-adv-x="1038" 
d="M637 568l309 -309l-122 -122l-309 309l-309 -309l-115 114l309 309l-309 310l123 122l309 -309l309 309l114 -115z" />
    <glyph glyph-name="Oslash" unicode="&#xd8;" horiz-adv-x="1544" 
d="M1220 1519l-68 -145q151 -89 230 -256t79 -401q0 -336 -188.5 -543t-500.5 -207q-137 0 -255 42l-70 -152l-122 58l71 152q-150 93 -231 261.5t-81 388.5q0 352 187.5 550.5t501.5 198.5q142 0 256 -37l69 148zM772 1318q-182 0 -278.5 -153.5t-96.5 -447.5
q0 -281 103 -443l451 995q-74 49 -179 49zM772 116q174 0 275 161t101 440q0 296 -99 450l-452 -997q77 -54 175 -54z" />
    <glyph glyph-name="Ugrave" unicode="&#xd9;" horiz-adv-x="1478" 
d="M590 1905l377 -249q-25 -74 -71 -121l-408 201q35 92 102 169zM639 1327l-71 -11q-45 -7 -60.5 -28t-15.5 -71v-704q0 -204 72.5 -301.5t223.5 -97.5q286 0 286 387v716q0 54 -17 72t-81 30l-45 8l4 107h489l-4 -107l-72 -11q-45 -7 -60.5 -28t-15.5 -71v-734
q0 -245 -135 -380.5t-381 -135.5q-283 0 -418 136.5t-135 421.5v692q0 54 -17 71.5t-81 30.5l-41 8l-4 107h583z" />
    <glyph glyph-name="Uacute" unicode="&#xda;" horiz-adv-x="1478" 
d="M582 1656l377 249q67 -77 102 -169l-408 -201q-46 47 -71 121zM639 1327l-71 -11q-45 -7 -60.5 -28t-15.5 -71v-704q0 -204 72.5 -301.5t223.5 -97.5q286 0 286 387v716q0 54 -17 72t-81 30l-45 8l4 107h489l-4 -107l-72 -11q-45 -7 -60.5 -28t-15.5 -71v-734
q0 -245 -135 -380.5t-381 -135.5q-283 0 -418 136.5t-135 421.5v692q0 54 -17 71.5t-81 30.5l-41 8l-4 107h583z" />
    <glyph glyph-name="Ucircumflex" unicode="&#xdb;" horiz-adv-x="1478" 
d="M768 1694l-243 -143q-46 46 -67 110l315 238l315 -238q-20 -61 -69 -110zM1424 1434l-4 -107l-72 -11q-45 -7 -60.5 -28t-15.5 -71v-734q0 -245 -135 -380.5t-381 -135.5q-283 0 -418 136.5t-135 421.5v692q0 54 -17 71.5t-81 30.5l-41 8l-4 107h583l-4 -107l-71 -11
q-45 -7 -60.5 -28t-15.5 -71v-704q0 -204 72.5 -301.5t223.5 -97.5q286 0 286 387v716q0 54 -17 72t-81 30l-45 8l4 107h489z" />
    <glyph glyph-name="Udieresis" unicode="&#xdc;" horiz-adv-x="1478" 
d="M425 1712q0 58 40.5 97t99.5 39t99.5 -39t40.5 -97t-40.5 -96.5t-99.5 -38.5t-99.5 38.5t-40.5 96.5zM841 1712q0 58 40.5 97t99.5 39t99.5 -39t40.5 -97t-40.5 -96.5t-99.5 -38.5t-99.5 38.5t-40.5 96.5zM639 1327l-71 -11q-45 -7 -60.5 -28t-15.5 -71v-704
q0 -204 72.5 -301.5t223.5 -97.5q286 0 286 387v716q0 54 -17 72t-81 30l-45 8l4 107h489l-4 -107l-72 -11q-45 -7 -60.5 -28t-15.5 -71v-734q0 -245 -135 -380.5t-381 -135.5q-283 0 -418 136.5t-135 421.5v692q0 54 -17 71.5t-81 30.5l-41 8l-4 107h583z" />
    <glyph glyph-name="Yacute" unicode="&#xdd;" horiz-adv-x="1353" 
d="M1011 1736l-408 -201q-46 47 -71 121l377 249q67 -77 102 -169zM1353 1434l-4 -107l-35 -5q-59 -8 -85 -34t-96 -147l-312 -545v-356q0 -65 17.5 -87t80.5 -32l82 -13l-4 -108h-636l4 108l91 16q45 8 60.5 32t15.5 84v356l-315 545q-71 123 -94 148t-72 33l-28 5l-4 107
h603l-4 -107l-48 -6q-87 -11 -87 -64q0 -34 33 -91l225 -389l216 389q36 64 36 97q0 26 -20.5 39t-65.5 18l-59 7l4 107h501z" />
    <glyph glyph-name="Thorn" unicode="&#xde;" horiz-adv-x="1286" 
d="M654 292q-66 0 -131 6v-58q0 -65 17.5 -87t80.5 -32l82 -13l-4 -108h-607l4 106l63 13q46 10 61 29t15 68v1001q0 54 -17 71.5t-81 30.5l-41 8l-4 107h583l-4 -107l-72 -11q-45 -7 -60.5 -28t-15.5 -71v-64q100 2 154 2q282 0 418.5 -105.5t136.5 -325.5
q0 -201 -154.5 -316.5t-423.5 -115.5zM670 1018q-92 0 -147 -10v-569q65 -6 131 -6q133 0 206 75t73 216q0 294 -263 294z" />
    <glyph glyph-name="germandbls" unicode="&#xdf;" horiz-adv-x="1300" 
d="M928 829q0 -38 17 -71.5t44.5 -59t61 -51.5t66.5 -56.5t60.5 -65.5t44.5 -87t17 -114q0 -153 -104 -251t-269 -98q-163 0 -290 81q-9 69 -9 120q0 34 3 83l116 5q19 -83 56 -122.5t96 -39.5q66 0 102 41.5t36 114.5q0 41 -16.5 76.5t-43 62.5t-58 53t-63.5 54.5
t-58.5 59.5t-43 75t-16.5 95q0 59 15.5 111t37.5 91l44 78t37.5 89t15.5 107q0 75 -40 117.5t-111 42.5q-107 0 -150.5 -100t-43.5 -347v-923h-402l4 104l49 11q41 9 53.5 26.5t12.5 68.5v704h-115l-4 127l134 11q18 237 136 351.5t343 114.5q181 0 284.5 -73t103.5 -200
q0 -67 -24 -126.5t-52.5 -96.5t-52.5 -88.5t-24 -104.5z" />
    <glyph glyph-name="agrave" unicode="&#xe0;" horiz-adv-x="1101" 
d="M352 1560l378 -248q-25 -73 -72 -122l-407 201q36 94 101 169zM1075 156l18 -95q-99 -82 -234 -82q-87 0 -129.5 43t-45.5 133q-51 -84 -133 -132t-174 -48q-140 0 -225 83.5t-85 221.5q0 160 124 250.5t344 90.5q60 0 130 -10v128q0 114 -33 166t-104 52
q-41 0 -74 -17.5t-55.5 -43l-45 -51t-54 -43t-70.5 -17.5q-54 0 -84.5 32.5t-30.5 89.5q0 31 8 59q186 115 419 115q212 0 304.5 -86.5t92.5 -283.5v-411q0 -95 14.5 -128.5t57.5 -33.5q34 0 65 18zM475 152q119 0 190 135v205q-54 7 -100 7q-110 0 -168 -47t-58 -137
q0 -76 36.5 -119.5t99.5 -43.5z" />
    <glyph glyph-name="aacute" unicode="&#xe1;" horiz-adv-x="1101" 
d="M829 1391l-408 -201q-45 47 -71 122l378 248q65 -75 101 -169zM1075 156l18 -95q-97 -81 -234 -81q-88 0 -130 42.5t-45 132.5q-51 -84 -133 -132t-174 -48q-140 0 -225 83.5t-85 221.5q0 160 124 250.5t344 90.5q60 0 130 -10v128q0 114 -33 166t-104 52
q-41 0 -74 -17.5t-55.5 -43l-45 -51t-54 -43t-70.5 -17.5q-54 0 -84.5 32.5t-30.5 89.5q0 31 8 59q186 115 419 115q212 0 304.5 -86.5t92.5 -283.5v-411q0 -95 14.5 -128.5t57.5 -33.5q34 0 65 18zM475 152q119 0 190 135v205q-54 7 -100 7q-110 0 -168 -47t-58 -137
q0 -76 36.5 -119.5t99.5 -43.5z" />
    <glyph glyph-name="acircumflex" unicode="&#xe2;" horiz-adv-x="1101" 
d="M521 1350l-242 -144q-46 46 -67 110l315 239l314 -239q-20 -61 -69 -110zM1075 156l18 -95q-97 -81 -234 -81q-88 0 -130 42.5t-45 132.5q-51 -84 -133 -132t-174 -48q-140 0 -225 83.5t-85 221.5q0 160 124 250.5t344 90.5q60 0 130 -10v128q0 114 -33 166t-104 52
q-41 0 -74 -17.5t-55.5 -43l-45 -51t-54 -43t-70.5 -17.5q-54 0 -84.5 32.5t-30.5 89.5q0 31 8 59q186 115 419 115q212 0 304.5 -86.5t92.5 -283.5v-411q0 -95 14.5 -128.5t57.5 -33.5q34 0 65 18zM475 152q119 0 190 135v205q-54 7 -100 7q-110 0 -168 -47t-58 -137
q0 -76 36.5 -119.5t99.5 -43.5z" />
    <glyph glyph-name="atilde" unicode="&#xe3;" horiz-adv-x="1101" 
d="M384 1311q-90 0 -151 -69l-30 108q31 54 89.5 90t115.5 36q71 0 144 -31t118 -31q88 0 150 69l31 -108q-31 -54 -90 -90t-116 -36q-71 0 -143.5 31t-117.5 31zM1075 156l18 -95q-97 -81 -234 -81q-88 0 -130 42.5t-45 132.5q-51 -84 -133 -132t-174 -48q-140 0 -225 83.5
t-85 221.5q0 160 124 250.5t344 90.5q60 0 130 -10v128q0 114 -33 166t-104 52q-41 0 -74 -17.5t-55.5 -43l-45 -51t-54 -43t-70.5 -17.5q-54 0 -84.5 32.5t-30.5 89.5q0 31 8 59q186 115 419 115q212 0 304.5 -86.5t92.5 -283.5v-411q0 -95 14.5 -128.5t57.5 -33.5
q34 0 65 18zM475 152q119 0 190 135v205q-54 7 -100 7q-110 0 -168 -47t-58 -137q0 -76 36.5 -119.5t99.5 -43.5z" />
    <glyph glyph-name="adieresis" unicode="&#xe4;" horiz-adv-x="1101" 
d="M319 1232q-59 0 -99.5 39t-40.5 97t40.5 96.5t99.5 38.5t99.5 -38.5t40.5 -96.5t-40.5 -97t-99.5 -39zM735 1232q-59 0 -99.5 39t-40.5 97t40.5 96.5t99.5 38.5t99 -38.5t40 -96.5t-40 -97t-99 -39zM1075 156l18 -95q-97 -81 -234 -81q-88 0 -130 42.5t-45 132.5
q-51 -84 -133 -132t-174 -48q-140 0 -225 83.5t-85 221.5q0 160 124 250.5t344 90.5q60 0 130 -10v128q0 114 -33 166t-104 52q-41 0 -74 -17.5t-55.5 -43l-45 -51t-54 -43t-70.5 -17.5q-54 0 -84.5 32.5t-30.5 89.5q0 31 8 59q186 115 419 115q212 0 304.5 -86.5
t92.5 -283.5v-411q0 -95 14.5 -128.5t57.5 -33.5q34 0 65 18zM475 152q119 0 190 135v205q-54 7 -100 7q-110 0 -168 -47t-58 -137q0 -76 36.5 -119.5t99.5 -43.5z" />
    <glyph glyph-name="aring" unicode="&#xe5;" horiz-adv-x="1101" 
d="M527 1186q-90 0 -148 56t-58 150q0 87 61.5 146.5t144.5 59.5q90 0 148 -56t58 -150q0 -87 -61.5 -146.5t-144.5 -59.5zM527 1489q-39 0 -66.5 -27t-27.5 -70t27.5 -70t66.5 -27t66 27t27 70t-27 70t-66 27zM1075 156l18 -95q-99 -82 -234 -82q-87 0 -129.5 43t-45.5 133
q-51 -84 -133 -132t-174 -48q-140 0 -225 83.5t-85 221.5q0 160 124 250.5t344 90.5q60 0 130 -10v128q0 114 -33 166t-104 52q-41 0 -74 -17.5t-55.5 -43l-45 -51t-54 -43t-70.5 -17.5q-54 0 -84.5 32.5t-30.5 89.5q0 31 8 59q186 115 419 115q212 0 304.5 -86.5
t92.5 -283.5v-411q0 -95 14.5 -128.5t57.5 -33.5q34 0 65 18zM475 152q119 0 190 135v205q-54 7 -100 7q-110 0 -168 -47t-58 -137q0 -76 36.5 -119.5t99.5 -43.5z" />
    <glyph glyph-name="ae" unicode="&#xe6;" horiz-adv-x="1679" 
d="M1255 146q83 0 148.5 23t129.5 73l51 -125q-90 -75 -187.5 -108.5t-229.5 -33.5q-287 0 -416 203q-52 -97 -149.5 -150t-224.5 -53q-140 0 -225 83.5t-85 221.5q0 168 124.5 263.5t343.5 95.5q74 0 130 -8v108q0 114 -33 166t-104 52q-41 0 -74 -17.5t-55.5 -43l-45 -51
t-54 -43t-70.5 -17.5q-54 0 -84.5 32.5t-30.5 89.5q0 31 8 59q186 115 419 115t306 -141q133 141 341 141q194 0 303.5 -118t109.5 -324q0 -76 -14 -102t-56 -26h-575q4 -183 83 -274t216 -91zM1157 939q-172 0 -197 -302h318q31 0 43 16t12 57q0 105 -48 167t-128 62z
M475 152q139 0 212 182q-21 82 -22 171q-54 7 -100 7q-110 0 -168 -50.5t-58 -146.5q0 -76 36.5 -119.5t99.5 -43.5z" />
    <glyph glyph-name="ccedilla" unicode="&#xe7;" horiz-adv-x="1005" 
d="M619 -22l-39 -83q97 0 155.5 -48t58.5 -127q0 -99 -69.5 -157t-190.5 -58q-104 0 -177 61q10 56 35 91q55 -41 127 -41q44 0 69 22.5t25 62.5q0 42 -38 65.5t-108 23.5l-27 57l56 131q-198 20 -307 163.5t-109 386.5q0 176 70 303t186.5 188.5t266.5 61.5q185 0 334 -82
q13 -31 13 -74q0 -58 -33 -92t-90 -34q-38 0 -65.5 14.5t-44 35l-33 41t-42.5 35t-61 14.5q-98 0 -150.5 -102.5t-52.5 -308.5q0 -182 70.5 -280.5t197.5 -98.5q135 0 257 96l51 -128q-149 -124 -335 -139z" />
    <glyph glyph-name="egrave" unicode="&#xe8;" horiz-adv-x="1093" 
d="M403 1560l378 -248q-25 -73 -72 -122l-407 201q36 94 101 169zM670 146q83 0 148.5 23t129.5 73l51 -125q-90 -75 -187.5 -108.5t-229.5 -33.5q-242 0 -372 145t-130 408q0 176 70 303t186.5 188.5t266.5 61.5q194 0 304 -114.5t110 -316.5q0 -76 -14.5 -102.5
t-56.5 -26.5h-575q1 -189 80.5 -282t218.5 -93zM572 939q-168 0 -195 -289h316q32 0 44 16t12 57q0 100 -48 158t-129 58z" />
    <glyph glyph-name="eacute" unicode="&#xe9;" horiz-adv-x="1093" 
d="M849 1391l-408 -201q-45 47 -71 122l378 248q65 -75 101 -169zM670 146q83 0 148.5 23t129.5 73l51 -125q-90 -75 -187.5 -108.5t-229.5 -33.5q-242 0 -372 145t-130 408q0 176 70 303t186.5 188.5t266.5 61.5q194 0 304 -114.5t110 -316.5q0 -76 -14.5 -102.5
t-56.5 -26.5h-575q1 -189 80.5 -282t218.5 -93zM572 939q-168 0 -195 -289h316q32 0 44 16t12 57q0 100 -48 158t-129 58z" />
    <glyph glyph-name="ecircumflex" unicode="&#xea;" horiz-adv-x="1093" 
d="M561 1350l-243 -144q-45 45 -66 110l315 239l314 -239q-20 -61 -69 -110zM670 146q83 0 148.5 23t129.5 73l51 -125q-90 -75 -187.5 -108.5t-229.5 -33.5q-242 0 -372 145t-130 408q0 176 70 303t186.5 188.5t266.5 61.5q194 0 304 -114.5t110 -316.5q0 -76 -14.5 -102.5
t-56.5 -26.5h-575q1 -189 80.5 -282t218.5 -93zM572 939q-168 0 -195 -289h316q32 0 44 16t12 57q0 100 -48 158t-129 58z" />
    <glyph glyph-name="edieresis" unicode="&#xeb;" horiz-adv-x="1093" 
d="M359 1232q-59 0 -99.5 39t-40.5 97t40.5 96.5t99.5 38.5t99.5 -38.5t40.5 -96.5t-40.5 -97t-99.5 -39zM774 1232q-59 0 -99 39t-40 97t40 96.5t99 38.5t99.5 -38.5t40.5 -96.5t-40.5 -97t-99.5 -39zM670 146q83 0 148.5 23t129.5 73l51 -125q-90 -75 -187.5 -108.5
t-229.5 -33.5q-242 0 -372 145t-130 408q0 176 70 303t186.5 188.5t266.5 61.5q194 0 304 -114.5t110 -316.5q0 -76 -14.5 -102.5t-56.5 -26.5h-575q1 -189 80.5 -282t218.5 -93zM572 939q-168 0 -195 -289h316q32 0 44 16t12 57q0 100 -48 158t-129 58z" />
    <glyph glyph-name="igrave" unicode="&#xec;" horiz-adv-x="673" 
d="M165 1560l378 -248q-25 -73 -72 -122l-407 201q36 94 101 169zM487 1081v-871q0 -56 15 -72.5t75 -25.5l51 -8l-4 -104h-539l4 104l49 11q41 9 53.5 26.5t12.5 68.5v607q0 57 -12.5 76.5t-54.5 28.5l-48 10l-4 100z" />
    <glyph glyph-name="iacute" unicode="&#xed;" horiz-adv-x="673" 
d="M96 1312l378 248q65 -75 101 -169l-407 -201q-47 49 -72 122zM487 1081v-871q0 -56 15 -72.5t75 -25.5l51 -8l-4 -104h-539l4 104l49 11q41 9 53.5 26.5t12.5 68.5v607q0 57 -12.5 76.5t-54.5 28.5l-48 10l-4 100z" />
    <glyph glyph-name="icircumflex" unicode="&#xee;" horiz-adv-x="673" 
d="M321 1350l-243 -144q-46 46 -67 110l315 239l315 -239q-19 -59 -70 -110zM487 1081v-871q0 -56 15 -72.5t75 -25.5l51 -8l-4 -104h-539l4 104l49 11q41 9 53.5 26.5t12.5 68.5v607q0 57 -12.5 76.5t-54.5 28.5l-48 10l-4 100z" />
    <glyph glyph-name="idieresis" unicode="&#xef;" horiz-adv-x="673" 
d="M-22 1368q0 58 40.5 96.5t99.5 38.5t99.5 -38.5t40.5 -96.5t-40.5 -97t-99.5 -39t-99.5 39t-40.5 97zM394 1368q0 58 40.5 96.5t99.5 38.5t99.5 -38.5t40.5 -96.5t-40.5 -97t-99.5 -39t-99.5 39t-40.5 97zM487 1081v-871q0 -56 15 -72.5t75 -25.5l51 -8l-4 -104h-539
l4 104l49 11q41 9 53.5 26.5t12.5 68.5v607q0 57 -12.5 76.5t-54.5 28.5l-48 10l-4 100z" />
    <glyph glyph-name="eth" unicode="&#xf0;" horiz-adv-x="1212" 
d="M885 1442l-109 -86q165 -114 250.5 -301t85.5 -435q0 -645 -515 -645q-249 0 -382.5 139t-133.5 398q0 249 132 392.5t358 143.5q101 0 177 -42.5t117 -119.5h3q-76 224 -272 358l-152 -119l-76 96l113 88q-108 50 -238 72l44 137q209 -18 370 -94l149 117zM597 117
q102 0 159.5 104t57.5 291q0 200 -53.5 293.5t-163.5 93.5t-164 -94t-54 -293q0 -187 58 -291t160 -104z" />
    <glyph glyph-name="ntilde" unicode="&#xf1;" horiz-adv-x="1296" 
d="M499 1311q-89 0 -150 -69l-31 108q31 54 89.5 90t115.5 36q71 0 144 -31t118 -31q89 0 150 69l31 -108q-31 -54 -90 -90t-116 -36q-71 0 -143.5 31t-117.5 31zM1271 104l-4 -104h-527l4 104l45 11q36 9 47 24.5t11 58.5v511q0 195 -159 195q-133 0 -205 -130v-576
q0 -48 13 -62t67 -23l50 -9l-5 -104h-526l4 104l48 11q41 9 53.5 26.5t12.5 68.5v607q0 57 -12 76.5t-54 28.5l-48 10l-4 100l352 49q20 -74 25 -185q51 88 137.5 136.5t195.5 48.5q166 0 252 -88t86 -258v-525q0 -56 15 -72.5t75 -25.5z" />
    <glyph glyph-name="ograve" unicode="&#xf2;" horiz-adv-x="1206" 
d="M458 1560l378 -248q-25 -73 -72 -122l-407 201q36 94 101 169zM80 528q0 176 70 303t186.5 188.5t266.5 61.5q257 0 389.5 -140.5t132.5 -412.5q0 -257 -144.5 -405t-377.5 -148q-249 0 -386 145.5t-137 407.5zM378 528q0 -197 59.5 -304t165.5 -107t165 107t59 304
q0 411 -224 411q-225 0 -225 -411z" />
    <glyph glyph-name="oacute" unicode="&#xf3;" horiz-adv-x="1206" 
d="M370 1312l378 248q65 -75 101 -169l-408 -201q-45 47 -71 122zM80 528q0 176 70 303t186.5 188.5t266.5 61.5q257 0 389.5 -140.5t132.5 -412.5q0 -257 -144.5 -405t-377.5 -148q-249 0 -386 145.5t-137 407.5zM378 528q0 -197 59.5 -304t165.5 -107t165 107t59 304
q0 411 -224 411q-225 0 -225 -411z" />
    <glyph glyph-name="ocircumflex" unicode="&#xf4;" horiz-adv-x="1206" 
d="M597 1350l-242 -144q-46 46 -67 110l315 239l315 -239q-19 -59 -70 -110zM603 1081q257 0 389.5 -140.5t132.5 -412.5q0 -257 -144.5 -405t-377.5 -148q-249 0 -386 145.5t-137 407.5q0 176 70 303t186.5 188.5t266.5 61.5zM603 117q106 0 165 107t59 304q0 411 -224 411
q-225 0 -225 -411q0 -197 59.5 -304t165.5 -107z" />
    <glyph glyph-name="otilde" unicode="&#xf5;" horiz-adv-x="1206" 
d="M746 1414q88 0 150 69l31 -108q-31 -54 -90 -90t-116 -36q-71 0 -143.5 31t-117.5 31q-90 0 -151 -69l-30 108q31 54 89.5 90t115.5 36q71 0 144 -31t118 -31zM80 528q0 176 70 303t186.5 188.5t266.5 61.5q257 0 389.5 -140.5t132.5 -412.5q0 -257 -144.5 -405
t-377.5 -148q-249 0 -386 145.5t-137 407.5zM378 528q0 -197 59.5 -304t165.5 -107t165 107t59 304q0 411 -224 411q-225 0 -225 -411z" />
    <glyph glyph-name="odieresis" unicode="&#xf6;" horiz-adv-x="1206" 
d="M255 1368q0 58 40.5 96.5t99.5 38.5t99.5 -38.5t40.5 -96.5t-40.5 -97t-99.5 -39t-99.5 39t-40.5 97zM671 1368q0 58 40.5 96.5t99.5 38.5t99 -38.5t40 -96.5t-40 -97t-99 -39t-99.5 39t-40.5 97zM80 528q0 176 70 303t186.5 188.5t266.5 61.5q257 0 389.5 -140.5
t132.5 -412.5q0 -257 -144.5 -405t-377.5 -148q-249 0 -386 145.5t-137 407.5zM378 528q0 -197 59.5 -304t165.5 -107t165 107t59 304q0 411 -224 411q-225 0 -225 -411z" />
    <glyph glyph-name="divide" unicode="&#xf7;" horiz-adv-x="1157" 
d="M425 972q0 68 42.5 110.5t110.5 42.5t111 -43t43 -110q0 -68 -43 -111t-111 -43q-67 0 -110 43t-43 111zM1068 483h-980v162h980v-162zM425 157q0 67 42.5 110t110.5 43t111 -43t43 -110t-43 -110.5t-111 -43.5q-67 0 -110 43t-43 111z" />
    <glyph glyph-name="oslash" unicode="&#xf8;" horiz-adv-x="1206" 
d="M960 1147l-63 -133q228 -128 228 -486q0 -257 -144.5 -405t-377.5 -148q-93 0 -179 24l-66 -142l-112 52l64 138q-112 66 -171 188.5t-59 292.5q0 176 70 303t186.5 188.5t266.5 61.5q95 0 180 -22l65 140zM603 939q-230 0 -230 -411q0 -166 43 -269l293 651
q-46 29 -106 29zM603 117q109 0 169.5 106.5t60.5 304.5q0 175 -41 275l-294 -654q46 -32 105 -32z" />
    <glyph glyph-name="ugrave" unicode="&#xf9;" horiz-adv-x="1284" 
d="M455 1560l377 -248q-26 -75 -71 -122l-408 201q35 92 102 169zM1233 118l-4 -106l-360 -32q-19 71 -24 180q-51 -88 -136.5 -136.5t-195.5 -48.5q-166 0 -250.5 88t-84.5 258v496q0 57 -12 76.5t-54 28.5l-48 10l-4 100l401 49v-734q0 -99 38 -147t118 -48q131 0 203 130
v535q0 57 -13.5 75.5t-62.5 29.5l-48 10l-4 100l411 49v-849q0 -56 16 -78t64 -29z" />
    <glyph glyph-name="uacute" unicode="&#xfa;" horiz-adv-x="1284" 
d="M918 1391l-407 -201q-47 49 -72 122l378 248q65 -75 101 -169zM1233 118l-4 -106l-360 -32q-19 71 -24 180q-51 -88 -136.5 -136.5t-195.5 -48.5q-166 0 -250.5 88t-84.5 258v496q0 57 -12 76.5t-54 28.5l-48 10l-4 100l401 49v-734q0 -99 38 -147t118 -48q131 0 203 130
v535q0 57 -13.5 75.5t-62.5 29.5l-48 10l-4 100l411 49v-849q0 -56 16 -78t64 -29z" />
    <glyph glyph-name="ucircumflex" unicode="&#xfb;" horiz-adv-x="1284" 
d="M622 1350l-243 -144q-45 45 -66 110l315 239l314 -239q-20 -61 -69 -110zM1233 118l-4 -106l-360 -32q-19 71 -24 180q-51 -88 -136.5 -136.5t-195.5 -48.5q-166 0 -250.5 88t-84.5 258v496q0 57 -12 76.5t-54 28.5l-48 10l-4 100l401 49v-734q0 -99 38 -147t118 -48
q131 0 203 130v535q0 57 -13.5 75.5t-62.5 29.5l-48 10l-4 100l411 49v-849q0 -56 16 -78t64 -29z" />
    <glyph glyph-name="udieresis" unicode="&#xfc;" horiz-adv-x="1284" 
d="M420 1232q-59 0 -99.5 39t-40.5 97t40.5 96.5t99.5 38.5t99.5 -38.5t40.5 -96.5t-40.5 -97t-99.5 -39zM835 1232q-59 0 -99 39t-40 97t40 96.5t99 38.5t99.5 -38.5t40.5 -96.5t-40.5 -97t-99.5 -39zM1233 118l-4 -106l-360 -32q-19 71 -24 180q-51 -88 -136.5 -136.5
t-195.5 -48.5q-166 0 -250.5 88t-84.5 258v496q0 57 -12 76.5t-54 28.5l-48 10l-4 100l401 49v-734q0 -99 38 -147t118 -48q131 0 203 130v535q0 57 -13.5 75.5t-62.5 29.5l-48 10l-4 100l411 49v-849q0 -56 16 -78t64 -29z" />
    <glyph glyph-name="yacute" unicode="&#xfd;" horiz-adv-x="1171" 
d="M914 1391l-408 -201q-45 47 -71 122l377 248q67 -77 102 -169zM1169 1056l-4 -104l-27 -6q-48 -10 -69 -30.5t-47 -86.5l-341 -848q-97 -241 -203.5 -336.5t-280.5 -95.5q-49 0 -96 12q-29 49 -29 102t31.5 84.5t83.5 31.5q29 0 69 -14t65 -14q60 0 97.5 41t81.5 155
l14 38q-50 35 -84 123l-280 720q-28 72 -44.5 91.5t-54.5 25.5l-38 7l-4 104h549l-5 -104l-45 -7q-41 -6 -59.5 -19.5t-18.5 -39.5q0 -25 13 -58l198 -539l200 539q17 48 17 66q0 23 -18 34t-62 17l-45 7l4 104h432z" />
    <glyph glyph-name="thorn" unicode="&#xfe;" horiz-adv-x="1220" 
d="M721 1081q200 0 308 -143t108 -408q0 -251 -131 -403t-347 -152q-149 0 -238 92q4 -85 4 -218v-59q0 -56 16.5 -73t81.5 -27l84 -13l-4 -107h-579l4 104l48 11q41 9 53.5 26.5t12.5 68.5v1474q0 57 -12 76.5t-54 28.5l-48 10l-4 100l401 49v-385q0 -133 -4 -218
q50 80 127 123t173 43zM593 130q120 0 183 100.5t63 292.5q0 186 -56 283.5t-163 97.5q-126 0 -195 -129v-562q70 -83 168 -83z" />
    <glyph glyph-name="ydieresis" unicode="&#xff;" horiz-adv-x="1171" 
d="M416 1232q-59 0 -99.5 39t-40.5 97t40.5 96.5t99.5 38.5t99.5 -38.5t40.5 -96.5t-40.5 -97t-99.5 -39zM832 1232q-59 0 -99.5 39t-40.5 97t40.5 96.5t99.5 38.5t99.5 -38.5t40.5 -96.5t-40.5 -97t-99.5 -39zM1169 1056l-4 -104l-27 -6q-48 -10 -69 -30.5t-47 -86.5
l-341 -848q-97 -241 -203.5 -336.5t-280.5 -95.5q-49 0 -96 12q-29 49 -29 102t31.5 84.5t83.5 31.5q29 0 69 -14t65 -14q60 0 97.5 41t81.5 155l14 38q-50 35 -84 123l-280 720q-28 72 -44.5 91.5t-54.5 25.5l-38 7l-4 104h549l-5 -104l-45 -7q-41 -6 -59.5 -19.5
t-18.5 -39.5q0 -25 13 -58l198 -539l200 539q17 48 17 66q0 23 -18 34t-62 17l-45 7l4 104h432z" />
    <glyph glyph-name="Amacron" unicode="&#x100;" horiz-adv-x="1423" 
d="M1009 1627h-577v154h577v-154zM814 106l50 9q46 9 65.5 24.5t19.5 47.5q0 34 -23 106l-39 119h-464l-41 -119q-25 -72 -25 -108q0 -32 22.5 -47t79.5 -24l43 -8l-4 -106h-501l4 106l51 9q51 9 75.5 40.5t63.5 137.5l415 1146h229l388 -1146q35 -105 58.5 -136t76.5 -42
l40 -9l4 -106h-592zM841 555l-180 559l-190 -559h370z" />
    <glyph glyph-name="amacron" unicode="&#x101;" horiz-adv-x="1101" 
d="M816 1283h-578v153h578v-153zM1075 156l18 -95q-97 -81 -234 -81q-88 0 -130 42.5t-45 132.5q-51 -84 -133 -132t-174 -48q-140 0 -225 83.5t-85 221.5q0 160 124 250.5t344 90.5q60 0 130 -10v128q0 114 -33 166t-104 52q-41 0 -74 -17.5t-55.5 -43l-45 -51t-54 -43
t-70.5 -17.5q-54 0 -84.5 32.5t-30.5 89.5q0 31 8 59q186 115 419 115q212 0 304.5 -86.5t92.5 -283.5v-411q0 -95 14.5 -128.5t57.5 -33.5q34 0 65 18zM475 152q119 0 190 135v205q-54 7 -100 7q-110 0 -168 -47t-58 -137q0 -76 36.5 -119.5t99.5 -43.5z" />
    <glyph glyph-name="Abreve" unicode="&#x102;" horiz-adv-x="1423" 
d="M720 1562q-120 0 -197 63.5t-104 184.5q20 16 56 27.5t66 11.5q42 -135 182 -135q139 0 181 135q30 0 64 -11.5t54 -27.5q-27 -121 -104.5 -184.5t-197.5 -63.5zM814 106l50 9q46 9 65.5 24.5t19.5 47.5q0 34 -23 106l-39 119h-464l-41 -119q-25 -72 -25 -108
q0 -32 22.5 -47t79.5 -24l43 -8l-4 -106h-501l4 106l51 9q51 9 75.5 40.5t63.5 137.5l415 1146h229l388 -1146q35 -105 58.5 -136t76.5 -42l40 -9l4 -106h-592zM841 555l-180 559l-190 -559h370z" />
    <glyph glyph-name="abreve" unicode="&#x103;" horiz-adv-x="1101" 
d="M527 1218q-120 0 -197.5 63.5t-104.5 184.5q20 16 56 27.5t66 11.5q42 -135 182 -135q139 0 181 135q30 0 64.5 -11.5t54.5 -27.5q-27 -121 -104.5 -184.5t-197.5 -63.5zM1075 156l18 -95q-97 -81 -234 -81q-88 0 -130 42.5t-45 132.5q-51 -84 -133 -132t-174 -48
q-140 0 -225 83.5t-85 221.5q0 160 124 250.5t344 90.5q60 0 130 -10v128q0 114 -33 166t-104 52q-41 0 -74 -17.5t-55.5 -43l-45 -51t-54 -43t-70.5 -17.5q-54 0 -84.5 32.5t-30.5 89.5q0 31 8 59q186 115 419 115q212 0 304.5 -86.5t92.5 -283.5v-411q0 -95 14.5 -128.5
t57.5 -33.5q34 0 65 18zM475 152q119 0 190 135v205q-54 7 -100 7q-110 0 -168 -47t-58 -137q0 -76 36.5 -119.5t99.5 -43.5z" />
    <glyph glyph-name="Aogonek" unicode="&#x104;" horiz-adv-x="1423" 
d="M1402 0h-244q-140 0 -221 -56t-81 -153q0 -58 27 -89t77 -31q68 0 113 45q29 -44 34 -98q-84 -81 -219 -81q-101 0 -163.5 56.5t-62.5 148.5q0 55 16 101.5t41.5 78.5t56 59.5t61 50.5t56 45.5t41.5 49.5t16 58q0 32 -24 108l-39 119h-464l-41 -119q-25 -72 -25 -108
q0 -32 22.5 -47t79.5 -24l43 -8l-4 -106h-501l4 106l51 9q51 9 75.5 40.5t63.5 137.5l415 1146h229l388 -1146q35 -105 58.5 -136t76.5 -42l40 -9zM841 555l-180 559l-190 -559h370z" />
    <glyph glyph-name="aogonek" unicode="&#x105;" horiz-adv-x="1101" 
d="M1067 -284q29 -44 34 -98q-84 -81 -219 -81q-101 0 -163.5 56.5t-62.5 148.5q0 74 44.5 139t118.5 101q-131 17 -135 173q-51 -84 -133 -132t-174 -48q-140 0 -225 83.5t-85 221.5q0 160 124 250.5t344 90.5q60 0 130 -10v128q0 114 -33 166t-104 52q-41 0 -74 -17.5
t-55.5 -43l-45 -51t-54 -43t-70.5 -17.5q-54 0 -84.5 32.5t-30.5 89.5q0 31 8 59q186 115 419 115q212 0 304.5 -86.5t92.5 -283.5v-411q0 -95 14.5 -128.5t57.5 -33.5q34 0 65 18l19 -101q-110 -50 -177 -126t-67 -150q0 -49 28.5 -78.5t75.5 -29.5q68 0 113 45zM475 152
q119 0 190 135v205q-54 7 -100 7q-110 0 -168 -47t-58 -137q0 -76 36.5 -119.5t99.5 -43.5z" />
    <glyph glyph-name="Cacute" unicode="&#x106;" horiz-adv-x="1314" 
d="M557 1656l377 249q67 -77 102 -169l-408 -201q-46 47 -71 121zM773 1466q118 0 253.5 -25.5t198.5 -25.5q4 -79 4 -195q0 -112 -4 -172l-160 -10q-17 144 -86 212t-199 68q-183 0 -283 -154.5t-100 -446.5q0 -285 97.5 -443t285.5 -158q140 0 213.5 73t90.5 229l154 -9
v-338q-95 -49 -219 -76.5t-246 -27.5q-337 0 -513 196.5t-176 553.5q0 174 53 316.5t145.5 236.5t218.5 145t272 51z" />
    <glyph glyph-name="cacute" unicode="&#x107;" horiz-adv-x="1005" 
d="M363 1312l377 248q67 -77 102 -169l-408 -201q-45 47 -71 122zM558 -25q-226 0 -352 145.5t-126 407.5q0 176 70 303t186.5 188.5t266.5 61.5q185 0 334 -82q13 -31 13 -74q0 -58 -33 -92t-90 -34q-38 0 -65.5 14.5t-44 35l-33 41t-42.5 35t-61 14.5q-98 0 -150.5 -102.5
t-52.5 -308.5q0 -182 70.5 -280.5t197.5 -98.5q135 0 257 96l51 -128q-89 -74 -183.5 -108t-212.5 -34z" />
    <glyph glyph-name="Ccircumflex" unicode="&#x108;" horiz-adv-x="1314" 
d="M740 1694l-243 -143q-46 46 -67 110l315 238l315 -238q-19 -59 -70 -110zM1238 409v-338q-95 -49 -219 -76.5t-246 -27.5q-337 0 -513 196.5t-176 553.5q0 174 53 316.5t145.5 236.5t218.5 145t272 51q118 0 253.5 -25.5t198.5 -25.5q4 -79 4 -195q0 -112 -4 -172
l-160 -10q-17 144 -86 212t-199 68q-183 0 -283 -154.5t-100 -446.5q0 -285 97.5 -443t285.5 -158q140 0 213.5 73t90.5 229z" />
    <glyph glyph-name="ccircumflex" unicode="&#x109;" horiz-adv-x="1005" 
d="M556 1350l-243 -144q-46 46 -67 110l315 239l315 -239q-20 -61 -69 -110zM903 245l51 -128q-89 -74 -183.5 -108t-212.5 -34q-226 0 -352 145.5t-126 407.5q0 176 70 303t186.5 188.5t266.5 61.5q185 0 334 -82q13 -31 13 -74q0 -58 -33 -92t-90 -34q-38 0 -65.5 14.5
t-44 35l-33 41t-42.5 35t-61 14.5q-98 0 -150.5 -102.5t-52.5 -308.5q0 -182 70.5 -280.5t197.5 -98.5q135 0 257 96z" />
    <glyph glyph-name="Cdotaccent" unicode="&#x10a;" horiz-adv-x="1314" 
d="M588 1716q0 65 44 106t113 41t112.5 -41t43.5 -106t-43.5 -105.5t-112.5 -40.5t-113 40.5t-44 105.5zM773 1466q118 0 253.5 -25.5t198.5 -25.5q4 -79 4 -195q0 -112 -4 -172l-160 -10q-17 144 -86 212t-199 68q-183 0 -283 -154.5t-100 -446.5q0 -285 97.5 -443
t285.5 -158q140 0 213.5 73t90.5 229l154 -9v-338q-95 -49 -219 -76.5t-246 -27.5q-337 0 -513 196.5t-176 553.5q0 174 53 316.5t145.5 236.5t218.5 145t272 51z" />
    <glyph glyph-name="cdotaccent" unicode="&#x10b;" horiz-adv-x="1005" 
d="M405 1372q0 65 43.5 105.5t112.5 40.5t113 -40.5t44 -105.5t-44 -106t-113 -41t-112.5 41t-43.5 106zM558 -25q-226 0 -352 145.5t-126 407.5q0 176 70 303t186.5 188.5t266.5 61.5q185 0 334 -82q13 -31 13 -74q0 -58 -33 -92t-90 -34q-38 0 -65.5 14.5t-44 35l-33 41
t-42.5 35t-61 14.5q-98 0 -150.5 -102.5t-52.5 -308.5q0 -182 70.5 -280.5t197.5 -98.5q135 0 257 96l51 -128q-89 -74 -183.5 -108t-212.5 -34z" />
    <glyph glyph-name="Ccaron" unicode="&#x10c;" horiz-adv-x="1314" 
d="M745 1541l-305 238q19 59 70 110l240 -142l233 142q45 -45 66 -110zM1238 409v-338q-95 -49 -219 -76.5t-246 -27.5q-337 0 -513 196.5t-176 553.5q0 174 53 316.5t145.5 236.5t218.5 145t272 51q118 0 253.5 -25.5t198.5 -25.5q4 -79 4 -195q0 -112 -4 -172l-160 -10
q-17 144 -86 212t-199 68q-183 0 -283 -154.5t-100 -446.5q0 -285 97.5 -443t285.5 -158q140 0 213.5 73t90.5 229z" />
    <glyph glyph-name="ccaron" unicode="&#x10d;" horiz-adv-x="1005" 
d="M561 1196l-304 239q19 59 69 109l241 -142l232 142q47 -47 67 -109zM903 245l51 -128q-89 -74 -183.5 -108t-212.5 -34q-226 0 -352 145.5t-126 407.5q0 176 70 303t186.5 188.5t266.5 61.5q185 0 334 -82q13 -31 13 -74q0 -58 -33 -92t-90 -34q-38 0 -65.5 14.5t-44 35
l-33 41t-42.5 35t-61 14.5q-98 0 -150.5 -102.5t-52.5 -308.5q0 -182 70.5 -280.5t197.5 -98.5q135 0 257 96z" />
    <glyph glyph-name="Dcaron" unicode="&#x10e;" horiz-adv-x="1499" 
d="M746 1541l-305 238q19 59 70 110l240 -142l233 142q45 -45 66 -110zM677 1443q363 0 550 -184t187 -542q0 -328 -202 -527.5t-535 -199.5q-77 0 -223 5t-237 5h-125l4 106l63 13q46 10 61 29t15 68v1001q0 54 -17 71.5t-81 30.5l-41 8l-4 107h125q91 0 237 4.5t223 4.5z
M654 127q213 0 330 154t117 436q0 286 -111.5 437.5t-319.5 151.5q-92 0 -147 -10v-1068q0 -57 28.5 -79t102.5 -22z" />
    <glyph glyph-name="dcaron" unicode="&#x10f;" horiz-adv-x="1273" 
d="M1223 1553q93 0 183 -22q-29 -206 -96 -382q-72 0 -140 25q44 215 53 379zM1078 1518v-1286q0 -56 16 -78t64 -29l50 -7l-4 -106l-360 -32q-19 71 -24 179q-50 -88 -133 -136t-187 -48q-200 0 -308 143t-108 408q0 251 130.5 403t346.5 152q150 0 239 -92q-5 107 -5 218
v47q0 57 -12.5 76.5t-54.5 28.5l-47 10l-5 100zM601 152q125 0 194 129v562q-70 83 -167 83q-120 0 -183 -100.5t-63 -292.5q0 -186 56 -283.5t163 -97.5z" />
    <glyph glyph-name="Dcroat" unicode="&#x110;" horiz-adv-x="1499" 
d="M677 1443q363 0 550 -184t187 -542q0 -328 -202 -527.5t-535 -199.5q-77 0 -223 5t-237 5h-125l4 106l63 13q46 10 61 29t15 68v451h-128v135h128v415q0 54 -17 71.5t-81 30.5l-41 8l-4 107h125q91 0 237 4.5t223 4.5zM654 127q213 0 330 154t117 436q0 286 -111.5 437.5
t-319.5 151.5q-92 0 -147 -10v-494h248v-135h-248v-439q0 -57 28.5 -79t102.5 -22z" />
    <glyph glyph-name="dcroat" unicode="&#x111;" horiz-adv-x="1253" 
d="M1208 118l-4 -106l-360 -32q-19 71 -24 179q-50 -88 -133 -136t-187 -48q-200 0 -308 143t-108 408q0 251 130.5 403t346.5 152q150 0 239 -92q-5 92 -5 187h-236v107h236v4q0 55 -8 73.5t-41 26.5l-42 9l-3 74l377 48v-231h118v-116h-118v-939q0 -56 16 -78t64 -29z
M601 152q125 0 194 129v562q-70 83 -167 83q-120 0 -183 -100.5t-63 -292.5q0 -186 56 -283.5t163 -97.5z" />
    <glyph glyph-name="Emacron" unicode="&#x112;" horiz-adv-x="1269" 
d="M942 1627h-578v154h578v-154zM92 1434h1047q27 -194 27 -363l-163 -10q-17 143 -56 188.5t-147 45.5h-277v-499h236q49 0 68 20.5t32 88.5l8 41l136 4v-458l-136 4l-11 71q-7 48 -30 69t-67 21h-236v-429q0 -53 27 -71t109 -18h174q108 0 147 45.5t56 188.5l163 -10
q0 -169 -27 -363h-1080l4 106l63 13q46 10 61 29t15 68v1001q0 54 -17 71.5t-81 30.5l-41 8z" />
    <glyph glyph-name="emacron" unicode="&#x113;" horiz-adv-x="1093" 
d="M856 1283h-578v153h578v-153zM670 146q83 0 148.5 23t129.5 73l51 -125q-90 -75 -187.5 -108.5t-229.5 -33.5q-242 0 -372 145t-130 408q0 176 70 303t186.5 188.5t266.5 61.5q194 0 304 -114.5t110 -316.5q0 -76 -14.5 -102.5t-56.5 -26.5h-575q1 -189 80.5 -282
t218.5 -93zM572 939q-168 0 -195 -289h316q32 0 44 16t12 57q0 100 -48 158t-129 58z" />
    <glyph glyph-name="Ebreve" unicode="&#x114;" horiz-adv-x="1269" 
d="M474 1849q42 -135 181 -135q140 0 182 135q30 0 64 -11.5t54 -27.5q-27 -121 -104.5 -184.5t-197.5 -63.5t-197.5 63.5t-104.5 184.5q19 16 56 27.5t67 11.5zM92 1434h1047q27 -194 27 -363l-163 -10q-17 143 -56 188.5t-147 45.5h-277v-499h236q49 0 68 20.5t32 88.5
l8 41l136 4v-458l-136 4l-11 71q-7 48 -30 69t-67 21h-236v-429q0 -53 27 -71t109 -18h174q108 0 147 45.5t56 188.5l163 -10q0 -169 -27 -363h-1080l4 106l63 13q46 10 61 29t15 68v1001q0 54 -17 71.5t-81 30.5l-41 8z" />
    <glyph glyph-name="ebreve" unicode="&#x115;" horiz-adv-x="1093" 
d="M567 1218q-120 0 -197.5 63.5t-104.5 184.5q20 16 56 27.5t66 11.5q42 -135 182 -135q139 0 181 135q30 0 64.5 -11.5t54.5 -27.5q-27 -121 -104.5 -184.5t-197.5 -63.5zM670 146q83 0 148.5 23t129.5 73l51 -125q-90 -75 -187.5 -108.5t-229.5 -33.5q-242 0 -372 145
t-130 408q0 176 70 303t186.5 188.5t266.5 61.5q194 0 304 -114.5t110 -316.5q0 -76 -14.5 -102.5t-56.5 -26.5h-575q1 -189 80.5 -282t218.5 -93zM572 939q-168 0 -195 -289h316q32 0 44 16t12 57q0 100 -48 158t-129 58z" />
    <glyph glyph-name="Edotaccent" unicode="&#x116;" horiz-adv-x="1269" 
d="M497 1716q0 65 43.5 106t112.5 41t113 -41t44 -106t-44 -105.5t-113 -40.5t-112.5 40.5t-43.5 105.5zM92 1434h1047q27 -194 27 -363l-163 -10q-17 143 -56 188.5t-147 45.5h-277v-499h236q49 0 68 20.5t32 88.5l8 41l136 4v-458l-136 4l-11 71q-7 48 -30 69t-67 21h-236
v-429q0 -53 27 -71t109 -18h174q108 0 147 45.5t56 188.5l163 -10q0 -169 -27 -363h-1080l4 106l63 13q46 10 61 29t15 68v1001q0 54 -17 71.5t-81 30.5l-41 8z" />
    <glyph glyph-name="edotaccent" unicode="&#x117;" horiz-adv-x="1093" 
d="M567 1225q-69 0 -113 41t-44 106t44 105.5t113 40.5t112.5 -40.5t43.5 -105.5t-43.5 -106t-112.5 -41zM670 146q83 0 148.5 23t129.5 73l51 -125q-90 -75 -187.5 -108.5t-229.5 -33.5q-242 0 -372 145t-130 408q0 176 70 303t186.5 188.5t266.5 61.5q194 0 304 -114.5
t110 -316.5q0 -76 -14.5 -102.5t-56.5 -26.5h-575q1 -189 80.5 -282t218.5 -93zM572 939q-168 0 -195 -289h316q32 0 44 16t12 57q0 100 -48 158t-129 58z" />
    <glyph glyph-name="Eogonek" unicode="&#x118;" horiz-adv-x="1269" 
d="M1172 0q-109 0 -190 -66t-81 -154q0 -50 28 -79.5t76 -29.5q68 0 113 45q29 -44 34 -98q-84 -81 -219 -81q-101 0 -163.5 56.5t-62.5 148.5q0 85 55 157t141 101h-811l4 106l63 13q46 10 61 29t15 68v1001q0 54 -17 71.5t-81 30.5l-41 8l-4 107h1047q27 -194 27 -363
l-163 -10q-17 143 -56 188.5t-147 45.5h-277v-499h236q49 0 68 20.5t32 88.5l8 41l136 4v-458l-136 4l-11 71q-7 48 -30 69t-67 21h-236v-429q0 -53 27 -71t109 -18h174q108 0 147 45.5t56 188.5l163 -10q0 -169 -27 -363z" />
    <glyph glyph-name="eogonek" unicode="&#x119;" horiz-adv-x="1093" 
d="M862 -329q68 0 113 45q29 -44 34 -98q-84 -81 -219 -81q-101 0 -163.5 56.5t-62.5 148.5q0 76 42 142.5t112 101.5q-66 -11 -136 -11q-242 0 -372 145t-130 408q0 176 70 303t186.5 188.5t266.5 61.5q194 0 304 -114.5t110 -316.5q0 -76 -14.5 -102.5t-56.5 -26.5h-575
q1 -189 80.5 -282t218.5 -93q83 0 148.5 23t129.5 73l55 -131q-116 -72 -180.5 -159.5t-64.5 -168.5q0 -52 28 -82t76 -30zM572 939q-168 0 -195 -289h316q32 0 44 16t12 57q0 100 -48 158t-129 58z" />
    <glyph glyph-name="Ecaron" unicode="&#x11a;" horiz-adv-x="1269" 
d="M653 1541l-304 238q20 61 69 110l240 -142l233 142q46 -46 67 -110zM1036 373l163 -10q0 -169 -27 -363h-1080l4 106l63 13q46 10 61 29t15 68v1001q0 54 -17 71.5t-81 30.5l-41 8l-4 107h1047q27 -194 27 -363l-163 -10q-17 143 -56 188.5t-147 45.5h-277v-499h236
q49 0 68 20.5t32 88.5l8 41l136 4v-458l-136 4l-11 71q-7 48 -30 69t-67 21h-236v-429q0 -53 27 -71t109 -18h174q108 0 147 45.5t56 188.5z" />
    <glyph glyph-name="ecaron" unicode="&#x11b;" horiz-adv-x="1093" 
d="M567 1196l-305 239q19 59 69 109l241 -142l232 142q47 -47 67 -109zM670 146q83 0 148.5 23t129.5 73l51 -125q-90 -75 -187.5 -108.5t-229.5 -33.5q-242 0 -372 145t-130 408q0 176 70 303t186.5 188.5t266.5 61.5q194 0 304 -114.5t110 -316.5q0 -76 -14.5 -102.5
t-56.5 -26.5h-575q1 -189 80.5 -282t218.5 -93zM572 939q-168 0 -195 -289h316q32 0 44 16t12 57q0 100 -48 158t-129 58z" />
    <glyph glyph-name="Gcircumflex" unicode="&#x11c;" horiz-adv-x="1458" 
d="M753 1694l-242 -143q-46 46 -67 110l315 238l314 -238q-20 -61 -69 -110zM1422 709l-4 -106l-56 -11q-46 -9 -61.5 -29t-15.5 -70v-440q-245 -86 -512 -86q-337 0 -513 196.5t-176 553.5q0 175 53 317t147 236t222.5 145t279.5 51q128 0 275.5 -25.5t208.5 -25.5
q4 -79 4 -195q0 -112 -4 -172l-160 -10q-16 142 -95 211t-222 69q-192 0 -294 -153.5t-102 -447.5q0 -278 97.5 -434.5t285.5 -156.5q133 0 234 37v330q0 54 -17 71.5t-81 30.5l-41 8l-4 106h551z" />
    <glyph glyph-name="gcircumflex" unicode="&#x11d;" horiz-adv-x="1132" 
d="M561 1350l-243 -144q-45 45 -66 110l314 239l315 -239q-20 -61 -69 -110zM1111 988q0 -47 -23 -68t-74 -21q-54 0 -166 40q56 -39 89 -100t33 -129q0 -151 -119.5 -246.5t-314.5 -95.5q-90 0 -165 20q-38 -32 -38 -70q0 -39 36 -61t120 -33l214 -29q202 -27 288.5 -90.5
t86.5 -185.5q0 -167 -147.5 -268.5t-391.5 -101.5q-226 0 -356 73.5t-130 200.5q0 81 57.5 142t163.5 94q-72 23 -111.5 69t-39.5 106q0 62 39 111.5t111 81.5q-85 46 -131 123t-46 174q0 167 122.5 262t317.5 95q118 0 211 -40q171 2 350 23q14 -38 14 -76zM536 500
q78 0 125.5 60.5t47.5 163.5q0 110 -44 167t-129 57t-129.5 -57t-44.5 -167q0 -103 47.5 -163.5t126.5 -60.5zM813 -143q0 54 -33.5 84t-116.5 49.5t-248 35.5q-122 -59 -122 -174q0 -82 68.5 -130t182.5 -48q121 0 195 50t74 133z" />
    <glyph glyph-name="Gbreve" unicode="&#x11e;" horiz-adv-x="1458" 
d="M759 1562q-120 0 -197.5 63.5t-104.5 184.5q20 16 56 27.5t66 11.5q42 -135 182 -135q139 0 181 135q30 0 64.5 -11.5t54.5 -27.5q-27 -121 -104.5 -184.5t-197.5 -63.5zM1422 709l-4 -106l-56 -11q-46 -9 -61.5 -29t-15.5 -70v-440q-245 -86 -512 -86q-337 0 -513 196.5
t-176 553.5q0 175 53 317t147 236t222.5 145t279.5 51q128 0 275.5 -25.5t208.5 -25.5q4 -79 4 -195q0 -112 -4 -172l-160 -10q-16 142 -95 211t-222 69q-192 0 -294 -153.5t-102 -447.5q0 -278 97.5 -434.5t285.5 -156.5q133 0 234 37v330q0 54 -17 71.5t-81 30.5l-41 8
l-4 106h551z" />
    <glyph glyph-name="gbreve" unicode="&#x11f;" horiz-adv-x="1132" 
d="M566 1218q-120 0 -197.5 63.5t-104.5 184.5q19 16 56 27.5t67 11.5q42 -135 181 -135q140 0 182 135q30 0 64 -11.5t54 -27.5q-27 -121 -104.5 -184.5t-197.5 -63.5zM1111 988q0 -47 -23 -68t-74 -21q-54 0 -166 40q56 -39 89 -100t33 -129q0 -151 -119.5 -246.5
t-314.5 -95.5q-90 0 -165 20q-38 -32 -38 -70q0 -39 36 -61t120 -33l214 -29q202 -27 288.5 -90.5t86.5 -185.5q0 -167 -147.5 -268.5t-391.5 -101.5q-226 0 -356 73.5t-130 200.5q0 81 57.5 142t163.5 94q-72 23 -111.5 69t-39.5 106q0 62 39 111.5t111 81.5
q-85 46 -131 123t-46 174q0 167 122.5 262t317.5 95q118 0 211 -40q171 2 350 23q14 -38 14 -76zM536 500q78 0 125.5 60.5t47.5 163.5q0 110 -44 167t-129 57t-129.5 -57t-44.5 -167q0 -103 47.5 -163.5t126.5 -60.5zM813 -143q0 54 -33.5 84t-116.5 49.5t-248 35.5
q-122 -59 -122 -174q0 -82 68.5 -130t182.5 -48q121 0 195 50t74 133z" />
    <glyph glyph-name="Gdotaccent" unicode="&#x120;" horiz-adv-x="1458" 
d="M759 1570q-69 0 -113 40.5t-44 105.5t44 106t113 41t112.5 -41t43.5 -106t-43.5 -105.5t-112.5 -40.5zM1422 709l-4 -106l-56 -11q-46 -9 -61.5 -29t-15.5 -70v-440q-245 -86 -512 -86q-337 0 -513 196.5t-176 553.5q0 175 53 317t147 236t222.5 145t279.5 51
q128 0 275.5 -25.5t208.5 -25.5q4 -79 4 -195q0 -112 -4 -172l-160 -10q-16 142 -95 211t-222 69q-192 0 -294 -153.5t-102 -447.5q0 -278 97.5 -434.5t285.5 -156.5q133 0 234 37v330q0 54 -17 71.5t-81 30.5l-41 8l-4 106h551z" />
    <glyph glyph-name="gdotaccent" unicode="&#x121;" horiz-adv-x="1132" 
d="M566 1225q-69 0 -112.5 41t-43.5 106t43.5 105.5t112.5 40.5t113 -40.5t44 -105.5t-44 -106t-113 -41zM1111 988q0 -47 -23 -68t-74 -21q-54 0 -166 40q56 -39 89 -100t33 -129q0 -151 -119.5 -246.5t-314.5 -95.5q-90 0 -165 20q-38 -32 -38 -70q0 -39 36 -61t120 -33
l214 -29q202 -27 288.5 -90.5t86.5 -185.5q0 -167 -147.5 -268.5t-391.5 -101.5q-226 0 -356 73.5t-130 200.5q0 81 57.5 142t163.5 94q-72 23 -111.5 69t-39.5 106q0 62 39 111.5t111 81.5q-85 46 -131 123t-46 174q0 167 122.5 262t317.5 95q118 0 211 -40q171 2 350 23
q14 -38 14 -76zM536 500q78 0 125.5 60.5t47.5 163.5q0 110 -44 167t-129 57t-129.5 -57t-44.5 -167q0 -103 47.5 -163.5t126.5 -60.5zM813 -143q0 54 -33.5 84t-116.5 49.5t-248 35.5q-122 -59 -122 -174q0 -82 68.5 -130t182.5 -48q121 0 195 50t74 133z" />
    <glyph glyph-name="Gcommaaccent" unicode="&#x122;" horiz-adv-x="1458" 
d="M1422 709l-4 -106l-56 -11q-46 -9 -61.5 -29t-15.5 -70v-440q-245 -86 -512 -86q-337 0 -513 196.5t-176 553.5q0 175 53 317t147 236t222.5 145t279.5 51q128 0 275.5 -25.5t208.5 -25.5q4 -79 4 -195q0 -112 -4 -172l-160 -10q-16 142 -95 211t-222 69
q-192 0 -294 -153.5t-102 -447.5q0 -278 97.5 -434.5t285.5 -156.5q133 0 234 37v330q0 54 -17 71.5t-81 30.5l-41 8l-4 106h551zM774 -83q63 0 96 -40t33 -116q0 -106 -63.5 -185t-164.5 -100q-30 18 -38 56q89 43 99 136q-42 11 -67 44.5t-25 78.5q0 55 36.5 90.5
t93.5 35.5z" />
    <glyph glyph-name="gcommaaccent" unicode="&#x123;" horiz-adv-x="1132" 
d="M566 1210q-128 0 -128 155q0 106 63 185t164 100q30 -18 38 -56q-88 -42 -98 -136q42 -11 67 -44t25 -78q0 -55 -37 -90.5t-94 -35.5zM1111 988q0 -47 -23 -68t-74 -21q-54 0 -166 40q56 -39 89 -100t33 -129q0 -151 -119.5 -246.5t-314.5 -95.5q-90 0 -165 20
q-38 -32 -38 -70q0 -39 36 -61t120 -33l214 -29q202 -27 288.5 -90.5t86.5 -185.5q0 -167 -147.5 -268.5t-391.5 -101.5q-226 0 -356 73.5t-130 200.5q0 81 57.5 142t163.5 94q-72 23 -111.5 69t-39.5 106q0 62 39 111.5t111 81.5q-85 46 -131 123t-46 174q0 167 122.5 262
t317.5 95q118 0 211 -40q171 2 350 23q14 -38 14 -76zM536 500q78 0 125.5 60.5t47.5 163.5q0 110 -44 167t-129 57t-129.5 -57t-44.5 -167q0 -103 47.5 -163.5t126.5 -60.5zM813 -143q0 54 -33.5 84t-116.5 49.5t-248 35.5q-122 -59 -122 -174q0 -82 68.5 -130t182.5 -48
q121 0 195 50t74 133z" />
    <glyph glyph-name="Hcircumflex" unicode="&#x124;" horiz-adv-x="1566" 
d="M782 1694l-243 -143q-45 45 -66 110l314 238l315 -238q-20 -61 -69 -110zM1331 1217v-1001q0 -54 16.5 -70.5t81.5 -28.5l53 -11l-4 -106h-575l4 106l63 13q43 9 57.5 28t14.5 69v444h-519v-444q0 -53 16.5 -70t78.5 -29l53 -11l-4 -106h-575l4 106l63 13q46 10 61 29
t15 68v1001q0 54 -17 71.5t-81 30.5l-41 8l-4 107h579l-4 -107l-68 -10q-44 -7 -60 -28.5t-16 -71.5v-409h519v409q0 54 -17.5 73t-79.5 30l-42 7l4 107h575l-4 -107l-71 -11q-45 -7 -60.5 -28t-15.5 -71z" />
    <glyph glyph-name="hcircumflex" unicode="&#x125;" horiz-adv-x="1275" 
d="M296 1694l-243 -143q-45 45 -66 110l314 238l315 -238q-20 -61 -69 -110zM1250 104l-4 -104h-528l4 104l46 11q36 9 47 24.5t11 58.5v511q0 195 -159 195q-133 0 -205 -130v-576q0 -48 13 -62t67 -23l49 -9l-4 -104h-527l4 104l49 11q41 9 53.5 26.5t12.5 68.5v1044
q0 57 -12.5 76.5t-54.5 28.5l-48 10l-4 100l402 35v-371q0 -113 -5 -220q51 80 132.5 124t181.5 44q166 0 252 -88t86 -258v-525q0 -56 15 -72.5t75 -25.5z" />
    <glyph glyph-name="Hbar" unicode="&#x126;" horiz-adv-x="1566" 
d="M1331 999v-783q0 -54 16.5 -70.5t81.5 -28.5l53 -11l-4 -106h-575l4 106l63 13q43 9 57.5 28t14.5 69v430h-519v-430q0 -53 16.5 -70t78.5 -29l53 -11l-4 -106h-575l4 106l63 13q46 10 61 29t15 68v783h-141v128h141v90q0 54 -17 71.5t-81 30.5l-41 8l-4 107h579l-4 -107
l-68 -10q-44 -7 -60 -28.5t-16 -71.5v-90h519v90q0 54 -17.5 73t-79.5 30l-42 7l4 107h575l-4 -107l-71 -11q-45 -7 -60.5 -28t-15.5 -71v-90h141v-128h-141zM1042 793v206h-519v-206h519z" />
    <glyph glyph-name="hbar" unicode="&#x127;" horiz-adv-x="1275" 
d="M1250 104l-4 -104h-528l4 104l46 11q36 9 47 24.5t11 58.5v511q0 195 -159 195q-133 0 -205 -130v-576q0 -48 13 -62t67 -23l49 -9l-4 -104h-527l4 104l49 11q41 9 53.5 26.5t12.5 68.5v961h-117v112h117v4q0 55 -8 73.5t-41 26.5l-42 9l-4 74l378 48v-231h237v-111h-237
v-43q0 -113 -5 -220q51 80 132.5 124t181.5 44q166 0 252 -88t86 -258v-525q0 -56 15 -72.5t75 -25.5z" />
    <glyph glyph-name="Itilde" unicode="&#x128;" horiz-adv-x="759" 
d="M522 1758q88 0 150 69l31 -108q-31 -54 -90 -90t-116 -36q-71 0 -143.5 31t-117.5 31q-88 0 -150 -69l-31 108q31 54 90 90t116 36q71 0 143.5 -31t117.5 -31zM671 1327l-72 -11q-45 -7 -60.5 -28t-15.5 -71v-1001q0 -54 16.5 -70.5t81.5 -28.5l54 -11l-4 -106h-579
l4 106l63 13q46 10 61 29t15 68v1001q0 54 -17 71.5t-81 30.5l-41 8l-4 107h583z" />
    <glyph glyph-name="itilde" unicode="&#x129;" horiz-adv-x="673" 
d="M469 1414q89 0 150 69l31 -108q-31 -54 -90 -90t-116 -36q-71 0 -143.5 31t-117.5 31q-89 0 -150 -69l-31 108q31 54 90 90t116 36q71 0 143.5 -31t117.5 -31zM487 1081v-871q0 -56 15 -72.5t75 -25.5l51 -8l-4 -104h-539l4 104l49 11q41 9 53.5 26.5t12.5 68.5v607
q0 57 -12.5 76.5t-54.5 28.5l-48 10l-4 100z" />
    <glyph glyph-name="Imacron" unicode="&#x12a;" horiz-adv-x="759" 
d="M672 1627h-578v154h578v-154zM671 1327l-72 -11q-45 -7 -60.5 -28t-15.5 -71v-1001q0 -54 16.5 -70.5t81.5 -28.5l54 -11l-4 -106h-579l4 106l63 13q46 10 61 29t15 68v1001q0 54 -17 71.5t-81 30.5l-41 8l-4 107h583z" />
    <glyph glyph-name="imacron" unicode="&#x12b;" horiz-adv-x="673" 
d="M615 1283h-578v153h578v-153zM487 1081v-871q0 -56 15 -72.5t75 -25.5l51 -8l-4 -104h-539l4 104l49 11q41 9 53.5 26.5t12.5 68.5v607q0 57 -12.5 76.5t-54.5 28.5l-48 10l-4 100z" />
    <glyph glyph-name="Ibreve" unicode="&#x12c;" horiz-adv-x="759" 
d="M200 1849q42 -135 181 -135t181 135q30 0 64.5 -11.5t54.5 -27.5q-27 -121 -104.5 -184.5t-197.5 -63.5t-197.5 63.5t-104.5 184.5q19 16 56 27.5t67 11.5zM671 1327l-72 -11q-45 -7 -60.5 -28t-15.5 -71v-1001q0 -54 16.5 -70.5t81.5 -28.5l54 -11l-4 -106h-579l4 106
l63 13q46 10 61 29t15 68v1001q0 54 -17 71.5t-81 30.5l-41 8l-4 107h583z" />
    <glyph glyph-name="ibreve" unicode="&#x12d;" horiz-adv-x="673" 
d="M147 1505q42 -135 181 -135t181 135q30 0 64.5 -11.5t54.5 -27.5q-27 -121 -104.5 -184.5t-197.5 -63.5t-197.5 63.5t-104.5 184.5q19 16 56 27.5t67 11.5zM487 1081v-871q0 -56 15 -72.5t75 -25.5l51 -8l-4 -104h-539l4 104l49 11q41 9 53.5 26.5t12.5 68.5v607
q0 57 -12.5 76.5t-54.5 28.5l-48 10l-4 100z" />
    <glyph glyph-name="Iogonek" unicode="&#x12e;" horiz-adv-x="759" 
d="M523 1217v-1001q0 -54 16.5 -70.5t81.5 -28.5l54 -11l-4 -106q-109 0 -190 -66t-81 -154q0 -50 28 -79.5t76 -29.5q68 0 113 45q29 -44 34 -98q-84 -81 -219 -81q-101 0 -163.5 56.5t-62.5 148.5q0 85 55 157t141 101h-310l4 106l63 13q46 10 61 29t15 68v1001
q0 54 -17 71.5t-81 30.5l-41 8l-4 107h583l-4 -107l-72 -11q-45 -7 -60.5 -28t-15.5 -71z" />
    <glyph glyph-name="iogonek" unicode="&#x12f;" horiz-adv-x="673" 
d="M326 1223q-71 0 -114.5 41t-43.5 108t43.5 108t114.5 41t115 -41t44 -108t-44 -108t-115 -41zM628 104l-4 -104q-109 0 -190 -66t-81 -154q0 -50 28 -79.5t76 -29.5q68 0 113 45q29 -44 34 -98q-84 -81 -219 -81q-101 0 -163.5 56.5t-62.5 148.5q0 85 55 157t141 101
h-270l4 104l49 11q41 9 53.5 26.5t12.5 68.5v607q0 57 -12.5 76.5t-54.5 28.5l-48 10l-4 100l402 49v-871q0 -56 15 -72.5t75 -25.5z" />
    <glyph glyph-name="Idotaccent" unicode="&#x130;" horiz-adv-x="759" 
d="M223 1716q0 65 43.5 106t112.5 41t113 -41t44 -106t-44 -105.5t-113 -40.5t-112.5 40.5t-43.5 105.5zM671 1327l-72 -11q-45 -7 -60.5 -28t-15.5 -71v-1001q0 -54 16.5 -70.5t81.5 -28.5l54 -11l-4 -106h-579l4 106l63 13q46 10 61 29t15 68v1001q0 54 -17 71.5t-81 30.5
l-41 8l-4 107h583z" />
    <glyph glyph-name="dotlessi" unicode="&#x131;" horiz-adv-x="673" 
d="M487 1081v-871q0 -56 15 -72.5t75 -25.5l51 -8l-4 -104h-539l4 104l49 11q41 9 53.5 26.5t12.5 68.5v607q0 57 -12.5 76.5t-54.5 28.5l-48 10l-4 100z" />
    <glyph glyph-name="IJ" unicode="&#x132;" horiz-adv-x="1482" 
d="M1266 1217v-869q0 -228 -36.5 -365.5t-119.5 -226.5q-117 -124 -342 -162q-42 39 -42 103q0 77 70 102q21 8 65.5 13t65.5 18q31 19 39 88t8 307v992q0 54 -16.5 71.5t-78.5 30.5l-41 8l-4 107h583l-4 -107l-71 -11q-45 -7 -60.5 -28t-15.5 -71zM671 1327l-72 -11
q-45 -7 -60.5 -28t-15.5 -71v-1001q0 -54 16.5 -70.5t81.5 -28.5l54 -11l-4 -106h-579l4 106l63 13q46 10 61 29t15 68v1001q0 54 -17 71.5t-81 30.5l-41 8l-4 107h583z" />
    <glyph glyph-name="ij" unicode="&#x133;" horiz-adv-x="1286" 
d="M168 1372q0 67 43.5 108t114.5 41t115 -41t44 -108t-44 -108t-115 -41t-114.5 41t-43.5 108zM818 1372q0 67 44 108t115 41t114.5 -41t43.5 -108t-43.5 -108t-114.5 -41t-115 41t-44 108zM487 1081v-871q0 -56 15 -72.5t75 -25.5l51 -8l-4 -104h-539l4 104l49 11
q41 9 53.5 26.5t12.5 68.5v607q0 57 -12.5 76.5t-54.5 28.5l-48 10l-4 100zM1137 1081v-758q0 -232 -35.5 -378t-117.5 -234q-117 -125 -339 -162q-42 39 -42 103q0 73 70 98q21 8 65.5 13t65.5 18q31 19 39 90t8 309v637q0 57 -12 77t-52 28l-47 10l-5 100z" />
    <glyph glyph-name="Jcircumflex" unicode="&#x134;" horiz-adv-x="722" 
d="M357 1694l-243 -143q-45 45 -66 110l315 238l314 -238q-20 -61 -69 -110zM75 1434h584l-5 -107l-71 -11q-45 -7 -60.5 -28t-15.5 -71v-869q0 -228 -36.5 -365.5t-119.5 -226.5q-117 -124 -342 -162q-42 39 -42 103q0 77 70 102q21 8 65.5 13t65.5 18q31 20 39.5 89.5
t8.5 305.5v992q0 54 -17 71.5t-79 30.5l-41 8z" />
    <glyph glyph-name="jcircumflex" unicode="&#x135;" horiz-adv-x="612" 
d="M303 1555l314 -239q-20 -61 -69 -110l-251 144l-242 -144q-46 46 -67 110zM62 1032l401 49v-758q0 -233 -35 -378.5t-117 -233.5q-117 -125 -340 -162q-42 39 -42 103q0 73 70 98q21 8 65.5 13t65.5 18q31 19 39 90t8 309v637q0 57 -12 77t-52 28l-47 10z" />
    <glyph glyph-name="Kcommaaccent" unicode="&#x136;" horiz-adv-x="1366" 
d="M96 106l63 13q46 10 61 29t15 68v1001q0 54 -17 71.5t-81 30.5l-41 8l-4 107h583l-4 -107l-72 -11q-45 -7 -60.5 -28t-15.5 -71v-1001q0 -54 15.5 -70.5t75.5 -28.5l54 -11l-4 -106h-572zM907 660l281 -421q81 -120 179 -134l-4 -99q-80 -20 -151 -20q-134 0 -199 42
t-155 188l-156 253q-58 95 -91.5 143t-84.5 109l362 443q62 77 62 112q0 37 -64 46l-31 5l-5 107h482l-4 -107q-86 -26 -131 -59t-136 -141l-263 -311q39 -50 109 -156zM773 -83q63 0 96 -40t33 -116q0 -106 -63 -185t-164 -100q-30 18 -38 56q88 42 98 136q-42 11 -67 44.5
t-25 78.5q0 55 36.5 90.5t93.5 35.5z" />
    <glyph glyph-name="kcommaaccent" unicode="&#x137;" horiz-adv-x="1181" 
d="M64 104l49 11q41 9 53.5 26.5t12.5 68.5v1044q0 57 -12.5 76.5t-54.5 28.5l-48 10l-4 100l402 49v-1320q0 -49 13.5 -63.5t66.5 -23.5l40 -7l-4 -104h-518zM821 518l166 -251q56 -85 98 -123t89 -48l-4 -86q-70 -24 -157 -24q-103 0 -160.5 38t-133.5 158l-130 203
q-65 103 -124 177l233 253q55 59 55 91q0 30 -55 39l-36 7l-5 104h460l-4 -104l-27 -6q-57 -12 -90.5 -33t-86.5 -77l-180 -191q36 -43 92 -127zM688 -83q128 0 128 -156q0 -106 -63 -185t-164 -100q-30 18 -38 56q88 42 98 136q-42 11 -67 44.5t-25 78.5q0 55 37 90.5
t94 35.5z" />
    <glyph glyph-name="Lacute" unicode="&#x139;" horiz-adv-x="1224" 
d="M213 1656l378 249q65 -75 101 -169l-408 -201q-46 47 -71 121zM671 1327l-72 -11q-45 -7 -60.5 -28t-15.5 -71v-989q0 -53 27 -71t109 -18h151q103 0 141 61t55 227l170 -10q0 -223 -27 -417h-1057l4 106l63 13q46 10 61 29t15 68v1001q0 54 -17 71.5t-81 30.5l-41 8
l-4 107h583z" />
    <glyph glyph-name="lacute" unicode="&#x13a;" horiz-adv-x="651" 
d="M61 1718l412 187q53 -81 75 -183l-434 -134q-41 58 -53 130zM467 1518v-1308q0 -56 15 -72.5t75 -25.5l51 -8l-4 -104h-539l4 104l49 11q41 9 53.5 26.5t12.5 68.5v1044q0 57 -12.5 76.5t-54.5 28.5l-48 10l-4 100z" />
    <glyph glyph-name="Lcommaaccent" unicode="&#x13b;" horiz-adv-x="1224" 
d="M1006 427l170 -10q0 -223 -27 -417h-1057l4 106l63 13q46 10 61 29t15 68v1001q0 54 -17 71.5t-81 30.5l-41 8l-4 107h583l-4 -107l-72 -11q-45 -7 -60.5 -28t-15.5 -71v-989q0 -53 27 -71t109 -18h151q103 0 141 61t55 227zM656 -83q63 0 96 -40t33 -116
q0 -106 -63.5 -185t-164.5 -100q-30 18 -38 56q89 43 99 136q-42 11 -67 44.5t-25 78.5q0 55 36.5 90.5t93.5 35.5z" />
    <glyph glyph-name="lcommaaccent" unicode="&#x13c;" horiz-adv-x="651" 
d="M608 104l-4 -104h-539l4 104l49 11q41 9 53.5 26.5t12.5 68.5v1044q0 57 -12.5 76.5t-54.5 28.5l-48 10l-4 100l402 49v-1308q0 -56 15 -72.5t75 -25.5zM327 -83q128 0 128 -156q0 -106 -63 -185t-164 -100q-30 18 -38 56q88 42 98 136q-42 11 -67 44.5t-25 78.5
q0 55 37 90.5t94 35.5z" />
    <glyph glyph-name="Lcaron" unicode="&#x13d;" horiz-adv-x="1224" 
d="M803 1553q93 0 183 -22q-29 -206 -96 -382q-72 0 -140 25q44 215 53 379zM671 1327l-72 -11q-45 -7 -60.5 -28t-15.5 -71v-989q0 -53 27 -71t109 -18h151q103 0 141 61t55 227l170 -10q0 -223 -27 -417h-1057l4 106l63 13q46 10 61 29t15 68v1001q0 54 -17 71.5t-81 30.5
l-41 8l-4 107h583z" />
    <glyph glyph-name="lcaron" unicode="&#x13e;" horiz-adv-x="671" 
d="M612 1553q93 0 183 -22q-29 -202 -97 -382q-72 0 -140 25q46 221 54 379zM467 1518v-1308q0 -56 15 -72.5t75 -25.5l51 -8l-4 -104h-539l4 104l49 11q41 9 53.5 26.5t12.5 68.5v1044q0 57 -12.5 76.5t-54.5 28.5l-48 10l-4 100z" />
    <glyph glyph-name="Ldot" unicode="&#x13f;" horiz-adv-x="1263" 
d="M671 1327l-72 -11q-45 -7 -60.5 -28t-15.5 -71v-989q0 -53 27 -71t109 -18h151q103 0 141 61t55 227l170 -10q0 -223 -27 -417h-1057l4 106l63 13q46 10 61 29t15 68v1001q0 54 -17 71.5t-81 30.5l-41 8l-4 107h583zM833 817q0 65 43.5 105.5t112.5 40.5t113 -40.5
t44 -105.5t-44 -106t-113 -41t-112.5 41t-43.5 106z" />
    <glyph glyph-name="ldot" unicode="&#x140;" horiz-adv-x="862" 
d="M467 1518v-1308q0 -56 15 -72.5t75 -25.5l51 -8l-4 -104h-539l4 104l49 11q41 9 53.5 26.5t12.5 68.5v1044q0 57 -12.5 76.5t-54.5 28.5l-48 10l-4 100zM598 710q0 65 43.5 106t112.5 41t113 -41t44 -106t-44 -105.5t-113 -40.5t-112.5 40.5t-43.5 105.5z" />
    <glyph glyph-name="Lslash" unicode="&#x141;" horiz-adv-x="1224" 
d="M1006 427l170 -10q0 -223 -27 -417h-1057l4 106l63 13q46 10 61 29t15 68v166q0 90 5 133l-138 -62v150l133 59v555q0 54 -17 71.5t-81 30.5l-41 8l-4 107h583l-4 -107l-72 -11q-45 -7 -60.5 -28t-15.5 -71v-314q0 -89 -5 -132l412 183v-149l-407 -181v-396q0 -53 27 -71
t109 -18h151q103 0 141 61t55 227z" />
    <glyph glyph-name="lslash" unicode="&#x142;" horiz-adv-x="655" 
d="M469 730v-520q0 -56 15 -72.5t75 -25.5l51 -8l-4 -104h-539l4 104l49 11q41 9 53.5 26.5t12.5 68.5v281q0 91 5 133l-132 -59v142l127 56v491q0 57 -12.5 76.5t-54.5 28.5l-48 10l-4 100l402 49v-517q0 -81 -6 -132l148 66v-142z" />
    <glyph glyph-name="Nacute" unicode="&#x143;" horiz-adv-x="1521" 
d="M1068 1736l-408 -201q-46 47 -71 121l378 249q65 -75 101 -169zM1455 1434l-4 -107l-71 -11q-45 -7 -60.5 -28t-15.5 -71v-1217h-278l-482 838q-83 144 -140 312q11 -136 11 -273v-661q0 -54 16.5 -70.5t81.5 -28.5l54 -11l-4 -106h-471l4 106l63 13q46 10 61 29t15 68
v1001q0 54 -17 71.5t-81 30.5l-41 8l-4 107h431l482 -838q78 -138 127 -273q-9 126 -9 234v660q0 54 -17 71.5t-81 30.5l-41 8l-4 107h475z" />
    <glyph glyph-name="nacute" unicode="&#x144;" horiz-adv-x="1296" 
d="M976 1391l-407 -201q-47 49 -72 122l378 248q65 -75 101 -169zM1271 104l-4 -104h-527l4 104l45 11q36 9 47 24.5t11 58.5v511q0 195 -159 195q-133 0 -205 -130v-576q0 -48 13 -62t67 -23l50 -9l-5 -104h-526l4 104l48 11q41 9 53.5 26.5t12.5 68.5v607q0 57 -12 76.5
t-54 28.5l-48 10l-4 100l352 49q20 -74 25 -185q51 88 137.5 136.5t195.5 48.5q166 0 252 -88t86 -258v-525q0 -56 15 -72.5t75 -25.5z" />
    <glyph glyph-name="Ncommaaccent" unicode="&#x145;" horiz-adv-x="1521" 
d="M1455 1434l-4 -107l-71 -11q-45 -7 -60.5 -28t-15.5 -71v-1217h-278l-482 838q-83 144 -140 312q11 -136 11 -273v-661q0 -54 16.5 -70.5t81.5 -28.5l54 -11l-4 -106h-471l4 106l63 13q46 10 61 29t15 68v1001q0 54 -17 71.5t-81 30.5l-41 8l-4 107h431l482 -838
q78 -138 127 -273q-9 126 -9 234v660q0 54 -17 71.5t-81 30.5l-41 8l-4 107h475zM755 -83q63 0 96 -40t33 -116q0 -106 -63 -185t-164 -100q-30 18 -38 56q88 42 98 136q-42 11 -67 44.5t-25 78.5q0 55 36.5 90.5t93.5 35.5z" />
    <glyph glyph-name="ncommaaccent" unicode="&#x146;" horiz-adv-x="1296" 
d="M1271 104l-4 -104h-527l4 104l45 11q36 9 47 24.5t11 58.5v511q0 195 -159 195q-133 0 -205 -130v-576q0 -48 13 -62t67 -23l50 -9l-5 -104h-526l4 104l48 11q41 9 53.5 26.5t12.5 68.5v607q0 57 -12 76.5t-54 28.5l-48 10l-4 100l352 49q20 -74 25 -185
q51 88 137.5 136.5t195.5 48.5q166 0 252 -88t86 -258v-525q0 -56 15 -72.5t75 -25.5zM677 -83q63 0 96 -40t33 -116q0 -106 -63.5 -185t-164.5 -100q-30 18 -38 56q89 43 99 136q-42 11 -67 44.5t-25 78.5q0 55 36.5 90.5t93.5 35.5z" />
    <glyph glyph-name="Ncaron" unicode="&#x147;" horiz-adv-x="1521" 
d="M770 1541l-305 238q20 61 69 110l241 -142l232 142q46 -46 67 -110zM1455 1434l-4 -107l-71 -11q-45 -7 -60.5 -28t-15.5 -71v-1217h-278l-482 838q-83 144 -140 312q11 -136 11 -273v-661q0 -54 16.5 -70.5t81.5 -28.5l54 -11l-4 -106h-471l4 106l63 13q46 10 61 29
t15 68v1001q0 54 -17 71.5t-81 30.5l-41 8l-4 107h431l482 -838q78 -138 127 -273q-9 126 -9 234v660q0 54 -17 71.5t-81 30.5l-41 8l-4 107h475z" />
    <glyph glyph-name="ncaron" unicode="&#x148;" horiz-adv-x="1296" 
d="M666 1196l-304 239q19 59 69 109l240 -142l233 142q47 -47 67 -109zM1271 104l-4 -104h-527l4 104l45 11q36 9 47 24.5t11 58.5v511q0 195 -159 195q-133 0 -205 -130v-576q0 -48 13 -62t67 -23l50 -9l-5 -104h-526l4 104l48 11q41 9 53.5 26.5t12.5 68.5v607
q0 57 -12 76.5t-54 28.5l-48 10l-4 100l352 49q20 -74 25 -185q51 88 137.5 136.5t195.5 48.5q166 0 252 -88t86 -258v-525q0 -56 15 -72.5t75 -25.5z" />
    <glyph glyph-name="napostrophe" unicode="&#x149;" horiz-adv-x="1296" 
d="M233 1452q0 -106 -63 -185t-164 -100q-30 18 -38 56q88 42 98 136q-42 11 -67 44t-25 78q0 55 36.5 90.5t93.5 35.5q129 0 129 -155zM1271 104l-4 -104h-527l4 104l45 11q36 9 47 24.5t11 58.5v511q0 195 -159 195q-133 0 -205 -130v-576q0 -48 13 -62t67 -23l50 -9
l-5 -104h-526l4 104l48 11q41 9 53.5 26.5t12.5 68.5v607q0 57 -12 76.5t-54 28.5l-48 10l-4 100l352 49q20 -74 25 -185q51 88 137.5 136.5t195.5 48.5q166 0 252 -88t86 -258v-525q0 -56 15 -72.5t75 -25.5z" />
    <glyph glyph-name="Eng" unicode="&#x14a;" horiz-adv-x="1519" 
d="M1455 1434l-4 -107l-71 -11q-45 -7 -60.5 -28t-15.5 -71v-869q0 -228 -36.5 -365.5t-119.5 -226.5q-117 -124 -321 -162q-42 39 -42 103q0 75 67 100q19 7 65 14.5t70 21.5q63 35 81 133q-36 37 -127 193l-393 671q-86 148 -144 319q11 -136 11 -272v-661
q0 -54 16.5 -70.5t81.5 -28.5l54 -11l-4 -106h-471l4 106l63 13q46 10 61 29t15 68v1001q0 54 -17 71.5t-81 30.5l-41 8l-4 107h431l482 -838q78 -138 127 -273q-9 126 -9 234v660q0 54 -17 71.5t-81 30.5l-41 8l-4 107h475z" />
    <glyph glyph-name="eng" unicode="&#x14b;" horiz-adv-x="1267" 
d="M792 1081q166 0 252 -88t86 -258v-412q0 -232 -35.5 -378t-117.5 -234q-117 -125 -339 -162q-42 39 -42 103q0 73 70 98q21 8 65.5 13t65.5 18q31 20 40.5 92.5t9.5 306.5v529q0 195 -159 195q-133 0 -205 -130v-576q0 -48 13 -62t67 -23l50 -9l-5 -104h-526l4 104l48 11
q41 9 53.5 26.5t12.5 68.5v607q0 57 -12 76.5t-54 28.5l-48 10l-4 100l352 49q20 -74 25 -185q51 88 137.5 136.5t195.5 48.5z" />
    <glyph glyph-name="Omacron" unicode="&#x14c;" horiz-adv-x="1544" 
d="M1061 1627h-577v154h577v-154zM84 717q0 352 187.5 550.5t501.5 198.5q328 0 508 -196.5t180 -552.5q0 -221 -84 -391t-240.5 -264.5t-363.5 -94.5q-319 0 -504 206t-185 544zM397 717q0 -279 101 -440t275 -161t274.5 161t100.5 440q0 294 -96.5 447.5t-278.5 153.5
t-279 -154t-97 -447z" />
    <glyph glyph-name="omacron" unicode="&#x14d;" horiz-adv-x="1206" 
d="M892 1283h-578v153h578v-153zM80 528q0 176 70 303t186.5 188.5t266.5 61.5q257 0 389.5 -140.5t132.5 -412.5q0 -257 -144.5 -405t-377.5 -148q-249 0 -386 145.5t-137 407.5zM378 528q0 -197 59.5 -304t165.5 -107t165 107t59 304q0 411 -224 411q-225 0 -225 -411z
" />
    <glyph glyph-name="Obreve" unicode="&#x14e;" horiz-adv-x="1544" 
d="M593 1849q42 -135 182 -135q139 0 181 135q30 0 64 -11.5t54 -27.5q-27 -121 -104 -184.5t-197 -63.5t-197.5 63.5t-104.5 184.5q20 16 56 27.5t66 11.5zM84 717q0 352 187.5 550.5t501.5 198.5q328 0 508 -196.5t180 -552.5q0 -221 -84 -391t-240.5 -264.5t-363.5 -94.5
q-319 0 -504 206t-185 544zM397 717q0 -279 101 -440t275 -161t274.5 161t100.5 440q0 294 -96.5 447.5t-278.5 153.5t-279 -154t-97 -447z" />
    <glyph glyph-name="obreve" unicode="&#x14f;" horiz-adv-x="1206" 
d="M424 1505q42 -135 181 -135t181 135q30 0 64.5 -11.5t54.5 -27.5q-27 -121 -104.5 -184.5t-197.5 -63.5t-197.5 63.5t-104.5 184.5q19 16 56 27.5t67 11.5zM80 528q0 176 70 303t186.5 188.5t266.5 61.5q257 0 389.5 -140.5t132.5 -412.5q0 -257 -144.5 -405t-377.5 -148
q-249 0 -386 145.5t-137 407.5zM378 528q0 -197 59.5 -304t165.5 -107t165 107t59 304q0 411 -224 411q-225 0 -225 -411z" />
    <glyph glyph-name="Ohungarumlaut" unicode="&#x150;" horiz-adv-x="1544" 
d="M557 1575l113 361q90 -15 167 -65l-155 -345q-65 9 -125 49zM868 1586l144 350q90 -24 161 -79l-184 -331q-64 15 -121 60zM84 717q0 352 187.5 550.5t501.5 198.5q328 0 508 -196.5t180 -552.5q0 -221 -84 -391t-240.5 -264.5t-363.5 -94.5q-319 0 -504 206t-185 544z
M397 717q0 -279 101 -440t275 -161t274.5 161t100.5 440q0 294 -96.5 447.5t-278.5 153.5t-279 -154t-97 -447z" />
    <glyph glyph-name="ohungarumlaut" unicode="&#x151;" horiz-adv-x="1206" 
d="M366 1230l114 362q90 -15 167 -65l-155 -345q-68 10 -126 48zM677 1241l144 351q90 -24 161 -79l-183 -331q-67 16 -122 59zM80 528q0 176 70 303t186.5 188.5t266.5 61.5q257 0 389.5 -140.5t132.5 -412.5q0 -257 -144.5 -405t-377.5 -148q-249 0 -386 145.5t-137 407.5
zM378 528q0 -197 59.5 -304t165.5 -107t165 107t59 304q0 411 -224 411q-225 0 -225 -411z" />
    <glyph glyph-name="OE" unicode="&#x152;" horiz-adv-x="2013" 
d="M1779 373l163 -10q0 -169 -27 -363h-982q-80 -8 -161 -8q-212 0 -368.5 91t-238 254.5t-81.5 379.5q0 342 186.5 533.5t501.5 191.5q81 0 161 -8h949q27 -194 27 -363l-163 -10q-17 143 -56 188.5t-147 45.5h-277v-499h236q49 0 67 20.5t32 88.5l9 41l136 4v-458l-136 4
l-11 71q-7 48 -30 69t-67 21h-236v-429q0 -53 27 -71t109 -18h174q108 0 147 45.5t56 188.5zM397 717q0 -274 102 -425.5t297 -151.5q108 0 148.5 34.5t40.5 125.5v834q0 91 -40.5 125t-148.5 34q-203 0 -301 -144t-98 -432z" />
    <glyph glyph-name="oe" unicode="&#x153;" horiz-adv-x="1847" 
d="M1424 146q83 0 148.5 23t129.5 73l51 -125q-90 -75 -187.5 -108.5t-229.5 -33.5q-244 0 -365 180q-134 -180 -368 -180q-249 0 -386 145.5t-137 407.5q0 176 70 303t186.5 188.5t266.5 61.5q264 0 385 -179q64 86 158.5 132.5t210.5 46.5q194 0 303.5 -114.5
t109.5 -316.5q0 -76 -14 -102.5t-56 -26.5h-575q1 -189 80.5 -282t218.5 -93zM603 117q106 0 165 107t59 304q0 411 -224 411q-225 0 -225 -411q0 -197 59.5 -304t165.5 -107zM1326 939q-169 0 -196 -289h317q31 0 43 16t12 57q0 100 -47.5 158t-128.5 58z" />
    <glyph glyph-name="Racute" unicode="&#x154;" horiz-adv-x="1366" 
d="M975 1736l-407 -201q-47 49 -72 121l378 249q65 -75 101 -169zM1353 107l-5 -99q-71 -22 -170 -22q-117 0 -173.5 41.5t-108.5 168.5l-116 281q-35 83 -77.5 115t-121.5 32q-21 0 -61 -4v-404q0 -54 15.5 -70.5t75.5 -28.5l53 -11l-4 -106h-568l4 106l63 13q46 10 61 29
t15 68v1001q0 54 -17 71.5t-81 30.5l-41 8l-4 107h125q91 0 237 4.5t223 4.5q269 0 397.5 -93t128.5 -285q0 -136 -84.5 -230t-233.5 -127q55 -16 93 -51t72 -98q27 -49 84.5 -180.5t93.5 -193.5q23 -39 45.5 -55.5t58.5 -20.5zM650 767q121 0 190 71.5t69 197.5
q0 270 -243 270q-91 0 -146 -10v-524q54 -5 130 -5z" />
    <glyph glyph-name="racute" unicode="&#x155;" horiz-adv-x="923" 
d="M807 1391l-408 -201q-45 47 -71 122l377 248q67 -77 102 -169zM883 1039q14 -35 14 -84q0 -69 -31 -108t-86 -39q-35 0 -80.5 22.5t-84.5 22.5q-101 0 -132 -214v-419q0 -56 16.5 -73t81.5 -27l84 -13l-4 -107h-579l4 104l48 11q41 9 53.5 26.5t12.5 68.5v607
q0 57 -12 76.5t-54 28.5l-48 10l-4 100l346 49q25 -90 26 -280q26 133 94 206.5t169 73.5q92 0 166 -42z" />
    <glyph glyph-name="Rcommaaccent" unicode="&#x156;" horiz-adv-x="1366" 
d="M1353 107l-5 -99q-71 -22 -170 -22q-117 0 -173.5 41.5t-108.5 168.5l-116 281q-35 83 -77.5 115t-121.5 32q-21 0 -61 -4v-404q0 -54 15.5 -70.5t75.5 -28.5l53 -11l-4 -106h-568l4 106l63 13q46 10 61 29t15 68v1001q0 54 -17 71.5t-81 30.5l-41 8l-4 107h125
q91 0 237 4.5t223 4.5q269 0 397.5 -93t128.5 -285q0 -136 -84.5 -230t-233.5 -127q55 -16 93 -51t72 -98q27 -49 84.5 -180.5t93.5 -193.5q23 -39 45.5 -55.5t58.5 -20.5zM650 767q121 0 190 71.5t69 197.5q0 270 -243 270q-91 0 -146 -10v-524q54 -5 130 -5zM770 -83
q63 0 96 -40t33 -116q0 -106 -63.5 -185t-164.5 -100q-30 18 -38 56q89 43 99 136q-42 11 -67 44.5t-25 78.5q0 55 36.5 90.5t93.5 35.5z" />
    <glyph glyph-name="rcommaaccent" unicode="&#x157;" horiz-adv-x="923" 
d="M883 1039q14 -35 14 -84q0 -69 -31 -108t-86 -39q-35 0 -80.5 22.5t-84.5 22.5q-101 0 -132 -214v-419q0 -56 16.5 -73t81.5 -27l84 -13l-4 -107h-579l4 104l48 11q41 9 53.5 26.5t12.5 68.5v607q0 57 -12 76.5t-54 28.5l-48 10l-4 100l346 49q25 -90 26 -280
q26 133 94 206.5t169 73.5q92 0 166 -42zM343 -83q63 0 96 -40t33 -116q0 -106 -63 -185t-164 -100q-30 18 -38 56q88 42 98 136q-42 11 -67 44.5t-25 78.5q0 55 36.5 90.5t93.5 35.5z" />
    <glyph glyph-name="Rcaron" unicode="&#x158;" horiz-adv-x="1366" 
d="M685 1541l-305 238q19 59 70 110l240 -142l233 142q45 -45 66 -110zM1353 107l-5 -99q-71 -22 -170 -22q-117 0 -173.5 41.5t-108.5 168.5l-116 281q-35 83 -77.5 115t-121.5 32q-21 0 -61 -4v-404q0 -54 15.5 -70.5t75.5 -28.5l53 -11l-4 -106h-568l4 106l63 13
q46 10 61 29t15 68v1001q0 54 -17 71.5t-81 30.5l-41 8l-4 107h125q91 0 237 4.5t223 4.5q269 0 397.5 -93t128.5 -285q0 -136 -84.5 -230t-233.5 -127q55 -16 93 -51t72 -98q27 -49 84.5 -180.5t93.5 -193.5q23 -39 45.5 -55.5t58.5 -20.5zM650 767q121 0 190 71.5
t69 197.5q0 270 -243 270q-91 0 -146 -10v-524q54 -5 130 -5z" />
    <glyph glyph-name="rcaron" unicode="&#x159;" horiz-adv-x="923" 
d="M483 1196l-305 239q19 59 69 109l241 -142l232 142q47 -47 67 -109zM883 1039q14 -35 14 -84q0 -69 -31 -108t-86 -39q-35 0 -80.5 22.5t-84.5 22.5q-101 0 -132 -214v-419q0 -56 16.5 -73t81.5 -27l84 -13l-4 -107h-579l4 104l48 11q41 9 53.5 26.5t12.5 68.5v607
q0 57 -12 76.5t-54 28.5l-48 10l-4 100l346 49q25 -90 26 -280q26 133 94 206.5t169 73.5q92 0 166 -42z" />
    <glyph glyph-name="Sacute" unicode="&#x15a;" horiz-adv-x="1138" 
d="M368 1656l378 249q65 -75 101 -169l-407 -201q-47 49 -72 121zM613 1466q112 0 234.5 -27t162.5 -27v-338l-153 -6q-26 139 -85.5 201.5t-165.5 62.5q-95 0 -153 -58t-58 -152q0 -53 22.5 -96t61 -73t88.5 -56t105 -50.5t110 -51.5t105 -63.5t88.5 -81.5t61 -111.5
t22.5 -147.5q0 -194 -143 -309t-384 -115q-118 0 -236 32t-200 86q-13 109 -13 180q0 47 5 139l159 6q17 -150 88 -229t189 -79q110 0 180 64t70 164q0 56 -22.5 101t-60.5 76.5t-87.5 58.5t-104 51.5t-109 51t-104 62t-87.5 79t-60.5 107.5t-22.5 142q0 183 136 295
t361 112z" />
    <glyph glyph-name="sacute" unicode="&#x15b;" horiz-adv-x="958" 
d="M261 1312l377 248q67 -77 102 -169l-408 -201q-45 47 -71 122zM839 770l-132 -7q-20 95 -69 146t-122 51q-67 0 -106 -35.5t-39 -96.5q0 -40 22 -72.5t58 -53.5t81.5 -43.5t93.5 -41t93.5 -47.5t81.5 -62.5t58 -85.5t22 -117q0 -155 -117 -242.5t-324 -87.5
q-97 0 -192.5 27.5t-158.5 74.5q-9 60 -9 122q0 53 4 112l137 6q19 -104 77 -162.5t141 -58.5q75 0 120 39t45 105q0 41 -21.5 74t-57 55t-80.5 45t-92.5 42.5t-92.5 48.5t-80.5 62t-57 84t-21.5 114q0 149 109 232.5t302 83.5q74 0 173 -24.5t154 -24.5v-262z" />
    <glyph glyph-name="Scircumflex" unicode="&#x15c;" horiz-adv-x="1138" 
d="M590 1694l-243 -143q-46 46 -67 110l315 238l315 -238q-19 -59 -70 -110zM395 1122q0 -53 22.5 -96t61 -73t88.5 -56t105 -50.5t110 -51.5t105 -63.5t88.5 -81.5t61 -111.5t22.5 -147.5q0 -194 -143 -309t-384 -115q-118 0 -236 32t-200 86q-13 109 -13 180q0 47 5 139
l159 6q17 -150 88 -229t189 -79q110 0 180 64t70 164q0 56 -22.5 101t-60.5 76.5t-87.5 58.5t-104 51.5t-109 51t-104 62t-87.5 79t-60.5 107.5t-22.5 142q0 183 136 295t361 112q112 0 234.5 -27t162.5 -27v-338l-153 -6q-26 139 -85.5 201.5t-165.5 62.5q-95 0 -153 -58
t-58 -152z" />
    <glyph glyph-name="scircumflex" unicode="&#x15d;" horiz-adv-x="958" 
d="M486 1350l-243 -144q-45 45 -66 110l314 239l315 -239q-20 -61 -69 -110zM371 828q0 -40 22 -72.5t58 -53.5t81.5 -43.5t93.5 -41t93.5 -47.5t81.5 -62.5t58 -85.5t22 -117q0 -155 -117 -242.5t-324 -87.5q-97 0 -192.5 27.5t-158.5 74.5q-9 60 -9 122q0 53 4 112l137 6
q19 -104 77 -162.5t141 -58.5q75 0 120 39t45 105q0 41 -21.5 74t-57 55t-80.5 45t-92.5 42.5t-92.5 48.5t-80.5 62t-57 84t-21.5 114q0 149 109 232.5t302 83.5q74 0 173 -24.5t154 -24.5v-262l-132 -7q-20 95 -69 146t-122 51q-67 0 -106 -35.5t-39 -96.5z" />
    <glyph glyph-name="Scedilla" unicode="&#x15e;" horiz-adv-x="1138" 
d="M1059 391q0 -181 -125.5 -294t-340.5 -128l-35 -74q97 0 156 -48t59 -127q0 -99 -70 -157t-191 -58q-103 0 -176 61q10 56 35 91q55 -41 126 -41q44 0 69.5 22.5t25.5 62.5q0 42 -38.5 65.5t-108.5 23.5l-26 57l52 122q-105 8 -204.5 38.5t-170.5 77.5q-13 109 -13 180
q0 47 5 139l159 6q17 -150 88 -229t189 -79q110 0 180 64t70 164q0 56 -22.5 101t-60.5 76.5t-87.5 58.5t-104 51.5t-109 51t-104 62t-87.5 79t-60.5 107.5t-22.5 142q0 183 136 295t361 112q112 0 234.5 -27t162.5 -27v-338l-153 -6q-26 139 -85.5 201.5t-165.5 62.5
q-95 0 -153 -58t-58 -152q0 -53 22.5 -96t61 -73t88.5 -56t105 -50.5t110 -51.5t105 -63.5t88.5 -81.5t61 -111.5t22.5 -147.5z" />
    <glyph glyph-name="scedilla" unicode="&#x15f;" horiz-adv-x="958" 
d="M881 305q0 -143 -101 -228.5t-280 -98.5l-39 -83q97 0 156 -48t59 -127q0 -99 -70 -157t-191 -58q-103 0 -176 61q10 56 35 91q55 -41 126 -41q44 0 69.5 22.5t25.5 62.5q0 42 -38.5 65.5t-108.5 23.5l-26 57l56 131q-177 16 -289 99q-9 60 -9 122q0 53 4 112l137 6
q19 -104 77 -162.5t141 -58.5q75 0 120 39t45 105q0 41 -21.5 74t-57 55t-80.5 45t-92.5 42.5t-92.5 48.5t-80.5 62t-57 84t-21.5 114q0 149 109 232.5t302 83.5q74 0 173 -24.5t154 -24.5v-262l-132 -7q-20 95 -69 146t-122 51q-67 0 -106 -35.5t-39 -96.5q0 -40 22 -72.5
t58 -53.5t81.5 -43.5t93.5 -41t93.5 -47.5t81.5 -62.5t58 -85.5t22 -117z" />
    <glyph glyph-name="Scaron" unicode="&#x160;" horiz-adv-x="1138" 
d="M595 1541l-305 238q19 59 70 110l240 -142l233 142q45 -45 66 -110zM395 1122q0 -53 22.5 -96t61 -73t88.5 -56t105 -50.5t110 -51.5t105 -63.5t88.5 -81.5t61 -111.5t22.5 -147.5q0 -194 -143 -309t-384 -115q-118 0 -236 32t-200 86q-13 109 -13 180q0 47 5 139l159 6
q17 -150 88 -229t189 -79q110 0 180 64t70 164q0 56 -22.5 101t-60.5 76.5t-87.5 58.5t-104 51.5t-109 51t-104 62t-87.5 79t-60.5 107.5t-22.5 142q0 183 136 295t361 112q112 0 234.5 -27t162.5 -27v-338l-153 -6q-26 139 -85.5 201.5t-165.5 62.5q-95 0 -153 -58
t-58 -152z" />
    <glyph glyph-name="scaron" unicode="&#x161;" horiz-adv-x="958" 
d="M491 1196l-304 239q19 59 69 109l241 -142l232 142q47 -47 67 -109zM371 828q0 -40 22 -72.5t58 -53.5t81.5 -43.5t93.5 -41t93.5 -47.5t81.5 -62.5t58 -85.5t22 -117q0 -155 -117 -242.5t-324 -87.5q-97 0 -192.5 27.5t-158.5 74.5q-9 60 -9 122q0 53 4 112l137 6
q19 -104 77 -162.5t141 -58.5q75 0 120 39t45 105q0 41 -21.5 74t-57 55t-80.5 45t-92.5 42.5t-92.5 48.5t-80.5 62t-57 84t-21.5 114q0 149 109 232.5t302 83.5q74 0 173 -24.5t154 -24.5v-262l-132 -7q-20 95 -69 146t-122 51q-67 0 -106 -35.5t-39 -96.5z" />
    <glyph glyph-name="Tcedilla" unicode="&#x162;" horiz-adv-x="1353" 
d="M75 1434h1203q26 -186 26 -384l-169 -10q-17 159 -53.5 207t-143.5 48h-117v-1055q0 -65 17.5 -87t80.5 -32l82 -13l-4 -108h-258l-51 -105q97 0 156 -48t59 -127q0 -99 -69.5 -157t-190.5 -58q-104 0 -177 61q10 56 35 91q55 -41 126 -41q44 0 69.5 22.5t25.5 62.5
q0 42 -38 65.5t-108 23.5l-27 57l66 153h-254l4 108l91 16q45 8 60.5 32t15.5 84v1055h-117q-107 0 -143.5 -48t-53.5 -207l-169 10q0 198 26 384z" />
    <glyph glyph-name="tcedilla" unicode="&#x163;" horiz-adv-x="800" 
d="M526 -22l-40 -83q97 0 156 -48t59 -127q0 -99 -69.5 -157t-190.5 -58q-104 0 -177 61q10 56 35 91q55 -41 126 -41q44 0 69.5 22.5t25.5 62.5q0 42 -38 65.5t-108 23.5l-27 57l56 132q-115 13 -169 77t-53 186l4 672h-118l-5 118l150 25q33 112 75 199q20 40 38 53.5
t53 13.5t87 -11v-256h306v-142h-303v-628q0 -72 31 -105.5t97 -33.5q75 0 152 50l34 -118q-117 -86 -256 -101z" />
    <glyph glyph-name="Tcaron" unicode="&#x164;" horiz-adv-x="1353" 
d="M677 1541l-305 238q20 61 69 110l241 -142l232 142q46 -46 67 -110zM75 1434h1203q26 -186 26 -384l-169 -10q-17 159 -53.5 207t-143.5 48h-117v-1055q0 -65 17.5 -87t80.5 -32l82 -13l-4 -108h-636l4 108l91 16q45 8 60.5 32t15.5 84v1055h-117q-107 0 -143.5 -48
t-53.5 -207l-169 10q0 198 26 384z" />
    <glyph glyph-name="tcaron" unicode="&#x165;" horiz-adv-x="800" 
d="M809 1531q-29 -206 -96 -382q-72 0 -140 25q44 215 53 379q93 0 183 -22zM596 147q75 0 152 50l34 -118q-141 -104 -317 -104q-147 0 -216 65t-68 202l4 672h-118l-5 118l150 25q33 112 75 199q20 40 38 53.5t53 13.5t87 -11v-256h306v-142h-303v-628q0 -72 31 -105.5
t97 -33.5z" />
    <glyph glyph-name="Tbar" unicode="&#x166;" horiz-adv-x="1361" 
d="M825 1295v-493h291v-135h-291v-427q0 -65 17.5 -87t80.5 -32l82 -13l-4 -108h-636l4 108l92 16q45 8 60.5 32t15.5 84v427h-291v135h291v493h-118q-107 0 -143 -48t-53 -207l-170 10q0 190 27 384h1202q27 -194 27 -384l-170 -10q-17 159 -53 207t-143 48h-118z" />
    <glyph glyph-name="tbar" unicode="&#x167;" horiz-adv-x="806" 
d="M748 197l34 -118q-141 -104 -317 -104q-147 0 -216 65t-68 202l2 344h-118v136h122l1 192h-121l-5 118l150 25q33 112 75 199q20 40 38 53.5t53 13.5t87 -11v-256h306v-142h-303v-192h303v-136h-303v-300q0 -72 31 -105.5t97 -33.5q75 0 152 50z" />
    <glyph glyph-name="Utilde" unicode="&#x168;" horiz-adv-x="1478" 
d="M916 1758q89 0 150 69l31 -108q-31 -54 -89.5 -90t-115.5 -36q-71 0 -144 31t-118 31q-88 0 -150 -69l-31 108q31 54 90 90t116 36q71 0 143.5 -31t117.5 -31zM639 1327l-71 -11q-45 -7 -60.5 -28t-15.5 -71v-704q0 -204 72.5 -301.5t223.5 -97.5q286 0 286 387v716
q0 54 -17 72t-81 30l-45 8l4 107h489l-4 -107l-72 -11q-45 -7 -60.5 -28t-15.5 -71v-734q0 -245 -135 -380.5t-381 -135.5q-283 0 -418 136.5t-135 421.5v692q0 54 -17 71.5t-81 30.5l-41 8l-4 107h583z" />
    <glyph glyph-name="utilde" unicode="&#x169;" horiz-adv-x="1284" 
d="M485 1311q-89 0 -151 -69l-30 108q31 54 89.5 90t115.5 36q71 0 144 -31t118 -31q89 0 150 69l31 -108q-31 -54 -90 -90t-116 -36q-71 0 -143.5 31t-117.5 31zM1233 118l-4 -106l-360 -32q-19 71 -24 180q-51 -88 -136.5 -136.5t-195.5 -48.5q-166 0 -250.5 88t-84.5 258
v496q0 57 -12 76.5t-54 28.5l-48 10l-4 100l401 49v-734q0 -99 38 -147t118 -48q131 0 203 130v535q0 57 -13.5 75.5t-62.5 29.5l-48 10l-4 100l411 49v-849q0 -56 16 -78t64 -29z" />
    <glyph glyph-name="Umacron" unicode="&#x16a;" horiz-adv-x="1478" 
d="M1062 1627h-578v154h578v-154zM639 1327l-71 -11q-45 -7 -60.5 -28t-15.5 -71v-704q0 -204 72.5 -301.5t223.5 -97.5q286 0 286 387v716q0 54 -17 72t-81 30l-45 8l4 107h489l-4 -107l-72 -11q-45 -7 -60.5 -28t-15.5 -71v-734q0 -245 -135 -380.5t-381 -135.5
q-283 0 -418 136.5t-135 421.5v692q0 54 -17 71.5t-81 30.5l-41 8l-4 107h583z" />
    <glyph glyph-name="umacron" unicode="&#x16b;" horiz-adv-x="1284" 
d="M917 1283h-578v153h578v-153zM1233 118l-4 -106l-360 -32q-19 71 -24 180q-51 -88 -136.5 -136.5t-195.5 -48.5q-166 0 -250.5 88t-84.5 258v496q0 57 -12 76.5t-54 28.5l-48 10l-4 100l401 49v-734q0 -99 38 -147t118 -48q131 0 203 130v535q0 57 -13.5 75.5t-62.5 29.5
l-48 10l-4 100l411 49v-849q0 -56 16 -78t64 -29z" />
    <glyph glyph-name="Ubreve" unicode="&#x16c;" horiz-adv-x="1478" 
d="M594 1849q42 -135 181 -135q140 0 182 135q30 0 64 -11.5t54 -27.5q-27 -121 -104.5 -184.5t-197.5 -63.5t-197.5 63.5t-104.5 184.5q19 16 56 27.5t67 11.5zM639 1327l-71 -11q-45 -7 -60.5 -28t-15.5 -71v-704q0 -204 72.5 -301.5t223.5 -97.5q286 0 286 387v716
q0 54 -17 72t-81 30l-45 8l4 107h489l-4 -107l-72 -11q-45 -7 -60.5 -28t-15.5 -71v-734q0 -245 -135 -380.5t-381 -135.5q-283 0 -418 136.5t-135 421.5v692q0 54 -17 71.5t-81 30.5l-41 8l-4 107h583z" />
    <glyph glyph-name="ubreve" unicode="&#x16d;" horiz-adv-x="1284" 
d="M628 1218q-120 0 -197.5 63.5t-104.5 184.5q20 16 56 27.5t66 11.5q42 -135 182 -135q139 0 181 135q30 0 64.5 -11.5t54.5 -27.5q-27 -121 -104.5 -184.5t-197.5 -63.5zM1233 118l-4 -106l-360 -32q-19 71 -24 180q-51 -88 -136.5 -136.5t-195.5 -48.5q-166 0 -250.5 88
t-84.5 258v496q0 57 -12 76.5t-54 28.5l-48 10l-4 100l401 49v-734q0 -99 38 -147t118 -48q131 0 203 130v535q0 57 -13.5 75.5t-62.5 29.5l-48 10l-4 100l411 49v-849q0 -56 16 -78t64 -29z" />
    <glyph glyph-name="Uring" unicode="&#x16e;" horiz-adv-x="1478" 
d="M567 1736q0 87 61.5 146.5t144.5 59.5q90 0 148 -56t58 -150q0 -87 -61.5 -146.5t-144.5 -59.5q-90 0 -148 56t-58 150zM680 1736q0 -43 27 -70t66 -27t66 27t27 70t-27 70t-66 27t-66 -27t-27 -70zM639 1327l-71 -11q-45 -7 -60.5 -28t-15.5 -71v-704
q0 -204 72.5 -301.5t223.5 -97.5q286 0 286 387v716q0 54 -17 72t-81 30l-45 8l4 107h489l-4 -107l-72 -11q-45 -7 -60.5 -28t-15.5 -71v-734q0 -245 -135 -380.5t-381 -135.5q-283 0 -418 136.5t-135 421.5v692q0 54 -17 71.5t-81 30.5l-41 8l-4 107h583z" />
    <glyph glyph-name="uring" unicode="&#x16f;" horiz-adv-x="1284" 
d="M628 1186q-90 0 -148 56t-58 150q0 87 61.5 146.5t144.5 59.5q90 0 148 -56t58 -150q0 -87 -61.5 -146.5t-144.5 -59.5zM628 1489q-39 0 -66.5 -27t-27.5 -70t27.5 -70t66.5 -27t66 27t27 70t-27 70t-66 27zM1233 118l-4 -106l-360 -32q-19 71 -24 180
q-51 -88 -136.5 -136.5t-195.5 -48.5q-166 0 -250.5 88t-84.5 258v496q0 57 -12 76.5t-54 28.5l-48 10l-4 100l401 49v-734q0 -99 38 -147t118 -48q131 0 203 130v535q0 57 -13.5 75.5t-62.5 29.5l-48 10l-4 100l411 49v-849q0 -56 16 -78t64 -29z" />
    <glyph glyph-name="Uhungarumlaut" unicode="&#x170;" horiz-adv-x="1478" 
d="M522 1575l113 361q90 -15 167 -65l-155 -345q-65 9 -125 49zM833 1586l143 350q90 -24 161 -79l-183 -331q-64 15 -121 60zM639 1327l-71 -11q-45 -7 -60.5 -28t-15.5 -71v-704q0 -204 72.5 -301.5t223.5 -97.5q286 0 286 387v716q0 54 -17 72t-81 30l-45 8l4 107h489
l-4 -107l-72 -11q-45 -7 -60.5 -28t-15.5 -71v-734q0 -245 -135 -380.5t-381 -135.5q-283 0 -418 136.5t-135 421.5v692q0 54 -17 71.5t-81 30.5l-41 8l-4 107h583z" />
    <glyph glyph-name="uhungarumlaut" unicode="&#x171;" horiz-adv-x="1284" 
d="M650 1527l-155 -345q-68 10 -126 48l113 362q91 -15 168 -65zM985 1513l-183 -331q-67 16 -122 59l144 351q90 -24 161 -79zM1233 118l-4 -106l-360 -32q-19 71 -24 180q-51 -88 -136.5 -136.5t-195.5 -48.5q-166 0 -250.5 88t-84.5 258v496q0 57 -12 76.5t-54 28.5
l-48 10l-4 100l401 49v-734q0 -99 38 -147t118 -48q131 0 203 130v535q0 57 -13.5 75.5t-62.5 29.5l-48 10l-4 100l411 49v-849q0 -56 16 -78t64 -29z" />
    <glyph glyph-name="Uogonek" unicode="&#x172;" horiz-adv-x="1478" 
d="M1424 1434l-4 -107l-72 -11q-45 -7 -60.5 -28t-15.5 -71v-734q0 -199 -89.5 -326.5t-256.5 -169.5q-86 -31 -132.5 -84t-46.5 -120q0 -52 28 -82t76 -30q68 0 113 45q28 -42 33 -98q-84 -81 -218 -81q-101 0 -163.5 56.5t-62.5 148.5q0 68 35.5 128.5t96.5 98.5
q-246 16 -364 152.5t-118 403.5v692q0 54 -17 71.5t-81 30.5l-41 8l-4 107h583l-4 -107l-71 -11q-45 -7 -60.5 -28t-15.5 -71v-704q0 -204 72.5 -301.5t223.5 -97.5q286 0 286 387v716q0 54 -17 72t-81 30l-45 8l4 107h489z" />
    <glyph glyph-name="uogonek" unicode="&#x173;" horiz-adv-x="1284" 
d="M1233 118l-4 -106q-114 -17 -184 -80t-70 -149q0 -52 28 -82t76 -30q68 0 113 45q29 -44 34 -98q-84 -81 -219 -81q-101 0 -163.5 56.5t-62.5 148.5q0 71 33 135.5t88 103.5q-44 61 -56 181q-51 -89 -137 -138t-196 -49q-166 0 -250.5 88t-84.5 258v496q0 57 -12 76.5
t-54 28.5l-48 10l-4 100l401 49v-734q0 -99 38 -147t118 -48q131 0 203 130v535q0 57 -13.5 75.5t-62.5 29.5l-48 10l-4 100l411 49v-849q0 -56 16 -78t64 -29z" />
    <glyph glyph-name="Wcircumflex" unicode="&#x174;" horiz-adv-x="2115" 
d="M1108 1694l-243 -143q-46 46 -67 110l315 238l315 -238q-19 -59 -70 -110zM2118 1434l-4 -107l-50 -7q-52 -7 -79 -41.5t-61 -137.5l-372 -1145h-216l-270 975l-310 -975h-217l-334 1145q-30 102 -55.5 136t-79.5 43l-40 7l-4 107h589l-4 -107l-51 -7q-47 -6 -65 -19.5
t-18 -45.5q0 -36 21 -114l204 -764l321 1057h193l283 -1057l231 764q25 84 25 116t-22 45t-79 20l-44 5l4 107h504z" />
    <glyph glyph-name="wcircumflex" unicode="&#x175;" horiz-adv-x="1738" 
d="M914 1350l-243 -144q-46 46 -67 110l315 239l315 -239q-20 -61 -69 -110zM1737 1056l-4 -104l-27 -6q-49 -10 -70.5 -32t-44.5 -85l-298 -832h-218l-204 666l-225 -666h-218l-272 832q-22 67 -40 88t-59 28l-38 7l-4 104h536l-5 -104l-45 -7q-42 -6 -59.5 -18.5
t-17.5 -38.5q0 -21 12 -59l159 -522l242 749h178l227 -749l168 522q16 51 16 70q0 22 -17 31t-63 15l-44 7l4 104h431z" />
    <glyph glyph-name="Ycircumflex" unicode="&#x176;" horiz-adv-x="1353" 
d="M701 1694l-242 -143q-46 46 -67 110l315 238l314 -238q-20 -61 -69 -110zM1353 1434l-4 -107l-35 -5q-59 -8 -85 -34t-96 -147l-312 -545v-356q0 -65 17.5 -87t80.5 -32l82 -13l-4 -108h-636l4 108l91 16q45 8 60.5 32t15.5 84v356l-315 545q-71 123 -94 148t-72 33
l-28 5l-4 107h603l-4 -107l-48 -6q-87 -11 -87 -64q0 -34 33 -91l225 -389l216 389q36 64 36 97q0 26 -20.5 39t-65.5 18l-59 7l4 107h501z" />
    <glyph glyph-name="ycircumflex" unicode="&#x177;" horiz-adv-x="1171" 
d="M619 1350l-243 -144q-46 46 -67 110l315 239l315 -239q-19 -59 -70 -110zM1169 1056l-4 -104l-27 -6q-48 -10 -69 -30.5t-47 -86.5l-341 -848q-97 -241 -203.5 -336.5t-280.5 -95.5q-49 0 -96 12q-29 49 -29 102t31.5 84.5t83.5 31.5q29 0 69 -14t65 -14q60 0 97.5 41
t81.5 155l14 38q-50 35 -84 123l-280 720q-28 72 -44.5 91.5t-54.5 25.5l-38 7l-4 104h549l-5 -104l-45 -7q-41 -6 -59.5 -19.5t-18.5 -39.5q0 -25 13 -58l198 -539l200 539q17 48 17 66q0 23 -18 34t-62 17l-45 7l4 104h432z" />
    <glyph glyph-name="Ydieresis" unicode="&#x178;" horiz-adv-x="1353" 
d="M499 1577q-59 0 -99.5 38.5t-40.5 96.5t40.5 97t99.5 39t99.5 -39t40.5 -97t-40.5 -96.5t-99.5 -38.5zM915 1577q-59 0 -99.5 38.5t-40.5 96.5t40.5 97t99.5 39t99 -39t40 -97t-40 -96.5t-99 -38.5zM1353 1434l-4 -107l-35 -5q-59 -8 -85 -34t-96 -147l-312 -545v-356
q0 -65 17.5 -87t80.5 -32l82 -13l-4 -108h-636l4 108l91 16q45 8 60.5 32t15.5 84v356l-315 545q-71 123 -94 148t-72 33l-28 5l-4 107h603l-4 -107l-48 -6q-87 -11 -87 -64q0 -34 33 -91l225 -389l216 389q36 64 36 97q0 26 -20.5 39t-65.5 18l-59 7l4 107h501z" />
    <glyph glyph-name="Zacute" unicode="&#x179;" horiz-adv-x="1245" 
d="M925 1736l-407 -201q-47 49 -72 121l378 249q65 -75 101 -169zM1000 399l170 -10q0 -195 -27 -389h-1071l-6 113l750 1182h-360q-107 0 -143.5 -48t-53.5 -207l-169 10q0 190 27 384h1037l6 -113l-750 -1182h394q104 0 141.5 55t54.5 205z" />
    <glyph glyph-name="zacute" unicode="&#x17a;" horiz-adv-x="1054" 
d="M809 1391l-408 -201q-45 47 -71 122l377 248q67 -77 102 -169zM832 323l147 -9q0 -150 -22 -314h-885l-7 109l583 828h-256q-76 0 -109 -42.5t-47 -159.5l-147 9q0 155 21 312h856l7 -109l-583 -828h286q75 0 108 45.5t48 158.5z" />
    <glyph glyph-name="Zdotaccent" unicode="&#x17b;" horiz-adv-x="1245" 
d="M625 1570q-69 0 -113 40.5t-44 105.5t44 106t113 41t112.5 -41t43.5 -106t-43.5 -105.5t-112.5 -40.5zM1000 399l170 -10q0 -195 -27 -389h-1071l-6 113l750 1182h-360q-107 0 -143.5 -48t-53.5 -207l-169 10q0 190 27 384h1037l6 -113l-750 -1182h394q104 0 141.5 55
t54.5 205z" />
    <glyph glyph-name="zdotaccent" unicode="&#x17c;" horiz-adv-x="1054" 
d="M532 1225q-69 0 -113 41t-44 106t44 105.5t113 40.5t112.5 -40.5t43.5 -105.5t-43.5 -106t-112.5 -41zM832 323l147 -9q0 -150 -22 -314h-885l-7 109l583 828h-256q-76 0 -109 -42.5t-47 -159.5l-147 9q0 155 21 312h856l7 -109l-583 -828h286q75 0 108 45.5t48 158.5z
" />
    <glyph glyph-name="Zcaron" unicode="&#x17d;" horiz-adv-x="1245" 
d="M625 1541l-305 238q19 59 70 110l240 -142l233 142q45 -45 66 -110zM1000 399l170 -10q0 -195 -27 -389h-1071l-6 113l750 1182h-360q-107 0 -143.5 -48t-53.5 -207l-169 10q0 190 27 384h1037l6 -113l-750 -1182h394q104 0 141.5 55t54.5 205z" />
    <glyph glyph-name="zcaron" unicode="&#x17e;" horiz-adv-x="1054" 
d="M532 1196l-305 239q19 59 69 109l241 -142l232 142q47 -47 67 -109zM832 323l147 -9q0 -150 -22 -314h-884l-8 109l583 828h-256q-76 0 -109 -42.5t-47 -159.5l-147 9q0 155 21 312h856l7 -109l-583 -828h286q75 0 108 45.5t48 158.5z" />
    <glyph glyph-name="longs" unicode="&#x17f;" horiz-adv-x="688" 
d="M888 1482q12 -28 12 -64q0 -53 -29.5 -84t-80.5 -31q-38 0 -70 13.5t-51 29t-47 29t-58 13.5q-43 0 -61 -33t-18 -114v-1021q0 -56 16.5 -73t80.5 -27l84 -13l-4 -107h-579l4 104l49 11q41 9 53.5 26.5t12.5 68.5v704h-124l-4 118l131 21v89q0 184 101.5 280t297.5 96
q156 0 284 -36z" />
    <glyph glyph-name="Schwa" unicode="&#x18f;" horiz-adv-x="1382" 
d="M635 1466q316 0 488.5 -198t172.5 -551q0 -352 -180.5 -551t-484.5 -199q-263 0 -414.5 154t-151.5 420q0 93 17.5 124t70.5 31h842v21q0 283 -118 427.5t-312 144.5q-216 0 -385 -149l-63 132q112 103 234 148.5t284 45.5zM648 116q140 0 227.5 114t111.5 326h-562
q-43 0 -60.5 -22t-17.5 -78q0 -150 84 -245t217 -95z" />
    <glyph glyph-name="florin" unicode="&#x192;" horiz-adv-x="1107" 
d="M1075 1482q7 -21 7 -49q0 -61 -30.5 -95.5t-86.5 -34.5q-35 0 -63.5 13.5t-44 29t-39.5 29t-52 13.5q-85 0 -105 -147l-43 -308h259l-19 -141h-256l-110 -787q-33 -234 -127.5 -345t-256.5 -111q-94 0 -173 41l28 134q44 -23 92 -23q68 0 99.5 59.5t56.5 238.5l111 793
h-125l14 117q41 13 134 21l30 214q52 374 446 374q130 0 254 -36z" />
    <glyph glyph-name="AEacute" unicode="&#x1fc;" horiz-adv-x="1933" 
d="M1499 1736l-408 -201q-46 47 -71 121l377 249q67 -77 102 -169zM1700 373l163 -10q0 -169 -27 -363h-1073l4 106l63 13q46 10 61 29t15 68v237h-406l-86 -177q-38 -79 -38 -109q0 -23 18.5 -34.5t60.5 -18.5l43 -8l-4 -106h-487l4 106l50 9q51 9 78.5 32.5t58.5 86.5
l481 971q23 46 23 68q0 35 -72 45l-63 9l-4 107h1240q27 -194 27 -363l-163 -10q-17 143 -56 188.5t-147 45.5h-277v-499h236q49 0 67 20.5t32 88.5l9 41l136 4v-458l-136 4l-11 71q-7 48 -30 69t-67 21h-236v-429q0 -53 27 -71t109 -18h174q108 0 147 45.5t56 188.5z
M906 600v696l-336 -696h336z" />
    <glyph glyph-name="aeacute" unicode="&#x1fd;" horiz-adv-x="1679" 
d="M1122 1391l-407 -201q-47 49 -72 122l378 248q65 -75 101 -169zM1255 146q83 0 148.5 23t129.5 73l51 -125q-90 -75 -187.5 -108.5t-229.5 -33.5q-287 0 -416 203q-52 -97 -149.5 -150t-224.5 -53q-140 0 -225 83.5t-85 221.5q0 168 124.5 263.5t343.5 95.5q74 0 130 -8
v108q0 114 -33 166t-104 52q-41 0 -74 -17.5t-55.5 -43l-45 -51t-54 -43t-70.5 -17.5q-54 0 -84.5 32.5t-30.5 89.5q0 31 8 59q186 115 419 115t306 -141q133 141 341 141q194 0 303.5 -118t109.5 -324q0 -76 -14 -102t-56 -26h-575q4 -183 83 -274t216 -91zM1157 939
q-172 0 -197 -302h318q31 0 43 16t12 57q0 105 -48 167t-128 62zM475 152q139 0 212 182q-21 82 -22 171q-54 7 -100 7q-110 0 -168 -50.5t-58 -146.5q0 -76 36.5 -119.5t99.5 -43.5z" />
    <glyph glyph-name="Oslashacute" unicode="&#x1fe;" horiz-adv-x="1544" 
d="M1036 1736l-408 -201q-46 47 -71 121l377 249q67 -77 102 -169zM1220 1519l-68 -145q151 -89 230 -256t79 -401q0 -336 -188.5 -543t-500.5 -207q-137 0 -255 42l-70 -152l-122 58l71 152q-150 93 -231 261.5t-81 388.5q0 352 187.5 550.5t501.5 198.5q142 0 256 -37
l69 148zM772 1318q-182 0 -278.5 -153.5t-96.5 -447.5q0 -281 103 -443l451 995q-74 49 -179 49zM772 116q174 0 275 161t101 440q0 296 -99 450l-452 -997q77 -54 175 -54z" />
    <glyph glyph-name="oslashacute" unicode="&#x1ff;" horiz-adv-x="1206" 
d="M849 1391l-408 -201q-45 47 -71 122l378 248q65 -75 101 -169zM960 1147l-63 -133q228 -128 228 -486q0 -257 -144.5 -405t-377.5 -148q-93 0 -179 24l-66 -142l-112 52l64 138q-112 66 -171 188.5t-59 292.5q0 176 70 303t186.5 188.5t266.5 61.5q95 0 180 -22l65 140z
M603 939q-230 0 -230 -411q0 -166 43 -269l293 651q-46 29 -106 29zM603 117q109 0 169.5 106.5t60.5 304.5q0 175 -41 275l-294 -654q46 -32 105 -32z" />
    <glyph glyph-name="Scommaaccent" unicode="&#x218;" horiz-adv-x="1138" 
d="M395 1122q0 -53 22.5 -96t61 -73t88.5 -56t105 -50.5t110 -51.5t105 -63.5t88.5 -81.5t61 -111.5t22.5 -147.5q0 -194 -143 -309t-384 -115q-118 0 -236 32t-200 86q-13 109 -13 180q0 47 5 139l159 6q17 -150 88 -229t189 -79q110 0 180 64t70 164q0 56 -22.5 101
t-60.5 76.5t-87.5 58.5t-104 51.5t-109 51t-104 62t-87.5 79t-60.5 107.5t-22.5 142q0 183 136 295t361 112q112 0 234.5 -27t162.5 -27v-338l-153 -6q-26 139 -85.5 201.5t-165.5 62.5q-95 0 -153 -58t-58 -152zM565 -83q63 0 96 -40t33 -116q0 -106 -63.5 -185
t-164.5 -100q-30 18 -38 56q89 43 99 136q-42 11 -67 44.5t-25 78.5q0 55 36.5 90.5t93.5 35.5z" />
    <glyph glyph-name="scommaaccent" unicode="&#x219;" horiz-adv-x="958" 
d="M371 828q0 -40 22 -72.5t58 -53.5t81.5 -43.5t93.5 -41t93.5 -47.5t81.5 -62.5t58 -85.5t22 -117q0 -155 -117 -242.5t-324 -87.5q-97 0 -192.5 27.5t-158.5 74.5q-9 60 -9 122q0 53 4 112l137 6q19 -104 77 -162.5t141 -58.5q75 0 120 39t45 105q0 41 -21.5 74t-57 55
t-80.5 45t-92.5 42.5t-92.5 48.5t-80.5 62t-57 84t-21.5 114q0 149 109 232.5t302 83.5q74 0 173 -24.5t154 -24.5v-262l-132 -7q-20 95 -69 146t-122 51q-67 0 -106 -35.5t-39 -96.5zM472 -83q63 0 96 -40t33 -116q0 -106 -63 -185t-164 -100q-30 18 -38 56q88 42 98 136
q-42 11 -67 44.5t-25 78.5q0 55 36.5 90.5t93.5 35.5z" />
    <glyph glyph-name="uni021A" unicode="&#x21a;" horiz-adv-x="1353" 
d="M75 1434h1203q26 -186 26 -384l-169 -10q-17 159 -53.5 207t-143.5 48h-117v-1055q0 -65 17.5 -87t80.5 -32l82 -13l-4 -108h-636l4 108l91 16q45 8 60.5 32t15.5 84v1055h-117q-107 0 -143.5 -48t-53.5 -207l-169 10q0 198 26 384zM678 -83q63 0 96 -40t33 -116
q0 -106 -63.5 -185t-164.5 -100q-30 18 -38 56q89 43 99 136q-42 11 -67 44.5t-25 78.5q0 55 36.5 90.5t93.5 35.5z" />
    <glyph glyph-name="uni021B" unicode="&#x21b;" horiz-adv-x="800" 
d="M748 197l34 -118q-141 -104 -317 -104q-147 0 -216 65t-68 202l4 672h-118l-5 118l150 25q33 112 75 199q20 40 38 53.5t53 13.5t87 -11v-256h306v-142h-303v-628q0 -72 31 -105.5t97 -33.5q75 0 152 50zM466 -83q63 0 96 -40t33 -116q0 -106 -63 -185t-164 -100
q-30 18 -38 56q88 42 98 136q-42 11 -67 44.5t-25 78.5q0 55 36.5 90.5t93.5 35.5z" />
    <glyph glyph-name="dotlessj" unicode="&#x237;" horiz-adv-x="612" 
d="M463 1081v-758q0 -233 -35 -378.5t-117 -233.5q-117 -125 -340 -162q-42 39 -42 103q0 73 70 98q21 8 65.5 13t65.5 18q31 19 39 90t8 309v637q0 57 -12 77t-52 28l-47 10l-4 100z" />
    <glyph glyph-name="schwa" unicode="&#x259;" horiz-adv-x="1089" 
d="M504 1081q242 0 372 -145t130 -408q0 -133 -39 -239t-107.5 -174t-161 -104t-200.5 -36q-200 0 -314 114.5t-114 316.5q0 76 14.5 102.5t56.5 26.5h577q-1 189 -81 282t-220 93q-77 0 -138.5 -22.5t-125.5 -73.5l-51 125q91 75 183.5 108.5t218.5 33.5zM515 117
q170 0 198 289h-320q-31 0 -43 -16t-12 -57q0 -100 48 -158t129 -58z" />
    <glyph glyph-name="circumflex" unicode="&#x2c6;" 
d="M512 1555l315 -239q-19 -59 -70 -110l-250 144l-243 -144q-46 46 -67 110z" />
    <glyph glyph-name="caron" unicode="&#x2c7;" 
d="M517 1402l233 142q47 -47 67 -109l-305 -239l-305 239q19 58 70 109z" />
    <glyph glyph-name="breve" unicode="&#x2d8;" 
d="M333 1505q42 -135 181 -135t181 135q30 0 64.5 -11.5t54.5 -27.5q-27 -121 -104.5 -184.5t-197.5 -63.5t-197.5 63.5t-104.5 184.5q19 16 56 27.5t67 11.5z" />
    <glyph glyph-name="dotaccent" unicode="&#x2d9;" 
d="M356 1372q0 65 43.5 105.5t112.5 40.5t112.5 -40.5t43.5 -105.5t-43.5 -106t-112.5 -41t-112.5 41t-43.5 106z" />
    <glyph glyph-name="ring" unicode="&#x2da;" 
d="M306 1392q0 87 61.5 146.5t144.5 59.5q90 0 148 -56t58 -150q0 -87 -61.5 -146.5t-144.5 -59.5q-90 0 -148 56t-58 150zM419 1392q0 -43 27 -70t66 -27t66 27t27 70t-27 70t-66 27t-66 -27t-27 -70z" />
    <glyph glyph-name="ogonek" unicode="&#x2db;" 
d="M528 8l192 -8q-112 -28 -174 -85t-62 -132q0 -52 27.5 -82t75.5 -30q30 0 62 12.5t52 32.5q28 -42 33 -98q-84 -81 -218 -81q-101 0 -163.5 56.5t-62.5 148.5t67.5 168t170.5 98z" />
    <glyph glyph-name="tilde" unicode="&#x2dc;" 
d="M655 1414q89 0 150 69l31 -108q-31 -54 -90 -90t-116 -36q-71 0 -143.5 31t-117.5 31q-89 0 -150 -69l-31 108q31 54 90 90t116 36q71 0 143.5 -31t117.5 -31z" />
    <glyph glyph-name="hungarumlaut" unicode="&#x2dd;" 
d="M204 1230l113 362q90 -15 167 -65l-154 -345q-68 10 -126 48zM515 1241l144 351q90 -24 161 -79l-183 -331q-67 16 -122 59z" />
    <glyph glyph-name="gravecomb" unicode="&#x300;" horiz-adv-x="0" 
d="M374 1560l378 -248q-25 -73 -72 -122l-408 201q35 92 102 169z" />
    <glyph glyph-name="acutecomb" unicode="&#x301;" horiz-adv-x="0" 
d="M272 1312l378 248q67 -77 102 -169l-408 -201q-47 49 -72 122z" />
    <glyph glyph-name="uni0302" unicode="&#x302;" horiz-adv-x="0" 
d="M512 1555l315 -239q-19 -59 -70 -110l-250 144l-243 -144q-46 46 -67 110z" />
    <glyph glyph-name="tildecomb" unicode="&#x303;" horiz-adv-x="0" 
d="M655 1414q89 0 150 69l31 -108q-31 -54 -90 -90t-116 -36q-71 0 -143.5 31t-117.5 31q-89 0 -150 -69l-31 108q31 54 90 90t116 36q71 0 143.5 -31t117.5 -31z" />
    <glyph glyph-name="uni0304" unicode="&#x304;" horiz-adv-x="0" 
d="M801 1283h-578v153h578v-153z" />
    <glyph glyph-name="uni0306" unicode="&#x306;" horiz-adv-x="0" 
d="M333 1505q42 -135 181 -135t181 135q30 0 64.5 -11.5t54.5 -27.5q-27 -121 -104.5 -184.5t-197.5 -63.5t-197.5 63.5t-104.5 184.5q19 16 56 27.5t67 11.5z" />
    <glyph glyph-name="uni0307" unicode="&#x307;" horiz-adv-x="0" 
d="M356 1372q0 65 43.5 105.5t112.5 40.5t112.5 -40.5t43.5 -105.5t-43.5 -106t-112.5 -41t-112.5 41t-43.5 106z" />
    <glyph glyph-name="uni0308" unicode="&#x308;" horiz-adv-x="0" 
d="M164 1368q0 58 40.5 96.5t99.5 38.5t99.5 -38.5t40.5 -96.5t-40.5 -97t-99.5 -39t-99.5 39t-40.5 97zM580 1368q0 58 40.5 96.5t99.5 38.5t99.5 -38.5t40.5 -96.5t-40.5 -97t-99.5 -39t-99.5 39t-40.5 97z" />
    <glyph glyph-name="uni030A" unicode="&#x30a;" horiz-adv-x="0" 
d="M306 1392q0 87 61.5 146.5t144.5 59.5q90 0 148 -56t58 -150q0 -87 -61.5 -146.5t-144.5 -59.5q-90 0 -148 56t-58 150zM419 1392q0 -43 27 -70t66 -27t66 27t27 70t-27 70t-66 27t-66 -27t-27 -70z" />
    <glyph glyph-name="uni030B" unicode="&#x30b;" horiz-adv-x="0" 
d="M204 1230l113 362q90 -15 167 -65l-154 -345q-68 10 -126 48zM515 1241l144 351q90 -24 161 -79l-183 -331q-67 16 -122 59z" />
    <glyph glyph-name="uni030C" unicode="&#x30c;" horiz-adv-x="0" 
d="M517 1402l233 142q47 -47 67 -109l-305 -239l-305 239q19 58 70 109z" />
    <glyph glyph-name="uni0312" unicode="&#x312;" horiz-adv-x="0" 
d="M545 1458q42 -11 67 -44t25 -78q0 -55 -36.5 -90.5t-93.5 -35.5q-129 0 -129 155q0 106 63 185t164 100q30 -18 38 -56q-88 -42 -98 -136z" />
    <glyph glyph-name="uni0326" unicode="&#x326;" horiz-adv-x="0" 
d="M517 -83q63 0 96 -40t33 -116q0 -106 -63 -185t-164 -100q-30 18 -38 56q88 42 98 136q-42 11 -67 44.5t-25 78.5q0 55 36.5 90.5t93.5 35.5z" />
    <glyph glyph-name="uni0327" unicode="&#x327;" horiz-adv-x="0" 
d="M588 46l-72 -151q97 0 155.5 -48t58.5 -127q0 -99 -69.5 -157t-190.5 -58q-103 0 -176 61q10 58 34 91q55 -41 127 -41q44 0 69.5 22.5t25.5 62.5q0 42 -38.5 65.5t-108.5 23.5l-27 57l85 199h127z" />
    <glyph glyph-name="Delta" unicode="&#x394;" horiz-adv-x="1472" 
d="M1422 0h-1372l589 1438h194zM681 1070l-375 -922h750z" />
    <glyph glyph-name="Omega" unicode="&#x3a9;" horiz-adv-x="1650" 
d="M1430 334l138 -9q0 -154 -26 -325h-644v168q125 40 199 211t74 427q0 247 -85 379.5t-261 132.5q-345 0 -345 -512q0 -256 74 -427t199 -211v-168h-644q-27 177 -27 325l139 9q16 -107 57.5 -143t146.5 -36h133q-176 80 -283.5 257t-107.5 394q0 304 175 482t483 178
q321 0 490 -176t169 -484q0 -214 -112.5 -391.5t-285.5 -259.5h140q105 0 146.5 36t57.5 143z" />
    <glyph glyph-name="mu" unicode="&#x3bc;" horiz-adv-x="1314" 
d="M1242 118l-4 -106l-360 -32q-19 71 -24 180q-50 -87 -132 -136t-178 -49q-46 0 -84 9q7 -89 7 -149v-241l-280 -40v1263q0 57 -12 76.5t-54 28.5l-48 10l-4 100l401 49v-734q0 -99 38 -147t118 -48q131 0 203 130v535q0 57 -13.5 75.5t-62.5 29.5l-48 10l-4 100l411 49
v-849q0 -56 16 -78t64 -29z" />
    <glyph glyph-name="pi" unicode="&#x3c0;" horiz-adv-x="1357" 
d="M1117 919v-687q0 -58 16 -77.5t63 -19.5q42 0 75 5l6 -112q-113 -48 -224 -48q-123 0 -171 50.5t-48 181.5v707h-344v-919h-283v919h-180l15 157h1268v-157h-193z" />
    <glyph glyph-name="Wgrave" unicode="&#x1e80;" horiz-adv-x="2115" 
d="M953 1905l377 -249q-25 -74 -71 -121l-408 201q35 92 102 169zM2118 1434l-4 -107l-50 -7q-52 -7 -79 -41.5t-61 -137.5l-372 -1145h-216l-270 975l-310 -975h-217l-334 1145q-30 102 -55.5 136t-79.5 43l-40 7l-4 107h589l-4 -107l-51 -7q-46 -6 -64.5 -19.5
t-18.5 -46.5q0 -35 21 -113l204 -764l321 1057h193l283 -1057l231 764q25 84 25 116t-22 45t-79 20l-44 5l4 107h504z" />
    <glyph glyph-name="wgrave" unicode="&#x1e81;" horiz-adv-x="1738" 
d="M768 1560l378 -248q-25 -73 -72 -122l-407 201q36 94 101 169zM1737 1056l-4 -104l-27 -6q-49 -10 -70.5 -32t-44.5 -85l-298 -832h-218l-204 666l-225 -666h-218l-272 832q-22 67 -40 88t-59 28l-38 7l-4 104h536l-5 -104l-45 -7q-42 -6 -59.5 -18.5t-17.5 -38.5
q0 -21 12 -59l159 -522l242 749h178l227 -749l168 522q16 51 16 70q0 22 -17 31t-63 15l-44 7l4 104h431z" />
    <glyph glyph-name="Wacute" unicode="&#x1e82;" horiz-adv-x="2115" 
d="M1374 1736l-408 -201q-46 47 -71 121l377 249q67 -77 102 -169zM2118 1434l-4 -107l-50 -7q-52 -7 -79 -41.5t-61 -137.5l-372 -1145h-216l-270 975l-310 -975h-217l-334 1145q-30 102 -55.5 136t-79.5 43l-40 7l-4 107h589l-4 -107l-51 -7q-47 -6 -65 -19.5t-18 -45.5
q0 -36 21 -114l204 -764l321 1057h193l283 -1057l231 764q25 84 25 116t-22 45t-79 20l-44 5l4 107h504z" />
    <glyph glyph-name="wacute" unicode="&#x1e83;" horiz-adv-x="1738" 
d="M1171 1391l-408 -201q-45 47 -71 122l378 248q65 -75 101 -169zM1737 1056l-4 -104l-27 -6q-49 -10 -70.5 -32t-44.5 -85l-298 -832h-218l-204 666l-225 -666h-218l-272 832q-22 67 -40 88t-59 28l-38 7l-4 104h536l-5 -104l-45 -7q-42 -6 -59.5 -18.5t-17.5 -38.5
q0 -21 12 -59l159 -522l242 749h178l227 -749l168 522q16 51 16 70q0 22 -17 31t-63 15l-44 7l4 104h431z" />
    <glyph glyph-name="Wdieresis" unicode="&#x1e84;" horiz-adv-x="2115" 
d="M905 1577q-59 0 -99.5 38.5t-40.5 96.5t40.5 97t99.5 39t99.5 -39t40.5 -97t-40.5 -96.5t-99.5 -38.5zM1321 1577q-59 0 -99.5 38.5t-40.5 96.5t40.5 97t99.5 39t99.5 -39t40.5 -97t-40.5 -96.5t-99.5 -38.5zM2118 1434l-4 -107l-50 -7q-52 -7 -79 -41.5t-61 -137.5
l-372 -1145h-216l-270 975l-310 -975h-217l-334 1145q-30 102 -55.5 136t-79.5 43l-40 7l-4 107h589l-4 -107l-51 -7q-47 -6 -65 -19.5t-18 -45.5q0 -36 21 -114l204 -764l321 1057h193l283 -1057l231 764q25 84 25 116t-22 45t-79 20l-44 5l4 107h504z" />
    <glyph glyph-name="wdieresis" unicode="&#x1e85;" horiz-adv-x="1738" 
d="M711 1232q-59 0 -99.5 39t-40.5 97t40.5 96.5t99.5 38.5t99.5 -38.5t40.5 -96.5t-40.5 -97t-99.5 -39zM1127 1232q-59 0 -99.5 39t-40.5 97t40.5 96.5t99.5 38.5t99.5 -38.5t40.5 -96.5t-40.5 -97t-99.5 -39zM1737 1056l-4 -104l-27 -6q-49 -10 -70.5 -32t-44.5 -85
l-298 -832h-218l-204 666l-225 -666h-218l-272 832q-22 67 -40 88t-59 28l-38 7l-4 104h536l-5 -104l-45 -7q-42 -6 -59.5 -18.5t-17.5 -38.5q0 -21 12 -59l159 -522l242 749h178l227 -749l168 522q16 51 16 70q0 22 -17 31t-63 15l-44 7l4 104h431z" />
    <glyph glyph-name="Ygrave" unicode="&#x1ef2;" horiz-adv-x="1353" 
d="M536 1905l378 -249q-25 -72 -72 -121l-407 201q36 94 101 169zM1353 1434l-4 -107l-35 -5q-59 -8 -85 -34t-96 -147l-312 -545v-356q0 -65 17.5 -87t80.5 -32l82 -13l-4 -108h-636l4 108l91 16q45 8 60.5 32t15.5 84v356l-315 545q-71 123 -94 148t-72 33l-28 5l-4 107
h603l-4 -107l-48 -6q-87 -11 -87 -64q0 -34 33 -91l225 -389l216 389q36 64 36 97q0 26 -20.5 39t-65.5 18l-59 7l4 107h501z" />
    <glyph glyph-name="ygrave" unicode="&#x1ef3;" horiz-adv-x="1171" 
d="M428 1560l378 -248q-25 -73 -72 -122l-407 201q36 94 101 169zM1169 1056l-4 -104l-27 -6q-48 -10 -69 -30.5t-47 -86.5l-341 -848q-97 -241 -203.5 -336.5t-280.5 -95.5q-49 0 -96 12q-29 49 -29 102t31.5 84.5t83.5 31.5q29 0 69 -14t65 -14q60 0 97.5 41t81.5 155
l14 38q-50 35 -84 123l-280 720q-28 72 -44.5 91.5t-54.5 25.5l-38 7l-4 104h549l-5 -104l-45 -7q-41 -6 -59.5 -19.5t-18.5 -39.5q0 -25 13 -58l198 -539l200 539q17 48 17 66q0 23 -18 34t-62 17l-45 7l4 104h432z" />
    <glyph glyph-name="enspace" unicode="&#x2002;" 
 />
    <glyph glyph-name="uni2003" unicode="&#x2003;" horiz-adv-x="2048" 
 />
    <glyph glyph-name="uni2004" unicode="&#x2004;" horiz-adv-x="681" 
 />
    <glyph glyph-name="uni2005" unicode="&#x2005;" horiz-adv-x="512" 
 />
    <glyph glyph-name="uni2006" unicode="&#x2006;" horiz-adv-x="339" 
 />
    <glyph glyph-name="uni2007" unicode="&#x2007;" horiz-adv-x="1155" 
 />
    <glyph glyph-name="uni2008" unicode="&#x2008;" horiz-adv-x="577" 
 />
    <glyph glyph-name="uni2009" unicode="&#x2009;" horiz-adv-x="256" 
 />
    <glyph glyph-name="uni200A" unicode="&#x200a;" horiz-adv-x="153" 
 />
    <glyph glyph-name="zerowidthspace" unicode="&#x200b;" horiz-adv-x="0" 
 />
    <glyph glyph-name="endash" unicode="&#x2013;" horiz-adv-x="1277" 
d="M1151 479h-1024v171h1024v-171z" />
    <glyph glyph-name="emdash" unicode="&#x2014;" horiz-adv-x="2301" 
d="M2175 479h-2048v171h2048v-171z" />
    <glyph glyph-name="quoteleft" unicode="&#x2018;" horiz-adv-x="520" 
d="M290 1285q58 -13 94 -58.5t36 -108.5q0 -74 -48.5 -122.5t-122.5 -48.5q-83 0 -127.5 54t-44.5 156q0 150 92 274t219 146q41 -23 52 -75q-137 -65 -150 -217z" />
    <glyph glyph-name="quoteright" unicode="&#x2019;" horiz-adv-x="524" 
d="M280 1552q83 0 127 -54.5t44 -156.5q0 -150 -92 -273.5t-219 -145.5q-41 23 -52 75q138 66 151 217q-58 13 -94 58.5t-36 108.5q0 74 48.5 122.5t122.5 48.5z" />
    <glyph glyph-name="quotesinglbase" unicode="&#x201a;" horiz-adv-x="524" 
d="M259 315q83 0 127 -54.5t44 -156.5q0 -150 -92 -273.5t-219 -145.5q-41 23 -52 74q138 66 151 218q-58 13 -94 58.5t-36 108.5q0 74 48.5 122.5t122.5 48.5z" />
    <glyph glyph-name="quotedblleft" unicode="&#x201c;" horiz-adv-x="983" 
d="M440 1502q-137 -65 -150 -217q58 -13 94 -58.5t36 -108.5q0 -74 -48.5 -122.5t-122.5 -48.5q-83 0 -127 54t-44 156q0 150 91.5 274t218.5 146q41 -23 52 -75zM754 1285q58 -13 94 -58.5t36 -108.5q0 -74 -48.5 -122.5t-122.5 -48.5q-83 0 -127 54t-44 156
q0 150 91.5 274t218.5 146q41 -23 52 -75q-137 -65 -150 -217z" />
    <glyph glyph-name="quotedblright" unicode="&#x201d;" horiz-adv-x="989" 
d="M280 1552q83 0 127 -54.5t44 -156.5q0 -150 -92 -273.5t-219 -145.5q-41 23 -52 75q138 66 151 217q-58 13 -94 58.5t-36 108.5q0 74 48.5 122.5t122.5 48.5zM744 1552q83 0 127 -54.5t44 -156.5q0 -150 -92 -273.5t-219 -145.5q-41 23 -52 75q138 66 151 217
q-58 13 -94 58.5t-36 108.5q0 74 48.5 122.5t122.5 48.5z" />
    <glyph glyph-name="quotedblbase" unicode="&#x201e;" horiz-adv-x="989" 
d="M259 315q83 0 127 -54.5t44 -156.5q0 -150 -92 -273.5t-219 -145.5q-41 23 -52 74q138 66 151 218q-58 13 -94 58.5t-36 108.5q0 74 48.5 122.5t122.5 48.5zM723 315q83 0 127 -54.5t44 -156.5q0 -150 -92 -273.5t-219 -145.5q-41 23 -52 74q138 66 151 218
q-58 13 -94 58.5t-36 108.5q0 74 48.5 122.5t122.5 48.5z" />
    <glyph glyph-name="dagger" unicode="&#x2020;" horiz-adv-x="1030" 
d="M973 987v-202l-83 -4l-17 10q-28 18 -77 18h-179v-596q0 -287 -38 -571h-128q-38 284 -38 571v596h-180q-47 0 -76 -18l-17 -10l-83 4v202l83 4l17 -10q30 -19 76 -19h180v309q0 30 -6.5 43.5t-24.5 23.5l-22 13l4 83h302l4 -83l-23 -13q-18 -10 -24 -23t-6 -44v-309h179
q47 0 77 19l17 10z" />
    <glyph glyph-name="daggerdbl" unicode="&#x2021;" horiz-adv-x="1122" 
d="M663 809v-543h180q48 0 77 18l16 10l83 -4v-202l-83 -4l-16 11q-29 18 -77 18h-180v-309q0 -30 6.5 -43.5t24.5 -23.5l22 -12l-4 -83h-301l-4 83l22 12q18 10 24.5 23.5t6.5 43.5v309h-180q-48 0 -77 -18l-16 -11l-83 4v202l83 4l16 -10q29 -18 77 -18h180v543h-180
q-48 0 -77 -18l-16 -10l-83 4v202l83 4l16 -10q30 -19 77 -19h180v309q0 30 -6.5 43.5t-24.5 23.5l-22 13l4 83h301l4 -83l-22 -13q-18 -10 -24.5 -23.5t-6.5 -43.5v-309h180q47 0 77 19l16 10l83 -4v-202l-83 -4l-16 10q-29 18 -77 18h-180z" />
    <glyph glyph-name="bullet" unicode="&#x2022;" horiz-adv-x="882" 
d="M129 681q0 134 89 223t223 89t223 -89t89 -223t-89 -223t-223 -89t-223 89t-89 223z" />
    <glyph glyph-name="ellipsis" unicode="&#x2026;" horiz-adv-x="1533" 
d="M88 144q0 74 48.5 122.5t122.5 48.5t122.5 -48.5t48.5 -122.5t-48.5 -122.5t-122.5 -48.5t-122.5 48.5t-48.5 122.5zM596 144q0 74 48.5 122.5t122.5 48.5t122.5 -48.5t48.5 -122.5t-48.5 -122.5t-122.5 -48.5t-122.5 48.5t-48.5 122.5zM1104 144q0 74 48.5 122.5
t122.5 48.5t123 -48.5t49 -122.5t-49 -122.5t-123 -48.5t-122.5 48.5t-48.5 122.5z" />
    <glyph glyph-name="perthousand" unicode="&#x2030;" horiz-adv-x="2723" 
d="M495 -102h-175l1063 1638h175zM61 1070q0 183 99.5 281.5t262.5 98.5q362 0 362 -380q0 -180 -98.5 -281t-263.5 -101q-176 0 -269 99.5t-93 282.5zM277 1070q0 -126 38.5 -193t107.5 -67t107 67t38 193q0 258 -145 258q-146 0 -146 -258zM1092 365q0 183 100 282t262 99
q363 0 363 -381q0 -180 -99 -280.5t-264 -100.5q-176 0 -269 99t-93 282zM1939 365q0 183 100 282t262 99q362 0 362 -381q0 -180 -98.5 -280.5t-263.5 -100.5q-176 0 -269 99t-93 282zM1309 365q0 -126 38 -192.5t107 -66.5t107.5 66.5t38.5 192.5q0 259 -146 259
q-145 0 -145 -259zM2156 365q0 -126 38 -192.5t107 -66.5t107.5 66.5t38.5 192.5q0 259 -146 259q-145 0 -145 -259z" />
    <glyph glyph-name="guilsinglleft" unicode="&#x2039;" horiz-adv-x="653" 
d="M567 872l-237 -334q135 -209 237 -354l-117 -81q-108 58 -385 425q277 367 385 425z" />
    <glyph glyph-name="guilsinglright" unicode="&#x203a;" horiz-adv-x="653" 
d="M87 872l117 81q108 -58 385 -425q-277 -367 -385 -425l-117 81l236 334q-146 226 -236 354z" />
    <glyph glyph-name="fraction" unicode="&#x2044;" horiz-adv-x="438" 
d="M-224 -102h-176l1063 1638h175z" />
    <glyph glyph-name="Euro" unicode="&#x20ac;" horiz-adv-x="1456" 
d="M1347 409v-338q-95 -49 -213.5 -76.5t-233.5 -27.5q-281 0 -446.5 143.5t-208.5 410.5h-179v130h165q-1 22 -1 66q0 22 2 66h-166v130h182q51 261 228 407t424 146q112 0 240 -25.5t193 -25.5q4 -79 4 -195q0 -112 -4 -172l-160 -10q-17 144 -80.5 212t-185.5 68
q-142 0 -232.5 -103t-118.5 -302h392v-130h-403q-2 -42 -2 -66t2 -66h403v-130h-392q28 -195 116 -300t235 -105q133 0 200.5 72.5t84.5 229.5z" />
    <glyph glyph-name="uni2113" unicode="&#x2113;" horiz-adv-x="866" 
d="M582 147q91 0 168 50l16 -118q-141 -104 -297 -104q-148 0 -220.5 65.5t-72.5 201.5v175q-43 -20 -77 -35l-33 116q48 24 110 58v459q0 258 85 375t270 117q140 0 215.5 -84t75.5 -238q0 -360 -378 -618v-281q0 -73 33 -106t105 -33zM444 1107v-361q90 89 130 192.5
t40 239.5q0 170 -82 170q-48 0 -68 -55t-20 -186z" />
    <glyph glyph-name="uni2116" unicode="&#x2116;" horiz-adv-x="2336" 
d="M1914 729q-174 0 -269 94.5t-95 268.5t101.5 268t262.5 94q364 0 364 -362q0 -170 -100 -266.5t-264 -96.5zM980 1434h475l-4 -107l-71 -11q-45 -7 -60.5 -28t-15.5 -71v-1217h-278l-482 838q-83 144 -140 312q11 -136 11 -273v-661q0 -54 16.5 -70.5t81.5 -28.5l54 -11
l-4 -106h-471l4 106l63 13q46 10 61 29t15 68v1001q0 54 -17 71.5t-81 30.5l-41 8l-4 107h431l482 -838q78 -138 127 -273q-9 126 -9 234v660q0 54 -17 71.5t-81 30.5l-41 8zM1914 1350q-69 0 -101 -61.5t-32 -196.5q0 -128 34 -193.5t99 -65.5t99 65.5t34 193.5
q0 135 -32 196.5t-101 61.5zM1587 598h654v-113h-654v113z" />
    <glyph glyph-name="uni2117" unicode="&#x2117;" horiz-adv-x="1712" 
d="M856 1487q220 0 396 -99t275 -275t99 -396q0 -218 -103.5 -395.5t-279.5 -276t-387 -98.5t-387 98.5t-279.5 276t-103.5 395.5t103.5 395.5t279.5 276t387 98.5zM856 85q128 0 241.5 48t196 131t130.5 201t48 252t-48 252t-130.5 201t-196 131t-241.5 48t-241.5 -48
t-196 -131t-130.5 -201t-48 -252t48 -252t130.5 -201t196 -131t241.5 -48zM876 1059q157 0 229 -51.5t72 -163.5q0 -100 -81.5 -157t-225.5 -57q-25 0 -55 3v-126q0 -30 7 -39.5t34 -13.5l45 -7l-2 -66h-337l2 66l25 5q22 5 29 13.5t7 33.5v436q0 26 -7.5 35t-34.5 14l-19 4
l-2 66h75q48 0 122 2.5t117 2.5zM867 715q57 0 87 33t30 96q0 69 -27 100.5t-84 31.5q-26 0 -62 -4v-254q22 -3 56 -3z" />
    <glyph glyph-name="trademark" unicode="&#x2122;" horiz-adv-x="1904" 
d="M95 1434h647q14 -101 14 -198l-111 -5q-8 75 -24 96t-67 21h-38v-473q0 -31 7.5 -42t34.5 -15l38 -5l-2 -68h-350l2 68l39 7q22 4 29 15t7 40v473h-38q-51 0 -67 -21t-24 -96l-111 5q0 97 14 198zM1800 813l-2 -68h-315l2 68l25 5q19 4 25.5 14t4.5 35l-15 234
q-5 85 -7 167q-23 -82 -68 -208l-111 -315h-170l-100 303q-39 120 -61 219q-3 -96 -11 -187l-21 -213q0 -3 -0.5 -7.5t-0.5 -6.5q0 -18 8 -25.5t28 -10.5l25 -4l-2 -68h-236l2 68l25 5q21 5 27.5 13t8.5 36l42 445q0 3 0.5 7t0.5 6q0 17 -9 24.5t-34 12.5l-18 4l-2 68h295
l155 -497l165 497h304l-2 -68l-29 -4q-23 -3 -30 -13.5t-5 -36.5l39 -445q2 -29 9.5 -37.5t32.5 -12.5z" />
    <glyph glyph-name="Ohm" unicode="&#x2126;" horiz-adv-x="1650" 
d="M1430 334l138 -9q0 -154 -26 -325h-644v168q125 40 199 211t74 427q0 247 -85 379.5t-261 132.5q-345 0 -345 -512q0 -256 74 -427t199 -211v-168h-644q-27 177 -27 325l139 9q16 -107 57.5 -143t146.5 -36h133q-176 80 -283.5 257t-107.5 394q0 304 175 482t483 178
q321 0 490 -176t169 -484q0 -214 -112.5 -391.5t-285.5 -259.5h140q105 0 146.5 36t57.5 143z" />
    <glyph glyph-name="estimated" unicode="&#x212e;" horiz-adv-x="1566" 
d="M380 653v-327q73 -113 183.5 -173.5t230.5 -60.5q85 0 159 22.5t126.5 61t89.5 82.5t61 94h187q-35 -74 -89.5 -139.5t-130.5 -122t-180 -90t-223 -33.5q-155 0 -287.5 59t-223.5 160.5t-142.5 239t-51.5 291.5q0 213 94 385t255 268t356 96q166 0 300 -56t222 -156
t135.5 -237t47.5 -300q0 -34 -3 -64h-1116zM794 1341q-128 0 -236 -54.5t-178 -161.5v-334h836v321q-70 114 -180 171.5t-242 57.5z" />
    <glyph glyph-name="uni2153" unicode="&#x2153;" horiz-adv-x="1744" 
d="M1416 1536l-1063 -1638h-175l1063 1638h175zM71 664l57 8q42 6 59 18.5t17 41.5v547q-53 -19 -122 -31l-27 -5l-13 79l248 120h131v-710q0 -31 15 -42t63 -19l47 -7l-2 -82h-475zM1480 451q202 -37 202 -211q0 -121 -91.5 -187.5t-258.5 -66.5q-154 0 -263 53
q-5 22 -5 42q0 90 77 90q27 0 50 -13.5t37.5 -29t40 -29t57.5 -13.5q59 0 93.5 41t34.5 112q0 74 -51.5 109.5t-158.5 35.5q-28 0 -72 -7l-8 110q133 0 197.5 35.5t64.5 109.5q0 115 -131 115q-88 0 -175 -62l-27 112q106 73 278 73q135 0 209 -55t74 -155q0 -79 -45 -132.5
t-129 -76.5z" />
    <glyph glyph-name="uni2154" unicode="&#x2154;" horiz-adv-x="1861" 
d="M1534 1536l-1063 -1638h-175l1063 1638h175zM633 582h-577v108q333 278 333 493q0 70 -30.5 101.5t-96.5 31.5q-97 0 -177 -74l-26 126q45 38 122.5 61t159.5 23q136 0 206 -62.5t70 -182.5q0 -131 -85.5 -255.5t-250.5 -234.5q88 9 185 9h167v-144zM1598 451
q202 -37 202 -211q0 -121 -91.5 -187.5t-258.5 -66.5q-154 0 -263 53q-6 26 -6 42q0 90 78 90q27 0 50 -13.5t37.5 -29t40 -29t57.5 -13.5q59 0 93 41t34 112q0 74 -51.5 109.5t-158.5 35.5q-27 0 -71 -7l-8 110q133 0 197.5 35.5t64.5 109.5q0 56 -33.5 85.5t-98.5 29.5
q-88 0 -175 -62l-26 112q106 73 278 73q135 0 209 -55t74 -155q0 -79 -45 -132.5t-129 -76.5z" />
    <glyph glyph-name="uni2155" unicode="&#x2155;" horiz-adv-x="1742" 
d="M1416 1536l-1063 -1638h-175l1063 1638h175zM71 664l57 8q42 6 59 18.5t17 41.5v547q-53 -19 -122 -31l-27 -5l-13 79l248 120h131v-710q0 -31 15 -42t63 -19l47 -7l-2 -82h-475zM1419 526q122 0 193 -72t71 -197q0 -133 -89 -202t-257 -69q-154 0 -263 53q-5 22 -5 42
q0 90 78 90q27 0 49.5 -13.5t37 -29t40 -29t57.5 -13.5q60 0 94 43.5t34 125.5q0 65 -34.5 102.5t-95.5 37.5q-66 0 -114 -55l-114 32l46 480h517v-158h-396l-25 -234q66 66 176 66z" />
    <glyph glyph-name="uni2156" unicode="&#x2156;" horiz-adv-x="1861" 
d="M1534 1536l-1063 -1638h-175l1063 1638h175zM633 582h-577v108q333 278 333 493q0 70 -30.5 101.5t-96.5 31.5q-97 0 -177 -74l-26 126q45 38 122.5 61t159.5 23q136 0 206 -62.5t70 -182.5q0 -131 -85.5 -255.5t-250.5 -234.5q88 9 185 9h167v-144zM1536 526
q123 0 194 -72t71 -197q0 -133 -89 -202t-257 -69q-154 0 -263 53q-5 22 -5 42q0 90 78 90q27 0 49.5 -13.5t37 -29t40 -29t57.5 -13.5q60 0 94 43.5t34 125.5q0 65 -34.5 102.5t-95.5 37.5q-66 0 -114 -55l-114 32l46 480h516v-158h-395l-26 -234q66 66 176 66z" />
    <glyph glyph-name="uni2157" unicode="&#x2157;" horiz-adv-x="1894" 
d="M1567 1536l-1063 -1638h-175l1063 1638h175zM666 822q0 -122 -92 -188.5t-259 -66.5q-153 0 -262 53q-6 26 -6 42q0 91 78 91q27 0 50 -13.5t37.5 -29t40 -29t57.5 -13.5q59 0 93 41t34 112q0 74 -51 109t-159 35q-28 0 -72 -7l-7 110q261 0 261 146q0 115 -131 115
q-86 0 -175 -63l-26 113q106 73 278 73q135 0 209 -55t74 -155q0 -79 -45.5 -132.5t-129.5 -76.5q203 -38 203 -211zM1569 526q123 0 194 -72t71 -197q0 -133 -89 -202t-257 -69q-154 0 -263 53q-5 22 -5 42q0 90 77 90q27 0 50 -13.5t37.5 -29t40 -29t57.5 -13.5
q60 0 94 43.5t34 125.5q0 65 -34.5 102.5t-95.5 37.5q-66 0 -114 -55l-114 32l46 480h516v-158h-395l-26 -234q66 66 176 66z" />
    <glyph glyph-name="uni2158" unicode="&#x2158;" horiz-adv-x="1927" 
d="M1600 1536l-1063 -1638h-175l1063 1638h175zM404 795h-375v88l386 552h197v-517h96v-123h-96v-213h-208v213zM418 918v318l-228 -318h228zM1603 526q123 0 194 -72t71 -197q0 -133 -89 -202t-257 -69q-154 0 -263 53q-6 26 -6 42q0 90 78 90q27 0 50 -13.5t37.5 -29
t40 -29t57.5 -13.5q60 0 93.5 43.5t33.5 125.5q0 65 -34 102.5t-95 37.5q-66 0 -114 -55l-114 32l46 480h516v-158h-395l-26 -234q66 66 176 66z" />
    <glyph glyph-name="uni2159" unicode="&#x2159;" horiz-adv-x="1785" 
d="M1416 1536l-1063 -1638h-175l1063 1638h175zM71 664l57 8q42 6 59 18.5t17 41.5v547q-53 -19 -122 -31l-27 -5l-13 79l248 120h131v-710q0 -31 15 -42t63 -19l47 -7l-2 -82h-475zM1487 540q115 0 179.5 -72t64.5 -200q0 -130 -88 -206t-238 -76q-166 0 -246 98.5
t-80 304.5q0 231 110.5 356t315.5 125q118 0 202 -39l-19 -111q-77 35 -159 35q-123 0 -186.5 -87.5t-64.5 -260.5q24 62 79 97.5t130 35.5zM1410 95q53 0 84 42.5t31 117.5t-27 116t-79 41q-54 0 -87 -42t-33 -115q0 -76 28.5 -118t82.5 -42z" />
    <glyph glyph-name="uni215A" unicode="&#x215a;" horiz-adv-x="1935" 
d="M1566 1536l-1063 -1638h-175l1063 1638h175zM667 838q0 -133 -89 -202t-257 -69q-154 0 -263 53q-5 22 -5 42q0 91 77 91q27 0 50 -13.5t37.5 -29t40 -29t57.5 -13.5q60 0 93.5 43.5t33.5 125.5q0 65 -34 102t-95 37q-67 0 -114 -54l-114 32l46 480h516v-158h-395
l-26 -234q66 66 176 66q122 0 193.5 -72.5t71.5 -197.5zM1636 540q115 0 180 -72.5t65 -199.5q0 -130 -88 -206t-238 -76q-167 0 -247 99t-80 304q0 231 111 356t316 125q118 0 202 -39l-20 -111q-77 35 -158 35q-123 0 -186.5 -87.5t-64.5 -260.5q24 62 78.5 97.5
t129.5 35.5zM1560 95q53 0 83.5 42.5t30.5 117.5t-27 116t-79 41q-53 0 -86 -42t-33 -115q0 -76 28.5 -118t82.5 -42z" />
    <glyph glyph-name="oneeighth" unicode="&#x215b;" horiz-adv-x="1773" 
d="M1416 1536l-1063 -1638h-175l1063 1638h175zM71 664l57 8q42 6 59 18.5t17 41.5v547q-53 -19 -122 -31l-27 -5l-13 79l248 120h131v-710q0 -31 15 -42t63 -19l47 -7l-2 -82h-475zM1533 487q40 -20 68.5 -39.5t56 -47.5t41.5 -65.5t14 -83.5q0 -118 -91.5 -191.5
t-237.5 -73.5q-147 0 -226 59.5t-79 171.5q0 69 42 124.5t117 87.5q-65 38 -101.5 87t-36.5 124q0 106 81.5 168t222.5 62q135 0 208.5 -51.5t73.5 -147.5q0 -64 -40 -112t-113 -72zM1409 774q-48 0 -75 -26t-27 -73q0 -46 32.5 -77.5t93.5 -62.5q80 51 80 137
q0 102 -104 102zM1379 82q62 0 94 31t32 90q0 33 -12.5 59t-39 47.5t-50 35.5t-63.5 33q-88 -58 -88 -163q0 -62 34 -97.5t93 -35.5z" />
    <glyph glyph-name="threeeighths" unicode="&#x215c;" horiz-adv-x="1925" 
d="M1567 1536l-1063 -1638h-175l1063 1638h175zM666 822q0 -122 -92 -188.5t-259 -66.5q-153 0 -262 53q-6 26 -6 42q0 91 78 91q27 0 50 -13.5t37.5 -29t40 -29t57.5 -13.5q59 0 93 41t34 112q0 74 -51 109t-159 35q-28 0 -72 -7l-7 110q261 0 261 146q0 115 -131 115
q-86 0 -175 -63l-26 113q106 73 278 73q135 0 209 -55t74 -155q0 -79 -45.5 -132.5t-129.5 -76.5q203 -38 203 -211zM1684 487q40 -20 68.5 -39.5t56 -47.5t41.5 -65.5t14 -83.5q0 -118 -91.5 -191.5t-237.5 -73.5q-147 0 -226.5 59.5t-79.5 171.5q0 69 42 124.5t118 87.5
q-65 38 -102 87t-37 124q0 106 82 168t223 62q135 0 208 -51.5t73 -147.5q0 -64 -39.5 -112t-112.5 -72zM1560 774q-48 0 -75 -26t-27 -73q0 -46 32.5 -77.5t93.5 -62.5q80 51 80 137q0 102 -104 102zM1530 82q62 0 94 31t32 90q0 33 -12.5 59t-39 47.5t-50 35.5t-63.5 33
q-88 -58 -88 -163q0 -62 34 -97.5t93 -35.5z" />
    <glyph glyph-name="fiveeighths" unicode="&#x215d;" horiz-adv-x="1923" 
d="M1566 1536l-1063 -1638h-175l1063 1638h175zM667 838q0 -133 -89 -202t-257 -69q-154 0 -263 53q-5 22 -5 42q0 91 77 91q27 0 50 -13.5t37.5 -29t40 -29t57.5 -13.5q60 0 93.5 43.5t33.5 125.5q0 65 -34 102t-95 37q-67 0 -114 -54l-114 32l46 480h516v-158h-395
l-26 -234q66 66 176 66q122 0 193.5 -72.5t71.5 -197.5zM1683 487q40 -20 68.5 -39.5t56 -47.5t41.5 -65.5t14 -83.5q0 -118 -91.5 -191.5t-237.5 -73.5q-147 0 -226.5 59.5t-79.5 171.5q0 69 42 124.5t118 87.5q-65 38 -102 87t-37 124q0 106 82 168t223 62
q135 0 208 -51.5t73 -147.5q0 -64 -39.5 -112t-112.5 -72zM1559 774q-48 0 -75 -26t-27 -73q0 -46 32.5 -77.5t93.5 -62.5q80 51 80 137q0 102 -104 102zM1529 82q62 0 94 31t32 90q0 33 -12.5 59t-39 47.5t-50 35.5t-63.5 33q-88 -58 -88 -163q0 -62 34 -97.5t93 -35.5z
" />
    <glyph glyph-name="seveneighths" unicode="&#x215e;" horiz-adv-x="1800" 
d="M1442 1536l-1063 -1638h-175l1063 1638h175zM343 578q-42 -9 -89 -9q-113 0 -113 96q0 71 70 225q88 195 245 391h-418v153h598l5 -103l-71 -136q-137 -264 -190 -463q-27 -104 -37 -154zM1559 487q40 -20 68.5 -39.5t56 -47.5t41.5 -65.5t14 -83.5q0 -118 -91.5 -191.5
t-237.5 -73.5q-147 0 -226 59.5t-79 171.5q0 69 42 124.5t117 87.5q-65 38 -102 87t-37 124q0 106 82 168t223 62q135 0 208 -51.5t73 -147.5q0 -64 -39.5 -112t-112.5 -72zM1435 774q-48 0 -75 -26t-27 -73q0 -46 32.5 -77.5t93.5 -62.5q80 51 80 137q0 102 -104 102z
M1405 82q62 0 94 31t32 90q0 33 -12.5 59t-39 47.5t-50 35.5t-63.5 33q-88 -58 -88 -163q0 -62 34 -97.5t93 -35.5z" />
    <glyph glyph-name="onefraction" unicode="&#x215f;" horiz-adv-x="1015" 
d="M1416 1536l-1063 -1638h-175l1063 1638h175zM71 664l57 8q42 6 59 18.5t17 41.5v547q-53 -19 -122 -31l-27 -5l-13 79l248 120h131v-710q0 -31 15 -42t63 -19l47 -7l-2 -82h-475z" />
    <glyph glyph-name="arrowleft" unicode="&#x2190;" horiz-adv-x="1646" 
d="M1548 449h-944q-118 0 -220 9q65 -64 144 -168l247 -326l-103 -59l-627 627l627 628l103 -59l-247 -326q-79 -104 -144 -168q102 9 220 9h944v-167z" />
    <glyph glyph-name="arrowup" unicode="&#x2191;" horiz-adv-x="1646" 
d="M1450 684l-58 -103l-326 247q-104 79 -168 144q9 -102 9 -221v-944h-167v944q0 119 9 221q-64 -65 -168 -144l-326 -247l-59 103l627 627z" />
    <glyph glyph-name="arrowright" unicode="&#x2192;" horiz-adv-x="1646" 
d="M1602 532l-627 -627l-103 59l247 326q79 104 144 168q-102 -9 -221 -9h-944v167h944q119 0 221 -9q-65 64 -144 168l-247 326l103 59z" />
    <glyph glyph-name="arrowdown" unicode="&#x2193;" horiz-adv-x="1646" 
d="M1450 381l-627 -627l-627 627l59 103l326 -247q104 -79 168 -144q-9 102 -9 220v944h167v-944q0 -118 -9 -220q64 65 168 144l326 247z" />
    <glyph glyph-name="uni2196" unicode="&#x2196;" horiz-adv-x="1646" 
d="M1394 79l-118 -117l-667 667q-78 78 -149 162v-12q0 -77 -18 -208l-56 -406l-114 32v887h887l31 -114l-405 -56q-131 -18 -209 -18h-11q84 -71 162 -149z" />
    <glyph glyph-name="uni2197" unicode="&#x2197;" horiz-adv-x="1646" 
d="M1374 1084v-887l-114 -32l-56 405q-17 123 -17 209v12q-71 -84 -149 -162l-668 -668l-118 118l668 668q77 78 162 149h-12q-78 0 -209 18l-405 56l31 114h887z" />
    <glyph glyph-name="uni2198" unicode="&#x2198;" horiz-adv-x="1646" 
d="M1374 868v-887h-887l-31 114l405 56q131 18 209 18h12q-84 72 -162 149l-668 668l118 117l668 -667q78 -78 149 -162v12q0 85 17 208l56 406z" />
    <glyph glyph-name="uni2199" unicode="&#x2199;" horiz-adv-x="1646" 
d="M576 169q78 0 209 -18l405 -56l-31 -114h-887v887l114 32l56 -406q18 -130 18 -208v-12q71 85 149 162l667 667l118 -117l-667 -668q-78 -77 -162 -149h11z" />
    <glyph glyph-name="partialdiff" unicode="&#x2202;" horiz-adv-x="1193" 
d="M464 1454q310 0 477.5 -177t167.5 -505q0 -231 -70 -412t-196.5 -282t-288.5 -101q-230 0 -359.5 120.5t-129.5 335.5q0 221 121.5 356t319.5 135q143 0 231 -71t114 -208h2q5 67 5 156q0 222 -116.5 357.5t-309.5 135.5q-79 0 -150 -20l-9 152q76 28 191 28zM542 141
q98 0 160.5 91.5t62.5 236.5q0 127 -56 203t-150 76q-98 0 -153 -89.5t-55 -247.5q0 -127 51 -198.5t140 -71.5z" />
    <glyph glyph-name="increment" unicode="&#x2206;" horiz-adv-x="1472" 
d="M1422 0h-1372l589 1438h194zM681 1070l-375 -922h750z" />
    <glyph glyph-name="product" unicode="&#x220f;" horiz-adv-x="1562" 
d="M1330 1217v-1359q0 -54 16.5 -71t81.5 -29l54 -10l-4 -106h-576l4 106l63 13q44 9 58.5 28.5t14.5 68.5v1428h-526v-1428q0 -54 16.5 -71t78.5 -29l53 -10l-4 -106h-575l4 106l62 13q46 10 61.5 29t15.5 68v1359q0 54 -17 71.5t-82 30.5l-40 8l-4 107h1397l-4 -107
l-72 -11q-45 -7 -60.5 -28t-15.5 -71z" />
    <glyph glyph-name="summation" unicode="&#x2211;" horiz-adv-x="1292" 
d="M334 -175h494q107 0 143 47.5t53 206.5l170 -9q0 -234 -27 -428h-1098l-4 107l454 746l-454 831l4 108h1098q27 -194 27 -384l-170 -10q-17 159 -53 207t-143 48h-421l394 -704z" />
    <glyph glyph-name="minus" unicode="&#x2212;" horiz-adv-x="1187" 
d="M1062 483h-935v162h935v-162z" />
    <glyph glyph-name="radical" unicode="&#x221a;" horiz-adv-x="1265" 
d="M1256 1495l-526 -1499h-247l-268 831q-19 61 -43 84.5t-73 31.5l-55 9l-4 104h396l233 -754l398 1193h189z" />
    <glyph glyph-name="infinity" unicode="&#x221e;" horiz-adv-x="1953" 
d="M1498 977q168 0 271 -89t103 -235q0 -155 -124 -256.5t-316 -101.5q-133 0 -239 43.5t-264 164.5q-151 -114 -256.5 -161t-217.5 -47q-168 0 -270.5 89t-102.5 235q0 156 123.5 257t315.5 101q133 0 239.5 -43.5t264.5 -164.5q152 114 256.5 161t216.5 47zM1464 497
q80 0 130 44t50 114q0 77 -50 123t-134 46q-63 0 -132.5 -33t-181.5 -118q136 -106 199.5 -141t118.5 -35zM310 617q0 -77 50 -123t134 -46q62 0 131.5 33t181.5 118q-135 105 -199 140t-119 35q-80 0 -129.5 -43.5t-49.5 -113.5z" />
    <glyph glyph-name="integral" unicode="&#x222b;" horiz-adv-x="794" 
d="M582 49q0 -212 -82 -322t-240 -110q-118 0 -223 51q-8 28 -8 59q0 49 24.5 76t69.5 27q29 0 50.5 -14t31 -30.5t24.5 -30.5t33 -14q65 0 65 236q0 131 -29 315.5t-58 380t-29 353.5q0 212 82 322t240 110q117 0 222 -51q8 -28 8 -59q0 -49 -24.5 -76t-69.5 -27
q-29 0 -50.5 14t-31 31t-24.5 31t-33 14q-65 0 -65 -237q0 -105 18.5 -245.5t40 -257.5t40 -268.5t18.5 -277.5z" />
    <glyph glyph-name="approxequal" unicode="&#x2248;" horiz-adv-x="1210" 
d="M836 778q69 0 121 24t100 77l39 -121q-107 -142 -273 -142q-93 0 -173.5 21t-147 41.5t-126.5 20.5q-70 0 -121.5 -23.5t-99.5 -76.5l-39 120q108 143 274 143q93 0 173 -21t146.5 -42t126.5 -21zM836 460q70 0 121.5 23.5t99.5 76.5l39 -120q-108 -143 -273 -143
q-73 0 -140.5 13t-109.5 28.5t-95 28.5t-102 13q-70 0 -121.5 -23.5t-99.5 -76.5l-39 120q108 143 274 143q73 0 140.5 -13t109 -28.5t94.5 -28.5t102 -13z" />
    <glyph glyph-name="notequal" unicode="&#x2260;" horiz-adv-x="1183" 
d="M695 655l-57 -163h444v-160h-500l-88 -253l-134 45l73 208h-331v160h387l56 163h-443v159h499l88 253l134 -44l-73 -209h332v-159h-387z" />
    <glyph glyph-name="lessequal" unicode="&#x2264;" horiz-adv-x="995" 
d="M875 962l-523 -230l523 -229v-197l-771 360v125l771 360v-189zM104 197h771v-160h-771v160z" />
    <glyph glyph-name="greaterequal" unicode="&#x2265;" horiz-adv-x="995" 
d="M892 791v-125l-771 -360v189l522 229l-522 230v197zM121 197h771v-160h-771v160z" />
    <glyph glyph-name="filledbox" unicode="&#x25a0;" horiz-adv-x="1843" 
d="M1638 0h-1433v1434h1433v-1434z" />
    <glyph glyph-name="whiteSquare" unicode="&#x25a1;" horiz-adv-x="1843" 
d="M1638 0h-1433v1434h1433v-1434zM1459 179v1075h-1075v-1075h1075z" />
    <glyph glyph-name="triagup" unicode="&#x25b2;" horiz-adv-x="1372" 
d="M1229 236h-1086l543 1095z" />
    <glyph glyph-name="whiteuppointingtriangle" unicode="&#x25b3;" horiz-adv-x="1372" 
d="M1229 236h-1086l543 1095zM686 967l-271 -566h542z" />
    <glyph glyph-name="blackuppointingsmalltriangle" unicode="&#x25b4;" horiz-adv-x="958" 
d="M887 369h-815l407 821z" />
    <glyph glyph-name="whiteuppointingsmalltriangle" unicode="&#x25b5;" horiz-adv-x="958" 
d="M887 369h-815l407 821zM646 514l-167 349l-167 -349h334z" />
    <glyph glyph-name="blackrightpointingtriangle" unicode="&#x25b6;" horiz-adv-x="1372" 
d="M205 174v1086l1095 -543z" />
    <glyph glyph-name="whiterightpointingtriangle" unicode="&#x25b7;" horiz-adv-x="1372" 
d="M205 174v1086l1095 -543zM937 717l-567 271v-542z" />
    <glyph glyph-name="uni25B8" unicode="&#x25b8;" horiz-adv-x="958" 
d="M102 309v815l822 -407z" />
    <glyph glyph-name="whiterightpointingsmalltriangle" unicode="&#x25b9;" horiz-adv-x="958" 
d="M102 309v815l822 -407zM248 550l349 167l-349 167v-334z" />
    <glyph glyph-name="triagdn" unicode="&#x25bc;" horiz-adv-x="1372" 
d="M143 1208h1086l-543 -1095z" />
    <glyph glyph-name="whitedownpointingtriangle" unicode="&#x25bd;" horiz-adv-x="1372" 
d="M143 1208h1086l-543 -1095zM686 476l271 567h-542z" />
    <glyph glyph-name="uni25BE" unicode="&#x25be;" horiz-adv-x="958" 
d="M72 1075h815l-408 -821z" />
    <glyph glyph-name="whitedownpointingsmalltriangle" unicode="&#x25bf;" horiz-adv-x="958" 
d="M72 1075h815l-408 -821zM312 930l167 -349l167 349h-334z" />
    <glyph glyph-name="blackleftpointingtriangle" unicode="&#x25c0;" horiz-adv-x="1372" 
d="M1167 1260v-1086l-1095 543z" />
    <glyph glyph-name="whiteleftpointingtriangle" unicode="&#x25c1;" horiz-adv-x="1372" 
d="M1167 1260v-1086l-1095 543zM436 717l566 -271v542z" />
    <glyph glyph-name="uni25C2" unicode="&#x25c2;" horiz-adv-x="958" 
d="M856 1124v-815l-821 408z" />
    <glyph glyph-name="whiteleftpointingsmalltriangle" unicode="&#x25c3;" horiz-adv-x="958" 
d="M856 1124v-815l-821 408zM711 884l-349 -167l349 -167v334z" />
    <glyph glyph-name="blackDiamond" unicode="&#x25c6;" horiz-adv-x="1114" 
d="M1063 717l-506 -506l-506 506l506 506z" />
    <glyph glyph-name="whiteDiamond" unicode="&#x25c7;" horiz-adv-x="1114" 
d="M1063 717l-506 -506l-506 506l506 506zM839 717l-282 281l-281 -281l281 -282z" />
    <glyph glyph-name="whitediamondcontainingblacksmalldiamond" unicode="&#x25c8;" horiz-adv-x="1114" 
d="M1063 717l-506 -506l-506 506l506 506zM855 717l-298 298l-298 -298l298 -298zM557 839l122 -122l-122 -123l-122 123z" />
    <glyph glyph-name="lozenge" unicode="&#x25ca;" horiz-adv-x="1212" 
d="M1159 717l-474 -721h-178l-453 721l474 721h178zM914 702l-310 494l-305 -465l310 -494z" />
    <glyph glyph-name="whitecircle" unicode="&#x25cb;" horiz-adv-x="1843" 
d="M102 717q0 167 65 318.5t174.5 261t261.5 174.5t319 65t318.5 -65t261 -174.5t174.5 -261t65 -318.5t-65 -318.5t-174.5 -261t-261 -174.5t-318.5 -65t-319 65t-261.5 174.5t-174.5 261t-65 318.5zM291 717q0 -128 50 -245t134.5 -201.5t201.5 -134.5t245 -50
q171 0 316 84.5t229.5 230t84.5 316.5t-84.5 316t-229.5 229.5t-316 84.5t-316.5 -84.5t-230 -229.5t-84.5 -316z" />
    <glyph glyph-name="blackcircle" unicode="&#x25cf;" horiz-adv-x="1843" 
d="M102 717q0 167 65 318.5t174.5 261t261.5 174.5t319 65t318.5 -65t261 -174.5t174.5 -261t65 -318.5t-65 -318.5t-174.5 -261t-261 -174.5t-318.5 -65t-319 65t-261.5 174.5t-174.5 261t-65 318.5z" />
    <glyph glyph-name="uni25FB" unicode="&#x25fb;" horiz-adv-x="1314" 
d="M1130 244h-946v946h946v-946zM962 412v609h-609v-609h609z" />
    <glyph glyph-name="uni25FC" unicode="&#x25fc;" horiz-adv-x="1314" 
d="M1130 244h-946v946h946v-946z" />
    <glyph glyph-name="uni25FD" unicode="&#x25fd;" horiz-adv-x="958" 
d="M838 358h-717v717h717v-717zM678 518v398h-398v-398h398z" />
    <glyph glyph-name="uni25FE" unicode="&#x25fe;" horiz-adv-x="958" 
d="M838 358h-717v717h717v-717z" />
    <glyph glyph-name="threequartersemdash" unicode="&#xf6de;" horiz-adv-x="1789" 
d="M1663 479h-1536v171h1536v-171z" />
    <glyph glyph-name="J.titl" horiz-adv-x="1089" 
d="M1027 1327l-71 -11q-45 -7 -60.5 -28t-15.5 -71l2 -757q1 -270 -104.5 -381.5t-361.5 -111.5q-184 0 -284 82.5t-100 232.5q0 51 15 93q42 40 115 40q57 0 89.5 -28.5t32.5 -77.5q0 -11 -3.5 -35t-3.5 -41q0 -65 37.5 -100t109.5 -35q89 0 127.5 58.5t38.5 195.5v842
q0 65 -17 85.5t-81 30.5l-87 14l-4 110h630z" />
    <glyph glyph-name="IJ.titl" horiz-adv-x="1849" 
d="M1786 1327l-72 -11q-45 -7 -60.5 -28t-15.5 -71l2 -757q1 -271 -104 -382t-361 -111q-184 0 -284 82.5t-100 232.5q0 51 15 93q42 40 115 40q57 0 89.5 -28.5t32.5 -77.5q0 -11 -3.5 -35t-3.5 -41q0 -65 37.5 -100t109.5 -35q89 0 127.5 58.5t38.5 195.5v842
q0 65 -17 85.5t-81 30.5l-88 14l-4 110h631zM671 1327l-72 -11q-45 -7 -60.5 -28t-15.5 -71v-1001q0 -54 16.5 -70.5t81.5 -28.5l54 -11l-4 -106h-579l4 106l63 13q46 10 61 29t15 68v1001q0 54 -17 71.5t-81 30.5l-41 8l-4 107h583z" />
    <glyph glyph-name="Jcircumflex.titl" horiz-adv-x="1089" 
d="M710 1694l-243 -143q-45 45 -66 110l315 238l314 -238q-20 -61 -69 -110zM1031 1434l-4 -107l-71 -11q-45 -7 -60.5 -28t-15.5 -71l2 -757q1 -270 -104.5 -381.5t-361.5 -111.5q-184 0 -284 82.5t-100 232.5q0 51 15 93q42 40 115 40q57 0 89.5 -28.5t32.5 -77.5
q0 -11 -3.5 -35t-3.5 -41q0 -65 37.5 -100t109.5 -35q89 0 127.5 58.5t38.5 195.5v842q0 65 -17 85.5t-81 30.5l-87 14l-4 110h630z" />
    <glyph glyph-name="registered.sups" horiz-adv-x="1318" 
d="M659 1782q265 0 438 -173t173 -438q0 -130 -48.5 -244.5t-130.5 -194.5t-194.5 -126t-237.5 -46q-167 0 -306.5 78t-221.5 219t-82 314t82 314t221.5 219t306.5 78zM659 684q200 0 337 139t137 348t-137 348t-337 139t-336.5 -139t-136.5 -348t136.5 -348t336.5 -139z
M897 1005q10 -20 16.5 -27.5t18.5 -10.5l9 -2l-2 -52q-35 -10 -97 -10q-51 0 -73.5 17t-42.5 71l-30 81q-12 33 -25 43.5t-39 10.5q-10 0 -22 -2v-120q0 -19 4 -24.5t21 -9.5l17 -4l-2 -58h-244l2 57l18 4q14 3 19 10t5 25v333q0 19 -4.5 25.5t-22.5 10.5l-15 4l-2 57h65
q40 0 97 2t92 2q121 0 176 -32.5t55 -104.5q0 -46 -29 -78.5t-83 -46.5q45 -13 71 -63q7 -15 22.5 -51.5t24.5 -56.5zM650 1199q79 0 79 84q0 83 -77 83q-20 0 -46 -2v-161q24 -4 44 -4z" />
    <glyph glyph-name="caron.alt" 
d="M447 1553q93 0 183 -22q-29 -206 -96 -382q-72 0 -140 25q44 215 53 379z" />
    <glyph glyph-name="acute.loclPLK" 
d="M363 1230l83 365q104 -5 215 -48l-133 -352q-86 2 -165 35z" />
    <glyph glyph-name="Cacute.loclPLK" horiz-adv-x="1314" 
d="M654 1574l83 365q107 -5 215 -47l-132 -352q-89 2 -166 34zM773 1466q118 0 253.5 -25.5t198.5 -25.5q4 -79 4 -195q0 -112 -4 -172l-160 -10q-17 144 -86 212t-199 68q-183 0 -283 -154.5t-100 -446.5q0 -285 97.5 -443t285.5 -158q140 0 213.5 73t90.5 229l154 -9v-338
q-95 -49 -219 -76.5t-246 -27.5q-337 0 -513 196.5t-176 553.5q0 174 53 316.5t145.5 236.5t218.5 145t272 51z" />
    <glyph glyph-name="cacute.loclPLK" horiz-adv-x="1005" 
d="M457 1230l83 365q104 -5 215 -48l-133 -352q-86 2 -165 35zM558 -25q-226 0 -352 145.5t-126 407.5q0 176 70 303t186.5 188.5t266.5 61.5q185 0 334 -82q13 -31 13 -74q0 -58 -33 -92t-90 -34q-38 0 -65.5 14.5t-44 35l-33 41t-42.5 35t-61 14.5q-98 0 -150.5 -102.5
t-52.5 -308.5q0 -182 70.5 -280.5t197.5 -98.5q135 0 257 96l51 -128q-89 -74 -183.5 -108t-212.5 -34z" />
    <glyph glyph-name="Nacute.loclPLK" horiz-adv-x="1521" 
d="M964 1892l-133 -352q-88 2 -165 34l83 365q107 -5 215 -47zM1455 1434l-4 -107l-71 -11q-45 -7 -60.5 -28t-15.5 -71v-1217h-278l-482 838q-83 144 -140 312q11 -136 11 -273v-661q0 -54 16.5 -70.5t81.5 -28.5l54 -11l-4 -106h-471l4 106l63 13q46 10 61 29t15 68v1001
q0 54 -17 71.5t-81 30.5l-41 8l-4 107h431l482 -838q78 -138 127 -273q-9 126 -9 234v660q0 54 -17 71.5t-81 30.5l-41 8l-4 107h475z" />
    <glyph glyph-name="nacute.loclPLK" horiz-adv-x="1296" 
d="M879 1547l-133 -352q-86 2 -165 35l83 365q104 -5 215 -48zM1271 104l-4 -104h-527l4 104l45 11q36 9 47 24.5t11 58.5v511q0 195 -159 195q-133 0 -205 -130v-576q0 -48 13 -62t67 -23l50 -9l-5 -104h-526l4 104l48 11q41 9 53.5 26.5t12.5 68.5v607q0 57 -12 76.5
t-54 28.5l-48 10l-4 100l352 49q20 -74 25 -185q51 88 137.5 136.5t195.5 48.5q166 0 252 -88t86 -258v-525q0 -56 15 -72.5t75 -25.5z" />
    <glyph glyph-name="Oacute.loclPLK" horiz-adv-x="1544" 
d="M654 1574l83 365q107 -5 215 -47l-132 -352q-89 2 -166 34zM84 717q0 352 187.5 550.5t501.5 198.5q328 0 508 -196.5t180 -552.5q0 -221 -84 -391t-240.5 -264.5t-363.5 -94.5q-319 0 -504 206t-185 544zM397 717q0 -279 101 -440t275 -161t274.5 161t100.5 440
q0 294 -96.5 447.5t-278.5 153.5t-279 -154t-97 -447z" />
    <glyph glyph-name="oacute.loclPLK" horiz-adv-x="1206" 
d="M485 1230l82 365q104 -5 215 -48l-132 -352q-86 2 -165 35zM80 528q0 176 70 303t186.5 188.5t266.5 61.5q257 0 389.5 -140.5t132.5 -412.5q0 -257 -144.5 -405t-377.5 -148q-249 0 -386 145.5t-137 407.5zM378 528q0 -197 59.5 -304t165.5 -107t165 107t59 304
q0 411 -224 411q-225 0 -225 -411z" />
    <glyph glyph-name="Sacute.loclPLK" horiz-adv-x="1138" 
d="M469 1574l83 365q107 -5 215 -47l-133 -352q-88 2 -165 34zM613 1466q112 0 234.5 -27t162.5 -27v-338l-153 -6q-26 139 -85.5 201.5t-165.5 62.5q-95 0 -153 -58t-58 -152q0 -53 22.5 -96t61 -73t88.5 -56t105 -50.5t110 -51.5t105 -63.5t88.5 -81.5t61 -111.5
t22.5 -147.5q0 -194 -143 -309t-384 -115q-118 0 -236 32t-200 86q-13 109 -13 180q0 47 5 139l159 6q17 -150 88 -229t189 -79q110 0 180 64t70 164q0 56 -22.5 101t-60.5 76.5t-87.5 58.5t-104 51.5t-109 51t-104 62t-87.5 79t-60.5 107.5t-22.5 142q0 183 136 295
t361 112z" />
    <glyph glyph-name="sacute.loclPLK" horiz-adv-x="958" 
d="M372 1230l83 365q104 -5 215 -48l-133 -352q-86 2 -165 35zM839 770l-132 -7q-20 95 -69 146t-122 51q-67 0 -106 -35.5t-39 -96.5q0 -40 22 -72.5t58 -53.5t81.5 -43.5t93.5 -41t93.5 -47.5t81.5 -62.5t58 -85.5t22 -117q0 -155 -117 -242.5t-324 -87.5
q-97 0 -192.5 27.5t-158.5 74.5q-9 60 -9 122q0 53 4 112l137 6q19 -104 77 -162.5t141 -58.5q75 0 120 39t45 105q0 41 -21.5 74t-57 55t-80.5 45t-92.5 42.5t-92.5 48.5t-80.5 62t-57 84t-21.5 114q0 149 109 232.5t302 83.5q74 0 173 -24.5t154 -24.5v-262z" />
    <glyph glyph-name="Zacute.loclPLK" horiz-adv-x="1245" 
d="M814 1892l-133 -352q-88 2 -165 34l83 365q107 -5 215 -47zM1000 399l170 -10q0 -195 -27 -389h-1071l-6 113l750 1182h-360q-107 0 -143.5 -48t-53.5 -207l-169 10q0 190 27 384h1037l6 -113l-750 -1182h394q104 0 141.5 55t54.5 205z" />
    <glyph glyph-name="zacute.loclPLK" horiz-adv-x="1054" 
d="M718 1547l-133 -352q-86 2 -165 35l83 365q104 -5 215 -48zM832 323l147 -9q0 -150 -22 -314h-885l-7 109l583 828h-256q-76 0 -109 -42.5t-47 -159.5l-147 9q0 155 21 312h856l7 -109l-583 -828h286q75 0 108 45.5t48 158.5z" />
    <glyph glyph-name="Iacute_J.loclNLD" horiz-adv-x="1482" 
d="M159 1656l377 249q67 -77 102 -169l-408 -201q-46 47 -71 121zM901 1656l378 249q65 -75 101 -169l-408 -201q-46 47 -71 121zM1266 1217v-869q0 -228 -36.5 -365.5t-119.5 -226.5q-117 -124 -342 -162q-42 39 -42 103q0 77 70 102q21 8 65.5 13t65.5 18q31 19 39 88
t8 307v992q0 54 -16.5 71.5t-78.5 30.5l-41 8l-4 107h583l-4 -107l-71 -11q-45 -7 -60.5 -28t-15.5 -71zM671 1327l-72 -11q-45 -7 -60.5 -28t-15.5 -71v-1001q0 -54 16.5 -70.5t81.5 -28.5l54 -11l-4 -106h-579l4 106l63 13q46 10 61 29t15 68v1001q0 54 -17 71.5t-81 30.5
l-41 8l-4 107h583z" />
    <glyph glyph-name="iacute_j.loclNLD" horiz-adv-x="1286" 
d="M96 1312l378 248q65 -75 101 -169l-407 -201q-47 49 -72 122zM747 1312l377 248q67 -77 102 -169l-408 -201q-45 47 -71 122zM487 1081v-871q0 -56 15 -72.5t75 -25.5l51 -8l-4 -104h-539l4 104l49 11q41 9 53.5 26.5t12.5 68.5v607q0 57 -12.5 76.5t-54.5 28.5l-48 10
l-4 100zM1137 1081v-758q0 -232 -35.5 -378t-117.5 -234q-117 -125 -339 -162q-42 39 -42 103q0 73 70 98q21 8 65.5 13t65.5 18q31 19 39 90t8 309v637q0 57 -12 77t-52 28l-47 10l-5 100z" />
    <glyph glyph-name="Iacute_J.loclNLD.titl" horiz-adv-x="1849" 
d="M159 1656l377 249q67 -77 102 -169l-408 -201q-46 47 -71 121zM1274 1656l377 249q67 -77 102 -169l-408 -201q-46 47 -71 121zM1786 1327l-72 -11q-45 -7 -60.5 -28t-15.5 -71l2 -757q1 -271 -104 -382t-361 -111q-184 0 -284 82.5t-100 232.5q0 51 15 93q42 40 115 40
q57 0 89.5 -28.5t32.5 -77.5q0 -11 -3.5 -35t-3.5 -41q0 -65 37.5 -100t109.5 -35q89 0 127.5 58.5t38.5 195.5v842q0 65 -17 85.5t-81 30.5l-88 14l-4 110h631zM671 1327l-72 -11q-45 -7 -60.5 -28t-15.5 -71v-1001q0 -54 16.5 -70.5t81.5 -28.5l54 -11l-4 -106h-579l4 106
l63 13q46 10 61 29t15 68v1001q0 54 -17 71.5t-81 30.5l-41 8l-4 107h583z" />
    <glyph glyph-name="i.loclTRK" horiz-adv-x="673" 
d="M168 1372q0 67 43.5 108t114.5 41t115 -41t44 -108t-44 -108t-115 -41t-114.5 41t-43.5 108zM487 1081v-871q0 -56 15 -72.5t75 -25.5l51 -8l-4 -104h-539l4 104l49 11q41 9 53.5 26.5t12.5 68.5v607q0 57 -12.5 76.5t-54.5 28.5l-48 10l-4 100z" />
    <glyph glyph-name="s.hist" horiz-adv-x="688" 
d="M888 1482q12 -28 12 -64q0 -53 -29.5 -84t-80.5 -31q-38 0 -70 13.5t-51 29t-47 29t-58 13.5q-43 0 -61 -33t-18 -114v-1021q0 -56 16.5 -73t80.5 -27l84 -13l-4 -107h-579l4 104l49 11q41 9 53.5 26.5t12.5 68.5v704h-124l-4 118l131 21v89q0 184 101.5 280t297.5 96
q156 0 284 -36z" />
    <glyph glyph-name="f_t" horiz-adv-x="1492" 
d="M1441 197l34 -118q-141 -104 -317 -104q-147 0 -216 65t-68 202l4 672h-393v-694q0 -56 16.5 -73t80.5 -27l84 -13l-4 -107h-579l4 104l49 11q41 9 53.5 26.5t12.5 68.5v704h-124l-4 118l131 21v89q0 185 100 280.5t295 95.5q149 0 277 -36q12 -28 12 -64
q0 -53 -29.5 -84t-80.5 -31q-38 0 -69.5 13.5t-50 29t-46 29t-57.5 13.5q-43 0 -61 -33t-18 -114v-185h431q36 120 75 200q21 41 37.5 54t50.5 13q35 0 87 -11v-256h306v-142h-303v-628q0 -72 31 -105.5t97 -33.5q75 0 152 50z" />
    <glyph glyph-name="t_f" horiz-adv-x="1558" 
d="M1648 1482q12 -28 12 -64q0 -53 -29.5 -84t-80.5 -31q-38 0 -70.5 13.5t-52.5 29t-48.5 29t-58.5 13.5q-43 0 -61 -33t-18 -114v-185h279v-142h-20h-255v-694q0 -56 16.5 -73t80.5 -27l84 -13l-4 -107h-571l4 104l45 11q38 9 50 27t12 68v704h-494v-628q0 -72 30 -105.5
t94 -33.5q55 0 132 50l34 -118q-141 -104 -293 -104q-147 0 -216 65t-68 202l4 672h-118l-5 118l150 25q33 112 75 199q20 40 38 53.5t53 13.5t87 -11v-256h500v86q0 184 101.5 280t297.5 96q156 0 284 -36z" />
    <glyph glyph-name="t_i" horiz-adv-x="1429" 
d="M1084 1223q-71 0 -114.5 41t-43.5 108t43.5 108t114.5 41t115 -41t44 -108t-44 -108t-115 -41zM1386 104l-4 -104h-531l4 104l45 11q38 9 50 27t12 68v607q0 54 -21.5 75.5t-75.5 21.5h-397v-628q0 -72 30 -105.5t94 -33.5q55 0 132 50l34 -118q-141 -104 -293 -104
q-147 0 -216 65t-68 202l4 672h-118l-5 118l150 25q33 112 75 199q20 40 38 53.5t53 13.5t87 -11v-256h601l179 19v-865q0 -56 15 -72.5t75 -25.5z" />
    <glyph glyph-name="t_j" horiz-adv-x="1388" 
d="M1084 1223q-71 0 -114.5 41t-43.5 108t43.5 108t114.5 41t115 -41t44 -108t-44 -108t-115 -41zM1245 1075v-752q0 -232 -35.5 -378t-117.5 -234q-117 -125 -340 -162q-41 38 -41 103q0 73 69 98q21 8 65.5 13t65.5 18q31 20 39.5 91t8.5 308v637q0 54 -21.5 75.5
t-75.5 21.5h-394v-628q0 -72 31 -105.5t97 -33.5q75 0 152 50l34 -118q-141 -104 -317 -104q-147 0 -216 65t-68 202l4 672h-118l-5 118l150 25q33 112 75 199q20 40 38 53.5t53 13.5t87 -11v-256h601z" />
    <glyph glyph-name="t_t" horiz-adv-x="1503" 
d="M1449 197l34 -118q-141 -104 -316 -104q-147 0 -216 65t-68 202l4 672h-419v-628q0 -72 30 -105.5t94 -33.5q68 0 145 50l34 -118q-141 -104 -306 -104q-147 0 -216 65t-68 202l4 672h-118l-5 118l150 25q33 112 75 199q20 40 38 53.5t53 13.5t87 -11v-256h449
q36 120 75 200q20 40 38 53.5t53 13.5q34 0 86 -11v-256h307v-142h-303v-628q0 -72 31 -105.5t97 -33.5q74 0 151 50z" />
    <glyph glyph-name="f_f_t" horiz-adv-x="2162" 
d="M2109 197l34 -118q-141 -104 -317 -104q-147 0 -216 65t-68 202l4 672h-138h-255v-694q0 -56 16.5 -73t80.5 -27l84 -13l-4 -107h-576l5 104l45 11q41 10 53.5 27.5t12.5 67.5v704h-124h-261v-704q0 -56 14.5 -73t71.5 -25l51 -8l-4 -104h-535l4 104l49 11
q41 9 53.5 26.5t12.5 68.5v704h-124l-4 118l131 21v35q0 207 114 308t332 101q165 0 319 -64q110 85 298 85q149 0 277 -36q12 -28 12 -64q0 -53 -29.5 -84t-80.5 -31q-38 0 -69.5 13.5t-50 29t-46 29t-57.5 13.5q-43 0 -61 -33t-18 -114v-185h431q36 120 75 200
q21 41 37.5 54t50.5 13q35 0 87 -11v-256h306v-142h-303v-628q0 -72 31 -105.5t97 -33.5q75 0 152 50zM873 1056v52q0 101 8 154q-40 8 -85 35.5t-90.5 49t-97.5 21.5q-65 0 -96 -39.5t-31 -141.5v-131h392z" />
    <glyph glyph-name="t_t_f" horiz-adv-x="2260" 
d="M2350 1482q12 -28 12 -64q0 -53 -29.5 -84t-80.5 -31q-38 0 -70.5 13.5t-52.5 29t-48.5 29t-58.5 13.5q-43 0 -61 -33t-18 -114v-185h279v-142h-275v-694q0 -56 16.5 -73t80.5 -27l84 -13l-4 -107h-571l4 104l45 11q38 9 50 27t12 68v704h-494v-628q0 -72 30 -105.5
t94 -33.5q54 0 131 50l34 -118q-141 -104 -292 -104q-147 0 -216 65t-68 202l4 672h-419v-628q0 -72 30 -105.5t94 -33.5q68 0 145 50l34 -118q-141 -104 -306 -104q-147 0 -216 65t-68 202l4 672h-118l-5 118l150 25q33 112 75 199q20 40 38 53.5t53 13.5t87 -11v-256h449
q36 120 75 200q20 40 38 53.5t53 13.5q34 0 86 -11v-256h501v86q0 184 101.5 280t297.5 96q156 0 284 -36z" />
    <glyph glyph-name="t_t_i" horiz-adv-x="2129" 
d="M1786 1223q-71 0 -114.5 41t-43.5 108t43.5 108t114.5 41t115 -41t44 -108t-44 -108t-115 -41zM2088 104l-4 -104h-531l4 104l45 11q38 9 50 27t12 68v607q0 54 -21.5 75.5t-75.5 21.5h-397v-628q0 -72 30 -105.5t94 -33.5q54 0 131 50l34 -118q-141 -104 -292 -104
q-147 0 -216 65t-68 202l4 672h-419v-628q0 -72 30 -105.5t94 -33.5q68 0 145 50l34 -118q-141 -104 -306 -104q-147 0 -216 65t-68 202l4 672h-118l-5 118l150 25q33 112 75 199q20 40 38 53.5t53 13.5t87 -11v-256h449q36 120 75 200q20 40 38 53.5t53 13.5q34 0 86 -11
v-256h602l179 19v-865q0 -56 15 -72.5t75 -25.5z" />
    <glyph glyph-name="t_t_j" horiz-adv-x="2088" 
d="M1786 1223q-71 0 -114.5 41t-43.5 108t43.5 108t114.5 41t115 -41t44 -108t-44 -108t-115 -41zM1947 1075v-752q0 -232 -35.5 -378.5t-117.5 -234.5q-116 -123 -340 -161q-42 39 -42 103q0 72 70 97q21 8 65.5 13.5t65.5 18.5q31 20 39.5 91t8.5 308v637q0 54 -21.5 75.5
t-75.5 21.5h-394v-628q0 -72 31 -105.5t97 -33.5q74 0 151 50l34 -118q-141 -104 -316 -104q-147 0 -216 65t-68 202l4 672h-419v-628q0 -72 30 -105.5t94 -33.5q68 0 145 50l34 -118q-141 -104 -306 -104q-147 0 -216 65t-68 202l4 672h-118l-5 118l150 25q33 112 75 199
q20 40 38 53.5t53 13.5t87 -11v-256h449q36 120 75 200q20 40 38 53.5t53 13.5q34 0 86 -11v-256h602z" />
    <glyph glyph-name="zero.lf" horiz-adv-x="1226" 
d="M97 721q0 365 139.5 555t376.5 190q265 0 390.5 -183.5t125.5 -561.5q0 -361 -136.5 -553.5t-379.5 -192.5q-256 0 -386 189.5t-130 556.5zM384 721q0 -582 229 -582q230 0 230 582q0 302 -55 441.5t-175 139.5t-174.5 -139t-54.5 -442z" />
    <glyph glyph-name="one.lf" horiz-adv-x="851" 
d="M815 115l-4 -115h-715l4 115l107 16q66 10 91 30t25 67v981q-94 -42 -193 -62l-48 -9l-18 115l372 197h170v-1222q0 -53 23 -71t102 -30z" />
    <glyph glyph-name="two.lf" horiz-adv-x="1046" 
d="M958 200v-200h-879v153q552 497 552 869q0 133 -52.5 196.5t-162.5 63.5q-74 0 -149 -36t-138 -101l-46 175q70 68 184 107t240 39q207 0 314.5 -105.5t107.5 -309.5q0 -449 -559 -863q112 12 282 12h306z" />
    <glyph glyph-name="three.lf" horiz-adv-x="1097" 
d="M684 763q157 -30 239 -121t82 -237q0 -203 -140 -316.5t-389 -113.5q-233 0 -401 97q-7 35 -7 58q0 60 28.5 92.5t80.5 32.5q32 0 60 -14t50.5 -34.5t47 -41t61 -34.5t80.5 -14q106 0 168.5 77.5t62.5 207.5q0 139 -88.5 204t-276.5 65q-58 0 -96 -8l-10 154
q218 0 322 64.5t104 199.5q0 104 -56.5 158.5t-161.5 54.5q-146 0 -288 -115l-46 159q157 128 417 128q207 0 320 -91.5t113 -261.5q0 -128 -73.5 -220.5t-202.5 -129.5z" />
    <glyph glyph-name="four.lf" horiz-adv-x="1163" 
d="M1088 542v-175h-161v-367h-276v367h-611v118l634 951h253v-894h161zM657 542v569l-382 -569h382z" />
    <glyph glyph-name="five.lf" horiz-adv-x="1101" 
d="M596 884q188 0 302.5 -123t114.5 -326q0 -224 -137 -342t-388 -118q-233 0 -401 97q-7 35 -7 58q0 60 28.5 92.5t80.5 32.5q32 0 60 -14t50.5 -34.5t47 -41t61 -34.5t80.5 -14q107 0 169 82.5t62 232.5q0 124 -64.5 196.5t-174.5 72.5q-123 0 -205 -103l-154 47l80 789
h781v-220h-617l-48 -435q48 49 122 77t157 28z" />
    <glyph glyph-name="six.lf" horiz-adv-x="1169" 
d="M693 905q185 0 290.5 -122t105.5 -336q0 -215 -135 -343.5t-362 -128.5q-251 0 -374 167t-123 506q0 389 171.5 603.5t481.5 214.5q176 0 302 -58l-29 -155q-122 53 -247 53q-194 0 -300.5 -158t-112.5 -456q42 101 128.5 157t203.5 56zM597 130q94 0 150.5 81.5
t56.5 217.5q0 139 -49 219t-141 80q-95 0 -156 -82.5t-61 -216.5q0 -137 53.5 -218t146.5 -81z" />
    <glyph glyph-name="seven.lf" horiz-adv-x="991" 
d="M964 1297l-149 -314q-105 -220 -168.5 -393t-124.5 -391q-27 -100 -44 -208q-45 -11 -112 -11q-80 0 -116.5 33t-36.5 105q0 100 73 285q188 473 432 817h-666v214h906z" />
    <glyph glyph-name="eight.lf" horiz-adv-x="1161" 
d="M772 808q66 -35 113 -67.5t93 -81t69.5 -113.5t23.5 -146q0 -187 -140.5 -306t-361.5 -119q-224 0 -349.5 102.5t-125.5 286.5q0 122 70 219t197 150q-70 42 -116.5 85.5t-79.5 114.5t-33 158q0 170 124.5 272.5t332.5 102.5q203 0 316.5 -88.5t113.5 -245.5
q0 -111 -64.5 -195t-182.5 -129zM596 1325q-85 0 -133 -51.5t-48 -141.5q0 -85 55 -141.5t159 -110.5q149 82 149 249q0 95 -47 145.5t-135 50.5zM563 117q108 0 166.5 60t58.5 168q0 40 -10 74.5t-32.5 63.5t-44 51t-60.5 46.5t-66 39t-74 38.5q-165 -95 -165 -291
q0 -114 61.5 -182t165.5 -68z" />
    <glyph glyph-name="nine.lf" horiz-adv-x="1169" 
d="M578 1466q251 0 373.5 -166.5t122.5 -505.5q0 -389 -171 -604t-481 -215q-173 0 -302 59l29 154q120 -52 247 -52q194 0 300 158t112 456q-42 -101 -128 -157t-203 -56q-185 0 -291 122t-106 336q0 215 135.5 343t362.5 128zM556 714q95 0 156 82.5t61 216.5
q0 137 -53.5 217.5t-146.5 80.5q-94 0 -150.5 -81t-56.5 -217q0 -139 49 -219t141 -80z" />
    <glyph glyph-name="zero.tf" horiz-adv-x="1155" 
d="M61 721q0 365 140 555t377 190q265 0 390.5 -183.5t125.5 -561.5q0 -361 -136.5 -553.5t-379.5 -192.5q-256 0 -386.5 189.5t-130.5 556.5zM348 721q0 -582 230 -582q229 0 229 582q0 303 -54.5 442t-174.5 139t-175 -139.5t-55 -441.5z" />
    <glyph glyph-name="one.tf" horiz-adv-x="1155" 
d="M1031 131l-4 -131h-838l4 131l107 16q104 16 140.5 35t36.5 61v950q-130 -56 -254 -80l-48 -9l-18 118l434 228h170v-1207q0 -46 36 -64t150 -35z" />
    <glyph glyph-name="two.tf" horiz-adv-x="1155" 
d="M1012 200v-200h-879v153q552 497 552 869q0 133 -52.5 196.5t-162.5 63.5q-74 0 -149 -36t-138 -101l-46 175q70 68 184 107t240 39q207 0 314.5 -105.5t107.5 -309.5q0 -449 -559 -863q112 12 282 12h306z" />
    <glyph glyph-name="three.tf" horiz-adv-x="1155" 
d="M712 763q157 -30 239.5 -121t82.5 -237q0 -203 -140.5 -316.5t-389.5 -113.5q-233 0 -401 97q-6 30 -6 58q0 60 28.5 92.5t80.5 32.5q32 0 60 -14t50.5 -34.5t46.5 -41t60.5 -34.5t80.5 -14q106 0 168.5 77.5t62.5 207.5q0 139 -88 204t-276 65q-58 0 -96 -8l-11 154
q218 0 322.5 64.5t104.5 199.5q0 104 -56.5 158.5t-162.5 54.5q-145 0 -287 -115l-46 159q157 128 417 128q207 0 320 -91.5t113 -261.5q0 -128 -74 -220.5t-203 -129.5z" />
    <glyph glyph-name="four.tf" horiz-adv-x="1155" 
d="M1083 542v-175h-161v-367h-276v367h-611v118l634 951h253v-894h161zM652 542v569l-382 -569h382z" />
    <glyph glyph-name="five.tf" horiz-adv-x="1155" 
d="M624 884q188 0 303 -123t115 -326q0 -224 -137.5 -342t-388.5 -118q-233 0 -401 97q-6 30 -6 58q0 60 28 92.5t80 32.5q32 0 60 -14t50.5 -34.5t47 -41t61 -34.5t80.5 -14q107 0 169 82.5t62 232.5q0 124 -64 196.5t-174 72.5q-123 0 -205 -103l-155 47l80 789h782v-220
h-618l-48 -435q48 49 122 77t157 28z" />
    </font>
</defs>
</svg>
