<?xml version="1.0" standalone="no"?>
<!DOCTYPE svg PUBLIC "-//W3C//DTD SVG 1.1//EN" "http://www.w3.org/Graphics/SVG/1.1/DTD/svg11.dtd" >
<svg xmlns="http://www.w3.org/2000/svg" xmlns:xlink="http://www.w3.org/1999/xlink" version="1.1">
<metadata>
Created by FontForge 20170731 at Thu Oct  8 12:50:52 2020
 By Aleksey,,,
Copyright (c) Stefan Willerstorfer 2009-2014. All rights reserved.
</metadata>
<defs>
<font id="Sindelar-RegularAItalic" horiz-adv-x="1024" >
  <font-face 
    font-family="Sindelar"
    font-weight="400"
    font-style="italic"
    font-stretch="normal"
    units-per-em="2048"
    panose-1="2 4 5 3 4 4 6 9 2 4"
    ascent="1556"
    descent="-492"
    x-height="1044"
    cap-height="1434"
    bbox="-500 -721 2515 1927"
    underline-thickness="118"
    underline-position="-380"
    slope="-8"
    unicode-range="U+0020-FB04"
  />
<missing-glyph horiz-adv-x="1189" 
d="M1016 1434v-1434h-842v1434h842zM854 1331h-518l259 -524zM276 162l275 555l-275 555v-1110zM913 1272l-274 -555l274 -555v1110zM336 102h518l-259 525z" />
    <glyph glyph-name="f_f" unicode="ff" horiz-adv-x="1325" 
d="M1513 1481q5 -15 5 -33q0 -47 -24 -73.5t-67 -26.5q-45 0 -104.5 37.5t-110.5 37.5q-107 0 -131 -174l-28 -205h288l-14 -104h-289l-137 -983q-30 -215 -107.5 -311.5t-218.5 -96.5q-80 0 -145 41l27 103q56 -27 106 -27q69 0 101 54t53 206l142 1014h-427l-137 -983
q-30 -215 -107.5 -311.5t-218.5 -96.5q-80 0 -145 41l26 103q56 -27 107 -27q69 0 101 54t53 206l142 1014h-142l8 82q18 6 73 14t75 8l12 78q54 375 442 375q139 0 271 -69q106 90 286 90q120 0 235 -37zM873 1044l14 99q14 107 28 157q-28 6 -58.5 23.5t-53.5 35t-62.5 31
t-85.5 13.5q-72 0 -122 -52t-66 -163l-20 -144h426z" />
    <glyph glyph-name="fi" unicode="fi" horiz-adv-x="1187" 
d="M920 156q0 -37 17 -51.5t58 -14.5q30 0 70 4l-4 -76q-100 -38 -176 -38q-82 0 -117 27t-35 94q0 40 8 83l115 652q7 40 7 56q0 28 -13.5 38t-46.5 10h-371l-137 -983q-30 -215 -107.5 -311.5t-218.5 -96.5q-80 0 -145 41l26 103q56 -27 107 -27q69 0 101 54t53 206
l142 1014h-142l8 82q18 6 73 14t75 8l14 99q51 375 442 375q102 0 198 -24t142 -64q4 -12 4 -33q0 -105 -100 -105q-34 0 -63.5 13.5t-53 33t-49 38.5t-62.5 32.5t-82 13.5q-72 0 -122.5 -52t-65.5 -163l-23 -164h441q46 11 82 11q51 0 68.5 -13.5t17.5 -46.5
q0 -45 -15 -133l-114 -651q-6 -33 -6 -55z" />
    <glyph glyph-name="fl" unicode="fl" horiz-adv-x="1193" 
d="M1102 1311l-174 -1100q-6 -42 -6 -54q0 -38 17 -52.5t58 -14.5q30 0 70 4l-4 -76q-100 -38 -176 -38q-82 0 -116.5 27t-34.5 96q0 38 7 81l181 1138q-28 7 -59 24.5t-55 34t-64.5 29.5t-88.5 13q-72 0 -122.5 -52t-65.5 -163l-23 -164h279l-14 -104h-279l-137 -983
q-30 -215 -107.5 -311.5t-218.5 -96.5q-80 0 -145 41l26 103q56 -27 107 -27q69 0 101 54t53 206l142 1014h-142l8 82q18 6 73 14t75 8l14 99q51 375 442 375q140 0 260 -41q56 14 84 14t38.5 -12t10.5 -45q0 -28 -14 -123z" />
    <glyph glyph-name="f_f_i" unicode="ffi" horiz-adv-x="1794" 
d="M1526 156q0 -37 17.5 -51.5t58.5 -14.5q29 0 69 4l-4 -76q-100 -38 -176 -38q-82 0 -117 27t-35 94q0 35 9 83l114 652q7 40 7 56q0 28 -13.5 38t-46.5 10h-371l-137 -983q-30 -215 -107.5 -311.5t-218.5 -96.5q-80 0 -145 41l27 103q56 -27 106 -27q69 0 101 54t53 206
l142 1014h-427l-137 -983q-30 -215 -107.5 -311.5t-218.5 -96.5q-80 0 -145 41l26 103q56 -27 107 -27q69 0 101 54t53 206l142 1014h-142l8 82q18 6 73 14t75 8l12 78q54 375 442 375q138 0 272 -70q111 91 336 91q102 0 198 -24t142 -64q4 -12 4 -33q0 -105 -100 -105
q-34 0 -63 13.5t-53 33t-49 38.5t-62 32.5t-82 13.5q-73 0 -123.5 -52t-65.5 -163l-22 -164h440q46 11 82 11q51 0 68.5 -13.5t17.5 -46.5q0 -51 -14 -133l-115 -651q-6 -33 -6 -55zM873 1044l14 99q14 107 28 157q-28 6 -58.5 23.5t-53.5 35t-62.5 31t-85.5 13.5
q-72 0 -122 -52t-66 -163l-20 -144h426z" />
    <glyph glyph-name="f_f_l" unicode="ffl" horiz-adv-x="1800" 
d="M1708 1311l-174 -1100q-5 -35 -5 -54q0 -38 17 -52.5t58 -14.5q29 0 69 4l-4 -76q-100 -38 -176 -38q-82 0 -116.5 27t-34.5 96q0 31 8 81l180 1138q-28 7 -59 24.5t-54.5 34t-64 29.5t-88.5 13q-73 0 -123.5 -52t-65.5 -163l-22 -164h278l-14 -104h-279l-137 -983
q-30 -215 -107.5 -311.5t-218.5 -96.5q-80 0 -145 41l27 103q56 -27 106 -27q69 0 101 54t53 206l142 1014h-427l-137 -983q-30 -215 -107.5 -311.5t-218.5 -96.5q-80 0 -145 41l26 103q56 -27 107 -27q69 0 101 54t53 206l142 1014h-142l8 82q18 6 73 14t75 8l12 78
q54 375 442 375q138 0 272 -70q111 91 336 91q140 0 260 -41q56 14 84 14t38.5 -12t10.5 -45q0 -28 -14 -123zM873 1044l14 99q14 107 28 157q-28 6 -58.5 23.5t-53.5 35t-62.5 31t-85.5 13.5q-72 0 -122 -52t-66 -163l-20 -144h426z" />
    <glyph glyph-name="f_b.liga" unicode="fb" horiz-adv-x="1775" 
d="M1399 1069q143 0 211.5 -87.5t68.5 -270.5q0 -194 -73 -364t-197 -271t-266 -101q-159 0 -240 112l-8 -21q-19 -50 -39.5 -70.5t-54.5 -20.5q-31 0 -74 25l186 1325q-25 8 -55 25.5t-53 33t-62.5 27.5t-85.5 12q-72 0 -122.5 -52t-65.5 -163l-23 -164h275l-14 -104h-275
l-137 -983q-30 -215 -107.5 -311.5t-218.5 -96.5q-80 0 -145 41l26 103q56 -27 107 -27q69 0 101 54t53 206l142 1014h-142l8 82q18 6 73 14t75 8l14 99q51 375 442 375q138 0 255 -39q51 12 79 12q26 0 37.5 -11t11.5 -36q0 -78 -57.5 -394t-100.5 -477h3q35 109 78 195.5
t98 156t124 107t148 37.5zM1112 84q100 0 187 86.5t138.5 233t51.5 315.5q0 119 -29 175t-90 56q-49 0 -112.5 -50t-125.5 -136.5t-114.5 -221.5t-75.5 -286l-6 -44q27 -59 74 -93.5t102 -34.5z" />
    <glyph glyph-name="f_h.liga" unicode="fh" horiz-adv-x="1798" 
d="M1604 90q29 0 69 4l-4 -76q-102 -39 -176 -39q-82 0 -117 27.5t-35 94.5q0 35 9 83l108 617q6 33 6 58q0 91 -84 91q-50 0 -115.5 -50t-130 -136.5t-118 -221.5t-74.5 -286l-35 -256h-180l186 1325q-25 8 -55 25.5t-53 33t-62.5 27.5t-85.5 12q-72 0 -122.5 -52
t-65.5 -163l-23 -164h275l-14 -104h-275l-137 -983q-30 -215 -107.5 -311.5t-218.5 -96.5q-80 0 -145 41l26 103q56 -27 107 -27q69 0 101 54t53 206l142 1014h-142l8 82q18 6 73 14t75 8l14 99q51 375 442 375q138 0 255 -39q45 12 79 12q26 0 37.5 -11t11.5 -36
q0 -79 -56.5 -395t-99.5 -476h4q28 86 61.5 158.5t76 136t90.5 107.5t106 69t121 25q116 0 176.5 -50t60.5 -143q0 -28 -6 -59l-106 -606q-6 -33 -6 -55q0 -37 17.5 -51.5t58.5 -14.5z" />
    <glyph glyph-name="f_j.liga" unicode="fj" horiz-adv-x="1165" 
d="M969 1055q51 0 68.5 -13.5t17.5 -46.5q0 -32 -15 -133l-80 -569q-34 -245 -80 -381t-126 -219q-50 -52 -126.5 -90.5t-160.5 -53.5q-27 30 -27 80q0 35 18.5 56.5t59.5 35.5q13 4 61.5 14.5t73.5 26.5q37 25 57 107t60 367l84 600q5 38 5 55q0 29 -12.5 39t-45.5 10h-369
l-137 -983q-30 -215 -107.5 -311.5t-218.5 -96.5q-80 0 -145 41l26 103q56 -27 107 -27q69 0 101 54t53 206l142 1014h-142l8 82q18 6 73 14t75 8l14 99q51 375 442 375q102 0 198 -24t142 -64q4 -12 4 -33q0 -105 -100 -105q-34 0 -63.5 13.5t-53 33t-49 38.5t-62.5 32.5
t-82 13.5q-72 0 -122.5 -52t-65.5 -163l-23 -164h441q46 11 82 11z" />
    <glyph glyph-name="f_k.liga" unicode="fk" horiz-adv-x="1662" 
d="M1106 1434q0 -28 -14 -123l-185 -1311h-180l186 1325q-25 8 -55 25.5t-53 33t-62.5 27.5t-85.5 12q-72 0 -122.5 -52t-65.5 -163l-23 -164h275l-14 -104h-275l-137 -983q-30 -215 -107.5 -311.5t-218.5 -96.5q-80 0 -145 41l26 103q56 -27 107 -27q69 0 101 54t53 206
l142 1014h-142l8 82q18 6 73 14t75 8l14 99q51 375 442 375q138 0 255 -39q51 12 79 12t38.5 -12t10.5 -45zM1472 913q-36 0 -92 -54t-209 -236q26 -37 107 -185l125 -233q32 -62 61 -88.5t64 -26.5q23 0 43 4l-4 -76q-65 -39 -135 -39q-75 0 -118 42.5t-122 197.5l-105 199
q-38 72 -92 157l283 330q82 96 136 130t124 34q62 0 109 -20q12 -30 12 -64q0 -46 -25.5 -74t-66.5 -28q-25 0 -51 15t-44 15z" />
    <glyph glyph-name="f_f_b.liga" unicode="ffb" horiz-adv-x="2381" 
d="M2005 1069q143 0 212 -87.5t69 -270.5q0 -194 -73.5 -364t-197.5 -271t-266 -101q-159 0 -240 112l-8 -21q-19 -50 -39.5 -70.5t-54.5 -20.5q-31 0 -74 25l186 1325q-28 9 -67.5 35t-84 44.5t-103.5 18.5q-73 0 -123.5 -52t-65.5 -163l-22 -164h274l-14 -104h-275
l-137 -983q-30 -215 -107.5 -311.5t-218.5 -96.5q-80 0 -145 41l27 103q56 -27 106 -27q69 0 101 54t53 206l142 1014h-427l-137 -983q-30 -215 -107.5 -311.5t-218.5 -96.5q-80 0 -145 41l26 103q56 -27 107 -27q69 0 101 54t53 206l142 1014h-142l8 82q18 6 73 14t75 8
l12 78q54 375 442 375q138 0 272 -70q111 91 336 91q138 0 255 -39q51 12 79 12q26 0 37.5 -11t11.5 -36q0 -78 -57.5 -394t-100.5 -477h3q35 109 78 195.5t98 156t124 107t148 37.5zM873 1044l14 99q14 107 28 157q-28 6 -58.5 23.5t-53.5 35t-62.5 31t-85.5 13.5
q-72 0 -122 -52t-66 -163l-20 -144h426zM1718 84q100 0 187 86.5t138.5 233t51.5 315.5q0 119 -29 175t-90 56q-49 0 -112.5 -50t-125.5 -136.5t-114.5 -221.5t-75.5 -286l-6 -44q27 -59 74 -93.5t102 -34.5z" />
    <glyph glyph-name="f_f_h.liga" unicode="ffh" horiz-adv-x="2404" 
d="M2210 90q29 0 69 4l-4 -76q-100 -38 -176 -38q-82 0 -117 27t-35 94q0 35 9 83l108 617q6 33 6 58q0 91 -83 91q-39 0 -89.5 -30.5t-104.5 -92t-102.5 -143t-87 -194t-55.5 -234.5l-35 -256h-180l186 1325q-28 9 -67.5 35t-84 44.5t-103.5 18.5q-73 0 -123.5 -52
t-65.5 -163l-22 -164h274l-14 -104h-275l-137 -983q-30 -215 -107.5 -311.5t-218.5 -96.5q-80 0 -145 41l27 103q56 -27 106 -27q69 0 101 54t53 206l142 1014h-427l-137 -983q-30 -215 -107.5 -311.5t-218.5 -96.5q-80 0 -145 41l26 103q56 -27 107 -27q69 0 101 54t53 206
l142 1014h-142l8 82q18 6 73 14t75 8l12 78q54 375 442 375q138 0 272 -70q111 91 336 91q138 0 255 -39q51 12 79 12q26 0 37.5 -11t11.5 -36q0 -79 -56.5 -395t-99.5 -476h4q28 86 61.5 158.5t76 136t90.5 107.5t106 69t121 25q116 0 176.5 -50t60.5 -143q0 -33 -5 -59
l-107 -606q-6 -33 -6 -55q0 -37 17.5 -51.5t58.5 -14.5zM873 1044l14 99q14 107 28 157q-28 6 -58.5 23.5t-53.5 35t-62.5 31t-85.5 13.5q-72 0 -122 -52t-66 -163l-20 -144h426z" />
    <glyph glyph-name="f_f_j.liga" unicode="ffj" horiz-adv-x="1771" 
d="M1575 1055q51 0 68.5 -13.5t17.5 -46.5q0 -39 -14 -133l-80 -569q-34 -245 -80.5 -381t-126.5 -219q-50 -52 -126.5 -90.5t-160.5 -53.5q-26 29 -26 80q0 35 18 57t59 35q13 4 62 14.5t74 26.5q37 25 56.5 106t59.5 368l84 600q5 38 5 55q0 29 -12.5 39t-45.5 10h-369
l-137 -983q-30 -215 -107.5 -311.5t-218.5 -96.5q-80 0 -145 41l27 103q56 -27 106 -27q69 0 101 54t53 206l142 1014h-427l-137 -983q-30 -215 -107.5 -311.5t-218.5 -96.5q-80 0 -145 41l26 103q56 -27 107 -27q69 0 101 54t53 206l142 1014h-142l8 82q18 6 73 14t75 8
l12 78q54 375 442 375q138 0 272 -70q111 91 336 91q102 0 198 -24t142 -64q4 -12 4 -33q0 -105 -100 -105q-34 0 -63 13.5t-53 33t-49 38.5t-62 32.5t-82 13.5q-73 0 -123.5 -52t-65.5 -163l-22 -164h440q46 11 82 11zM873 1044l14 99q14 107 28 157q-28 6 -58.5 23.5
t-53.5 35t-62.5 31t-85.5 13.5q-72 0 -122 -52t-66 -163l-20 -144h426z" />
    <glyph glyph-name="f_f_k.liga" unicode="ffk" horiz-adv-x="2269" 
d="M1712 1434q0 -28 -14 -123l-185 -1311h-180l186 1325q-28 9 -67.5 35t-84 44.5t-103.5 18.5q-73 0 -123.5 -52t-65.5 -163l-22 -164h274l-14 -104h-275l-137 -983q-30 -215 -107.5 -311.5t-218.5 -96.5q-80 0 -145 41l27 103q56 -27 106 -27q69 0 101 54t53 206l142 1014
h-427l-137 -983q-30 -215 -107.5 -311.5t-218.5 -96.5q-80 0 -145 41l26 103q56 -27 107 -27q69 0 101 54t53 206l142 1014h-142l8 82q18 6 73 14t75 8l12 78q54 375 442 375q138 0 272 -70q111 91 336 91q138 0 255 -39q51 12 79 12t38.5 -12t10.5 -45zM873 1044l14 99
q14 107 28 157q-28 6 -58.5 23.5t-53.5 35t-62.5 31t-85.5 13.5q-72 0 -122 -52t-66 -163l-20 -144h426zM2079 913q-36 0 -93 -54.5t-209 -235.5q26 -37 107 -185l125 -233q32 -62 61 -88.5t64 -26.5q23 0 43 4l-4 -76q-65 -39 -135 -39q-75 0 -118 42.5t-122 197.5
l-104 199q-38 72 -92 157l282 330q82 96 136 130t124 34q62 0 109 -20q12 -30 12 -64q0 -46 -25.5 -74t-66.5 -28q-25 0 -50 15t-44 15z" />
    <glyph glyph-name=".notdef" horiz-adv-x="1189" 
d="M1016 1434v-1434h-842v1434h842zM854 1331h-518l259 -524zM276 162l275 555l-275 555v-1110zM913 1272l-274 -555l274 -555v1110zM336 102h518l-259 525z" />
    <glyph glyph-name=".null" horiz-adv-x="0" 
 />
    <glyph glyph-name="nonmarkingreturn" horiz-adv-x="682" 
 />
    <glyph glyph-name="space" unicode=" " horiz-adv-x="499" 
 />
    <glyph glyph-name="exclam" unicode="!" horiz-adv-x="501" 
d="M168 436l94 1037l223 12l-200 -1049h-117zM51 92q0 66 42 108t108 42q50 0 79 -31.5t29 -85.5q0 -66 -41.5 -108t-107.5 -42q-50 0 -79.5 31.5t-29.5 85.5z" />
    <glyph glyph-name="quotedbl" unicode="&#x22;" horiz-adv-x="741" 
d="M258 1516h162q-19 -119 -96 -498h-129q44 380 63 498zM584 1516h161q-19 -119 -96 -498h-129q42 355 64 498z" />
    <glyph glyph-name="numbersign" unicode="#" horiz-adv-x="1259" 
d="M1002 893l-112 -352h204l-15 -107h-222l-138 -434h-137l137 434h-329l-138 -434h-137l137 434h-209l14 107h229l112 352h-203l14 106h223l137 435h138l-138 -435h330l137 435h138l-138 -435h209l-14 -106h-229zM865 893h-330l-112 -352h330z" />
    <glyph glyph-name="dollar" unicode="$" horiz-adv-x="1069" 
d="M997 1092l-106 -5q-8 123 -53 190.5t-132 84.5l-77 -553q132 -74 183 -116q136 -116 138 -283q0 -190 -117 -308.5t-318 -132.5l-28 -194h-94l27 193q-254 9 -397 118q9 153 45 299l112 4q-4 -148 62 -232t194 -91l83 599q-131 76 -175 111q-133 104 -144 247
q-1 15 -1 30q0 181 119.5 296t309.5 117l27 193h95l-28 -195q84 -6 183 -27.5t146 -21.5zM381 1100q0 -80 43 -136t122 -106l71 510q-106 -6 -171 -79.5t-65 -188.5zM764 358q0 84 -42.5 144t-119.5 112l-75 -542q106 20 171.5 98.5t65.5 187.5z" />
    <glyph glyph-name="percent" unicode="%" horiz-adv-x="1796" 
d="M338 -102h-145l1294 1638h145zM123 995q0 200 111 327.5t286 127.5q143 0 218 -76t75 -221q0 -204 -110.5 -331.5t-288.5 -127.5q-136 0 -213.5 80t-77.5 221zM508 1356q-100 0 -163.5 -102.5t-63.5 -262.5q0 -92 40 -147.5t107 -55.5q97 0 162 106.5t65 264.5
q0 94 -38.5 145.5t-108.5 51.5zM1012 285q0 200 111 327t286 127q143 0 218 -76t75 -221q0 -204 -110.5 -331t-288.5 -127q-136 0 -213.5 80t-77.5 221zM1397 645q-100 0 -164 -102t-64 -262q0 -92 40.5 -147.5t107.5 -55.5q97 0 162 106.5t65 264.5q0 94 -38.5 145
t-108.5 51z" />
    <glyph glyph-name="ampersand" unicode="&#x26;" horiz-adv-x="1488" 
d="M1119 254q109 -99 169 -134.5t133 -45.5l-10 -70q-53 -16 -117 -16q-134 0 -307 135q-195 -156 -412 -156q-238 0 -361.5 102t-123.5 298q0 158 88 275t247 174q-58 122 -58 251q0 177 99 288t257 111q128 0 196 -61t68 -178q0 -145 -88 -256t-256 -180
q118 -203 380 -448q56 103 56 228q0 94 27.5 135.5t89.5 41.5q56 0 86 -27q2 -8 2 -29q0 -232 -165 -438zM707 1376q-72 0 -118 -75t-46 -195q0 -132 51 -231q233 105 233 327q0 89 -29 131.5t-91 42.5zM281 385q0 -148 82 -229.5t231 -81.5q170 0 302 126
q-135 119 -250 262t-174 265q-191 -100 -191 -342z" />
    <glyph glyph-name="quotesingle" unicode="'" horiz-adv-x="415" 
d="M258 1516h162q-19 -119 -96 -498h-129q44 380 63 498z" />
    <glyph glyph-name="parenleft" unicode="(" horiz-adv-x="591" 
d="M399 -410h-112q-105 190 -154 375t-49 393q0 328 111.5 603.5t367.5 582.5h117q-215 -313 -318.5 -606.5t-103.5 -587.5q0 -194 37 -393t104 -367z" />
    <glyph glyph-name="parenright" unicode=")" horiz-adv-x="591" 
d="M180 1544h113q105 -190 154 -375t49 -393q0 -327 -112 -603t-368 -583h-116q215 313 318.5 606.5t103.5 587.5q0 193 -37 392t-105 368z" />
    <glyph glyph-name="asterisk" unicode="*" horiz-adv-x="1001" 
d="M985 1159q-169 -51 -353 -73q105 -113 189 -259q-55 -49 -135 -90q-36 62 -66 133.5t-42 108t-18 59.5q-91 -154 -224 -303q-65 36 -117 94q54 62 119.5 124.5t99.5 91t56 45.5q-166 19 -326 73q22 73 70 140q151 -50 292 -137q0 2 -0.5 26t-0.5 45q0 148 20 279
q37 6 84 6q48 0 78 -6q-24 -164 -89 -344q162 85 334 137q26 -73 29 -150z" />
    <glyph glyph-name="plus" unicode="+" horiz-adv-x="1071" 
d="M985 500h-400l-63 -443h-129l63 443h-399l17 114h398l63 443h129l-63 -443h400z" />
    <glyph glyph-name="comma" unicode="," horiz-adv-x="475" 
d="M186 242q52 0 79.5 -36t27.5 -104q0 -136 -93.5 -252t-222.5 -141q-27 17 -30 58q73 28 113 77.5t57 133.5q-37 8 -58.5 38.5t-21.5 75.5q0 66 41.5 108t107.5 42z" />
    <glyph glyph-name="hyphen" unicode="-" horiz-adv-x="800" 
d="M662 623l-19 -131h-520l18 131h521z" />
    <glyph glyph-name="period" unicode="." horiz-adv-x="468" 
d="M37 92q0 66 41.5 108t107.5 42q50 0 79.5 -31.5t29.5 -85.5q0 -66 -42 -108t-108 -42q-50 0 -79 31.5t-29 85.5z" />
    <glyph glyph-name="slash" unicode="/" horiz-adv-x="770" 
d="M72 -377h-148l756 1856h147z" />
    <glyph glyph-name="zero" unicode="0" horiz-adv-x="1171" 
d="M86 420q0 191 73 344t202.5 239.5t291.5 86.5q198 0 305 -114t107 -325q0 -194 -72.5 -348.5t-202 -241t-292.5 -86.5q-192 0 -302 119t-110 326zM637 975q-160 0 -261.5 -155.5t-101.5 -399.5q0 -148 66.5 -239t173.5 -91q155 0 259 161t104 402q0 151 -64 236.5
t-176 85.5z" />
    <glyph glyph-name="one" unicode="1" horiz-adv-x="782" 
d="M668 80l-13 -80h-635l13 80l135 18q54 8 77.5 28.5t30.5 68.5l110 690q-83 -39 -193 -64l-56 -12l-8 84l358 184h109l-139 -882q-4 -26 -4 -34q0 -32 23 -44.5t93 -22.5z" />
    <glyph glyph-name="two" unicode="2" horiz-adv-x="983" 
d="M253 127q88 6 234 6h344l-20 -133h-809l18 115q352 201 509 361.5t157 318.5q0 80 -52 128t-138 48q-145 0 -301 -135l-43 120q152 134 380 134q157 0 252 -72.5t95 -192.5q0 -197 -160.5 -376t-465.5 -322z" />
    <glyph glyph-name="three" unicode="3" horiz-adv-x="1017" 
d="M591 410q121 -24 187 -101t66 -196q0 -217 -144.5 -345t-390.5 -128q-210 0 -350 104q-2 12 -2 31q0 47 25 73.5t71 26.5q31 0 55 -13.5t42.5 -33t40 -39.5t60 -33.5t91.5 -13.5q133 0 221 103t88 257q0 125 -89 184.5t-275 59.5q-36 0 -68 -4l8 113q245 0 361.5 77.5
t116.5 241.5q0 98 -53.5 147.5t-155.5 49.5q-145 0 -301 -135l-43 120q152 134 380 134q174 0 269.5 -74t95.5 -211q0 -148 -83.5 -255t-222.5 -140z" />
    <glyph glyph-name="four" unicode="4" horiz-adv-x="1089" 
d="M942 29h-172l-51 -365h-176l51 365h-631l12 82l779 958h164l-130 -913h173zM614 156l95 662l-538 -662h443z" />
    <glyph glyph-name="five" unicode="5" horiz-adv-x="1034" 
d="M373 911l-123 -476q103 89 268 89q158 0 256 -101.5t98 -264.5q0 -241 -148 -379.5t-396 -138.5q-211 0 -351 104q-2 12 -2 31q0 47 25.5 73.5t71.5 26.5q31 0 55 -13.5t42 -33t39.5 -39.5t60 -33.5t91.5 -13.5q135 0 227.5 112.5t92.5 282.5q0 121 -65 189.5t-181 68.5
q-132 0 -256 -121l-102 39l196 752h703l-23 -154h-579z" />
    <glyph glyph-name="six" unicode="6" horiz-adv-x="1112" 
d="M805 1307q-397 0 -512 -635q56 100 150.5 153.5t220.5 53.5q158 0 244.5 -93.5t86.5 -261.5q0 -243 -145 -396t-375 -153q-183 0 -278 112t-95 329q0 306 86 534t246 351.5t375 123.5q161 0 272 -43l-39 -125q-115 50 -237 50zM608 760q-138 0 -229.5 -117.5
t-91.5 -292.5q0 -124 55 -195t152 -71q133 0 220 119.5t87 302.5q0 121 -50.5 187.5t-142.5 66.5z" />
    <glyph glyph-name="seven" unicode="7" horiz-adv-x="911" 
d="M942 1065l-6 -84l-203 -336q-150 -250 -240 -424.5t-173 -378.5q-43 -108 -68 -192q-24 -6 -59 -6q-57 0 -81 19t-24 65q0 43 22.5 106.5t80.5 183.5q215 447 558 893h-661l23 154h831z" />
    <glyph glyph-name="eight" unicode="8" horiz-adv-x="1112" 
d="M703 760q62 -33 103 -60.5t84.5 -69.5t65 -96t21.5 -120q0 -194 -143 -316.5t-369 -122.5q-186 0 -291.5 87.5t-105.5 242.5q0 322 343 431q-60 38 -100 75t-68 94.5t-28 126.5q0 177 125.5 285t329.5 108q163 0 257.5 -76t94.5 -208q0 -141 -76.5 -233t-242.5 -148z
M655 1323q-113 0 -183.5 -72.5t-70.5 -187.5q0 -82 50.5 -137.5t144.5 -108.5q250 84 250 313q0 92 -50 142.5t-141 50.5zM479 78q136 0 222.5 82t86.5 211q0 38 -9.5 70.5t-32 61.5t-42 49t-59 46t-61.5 38.5t-70 39.5q-129 -43 -199.5 -135.5t-70.5 -218.5q0 -114 63 -179
t172 -65z" />
    <glyph glyph-name="nine" unicode="9" horiz-adv-x="1093" 
d="M604 1090q183 0 278 -112t95 -329q0 -306 -86 -534t-246 -351.5t-375 -123.5q-161 0 -272 43l39 124q113 -49 237 -49q398 0 513 635q-56 -100 -150.5 -153.5t-220.5 -53.5q-158 0 -245 93.5t-87 261.5q0 243 145 396t375 153zM471 305q138 0 230 117.5t92 292.5
q0 124 -55 195t-152 71q-133 0 -220 -119.5t-87 -302.5q0 -122 50 -188t142 -66z" />
    <glyph glyph-name="colon" unicode=":" horiz-adv-x="546" 
d="M176 776q0 66 42 108t108 42q50 0 79 -31.5t29 -85.5q0 -66 -41.5 -108t-107.5 -42q-50 0 -79.5 31.5t-29.5 85.5zM68 92q0 66 41.5 108t107.5 42q50 0 79.5 -31.5t29.5 -85.5q0 -66 -42 -108t-108 -42q-50 0 -79 31.5t-29 85.5z" />
    <glyph glyph-name="semicolon" unicode=";" horiz-adv-x="550" 
d="M328 926q50 0 79 -31.5t29 -85.5q0 -66 -41.5 -108t-107.5 -42q-50 0 -79.5 31.5t-29.5 85.5q0 66 42 108t108 42zM219 242q52 0 79.5 -36t27.5 -104q0 -136 -93.5 -252t-222.5 -141q-27 17 -30 58q73 28 113 77.5t57 133.5q-37 8 -58.5 38.5t-21.5 75.5q0 66 41.5 108
t107.5 42z" />
    <glyph glyph-name="less" unicode="&#x3c;" horiz-adv-x="917" 
d="M836 899l-601 -307l513 -307l-19 -138l-674 410l11 76l790 409z" />
    <glyph glyph-name="equal" unicode="=" horiz-adv-x="1212" 
d="M1075 653h-928l17 115h928zM1034 358h-928l17 115h928z" />
    <glyph glyph-name="greater" unicode="&#x3e;" horiz-adv-x="917" 
d="M858 633l-10 -76l-791 -410l21 144l600 307l-512 307l18 137z" />
    <glyph glyph-name="question" unicode="?" horiz-adv-x="954" 
d="M612 1501q163 0 259 -81t96 -218q0 -86 -28.5 -154t-74 -111.5t-100.5 -79.5t-110 -69t-100.5 -68.5t-74 -88t-28.5 -119.5q0 -38 4 -66l-133 -18q-13 43 -13 107q0 73 26 132t67.5 99.5t91.5 76.5t100.5 70.5t92 72.5t67.5 92t26 120q0 94 -53 147.5t-145 53.5
q-94 0 -148.5 -49.5t-79.5 -155.5q-17 -70 -46 -99.5t-81 -29.5q-32 0 -58 15.5t-36 41.5q31 173 161 276t318 103zM238 92q0 66 41.5 108t107.5 42q50 0 79.5 -31.5t29.5 -85.5q0 -66 -42 -108t-108 -42q-50 0 -79 31.5t-29 85.5z" />
    <glyph glyph-name="at" unicode="@" horiz-adv-x="1832" 
d="M1008 1231q205 0 367 -79t251.5 -220t89.5 -320q0 -177 -60 -323.5t-165.5 -230t-233.5 -83.5q-233 0 -233 166q0 65 56 248h-2q-128 -409 -365 -409q-113 0 -165 71.5t-52 224.5q0 160 58.5 299.5t156.5 221.5t211 82q127 0 194 -93l6 17q17 43 35 59.5t49 16.5
q32 0 74 -23l-80 -508q-22 -141 -22 -182q0 -107 92 -107q120 0 199 153t79 386q0 244 -148 386t-403 142q-222 0 -394.5 -108t-267.5 -303.5t-95 -446.5q0 -286 150.5 -436.5t434.5 -150.5q204 0 359 47l22 -82q-204 -70 -415 -70q-346 0 -537 180.5t-191 507.5
q0 213 69 393t192 306.5t299 197t385 70.5zM745 90q38 0 87.5 40t98 109t89 175t57.5 225l7 47q-21 43 -55.5 68.5t-72.5 25.5q-74 0 -139 -70.5t-104 -189t-39 -252.5q0 -94 16 -136t55 -42z" />
    <glyph glyph-name="A" unicode="A" horiz-adv-x="1363" 
d="M1264 78l-4 -78h-517l13 78l59 8q60 8 84.5 31t24.5 74q0 34 -13 102l-27 143h-494l-66 -143q-50 -108 -50 -143q0 -30 26 -43.5t89 -22.5l45 -6l-12 -78h-506l12 78l60 8q61 8 95.5 45.5t94.5 161.5l557 1149h129l232 -1149q25 -125 46.5 -160t80.5 -47zM863 541
l-124 643l-300 -643h424z" />
    <glyph glyph-name="B" unicode="B" horiz-adv-x="1228" 
d="M836 772q128 -20 200 -101.5t72 -209.5q0 -215 -155 -342t-416 -127q-69 0 -207.5 4t-223.5 4h-96l13 78l79 14q49 9 69.5 29.5t27.5 66.5l149 1057q3 18 3 31q0 32 -21 46t-84 26l-43 8l4 78h102q85 0 223 4t207 4q420 0 420 -287q0 -142 -91 -249t-232 -134zM965 1128
q0 109 -61 162t-185 53q-96 0 -174 -12l-72 -510q62 -6 148 -6q157 0 250.5 85t93.5 228zM518 90q189 0 292 96t103 271q0 117 -77.5 187.5t-206.5 70.5q-98 0 -172 -7l-72 -509q-3 -18 -3 -32q0 -44 29.5 -60.5t106.5 -16.5z" />
    <glyph glyph-name="C" unicode="C" horiz-adv-x="1292" 
d="M879 1466q104 0 230.5 -23.5t195.5 -23.5q-11 -153 -50 -344l-110 -8q0 158 -64.5 224.5t-218.5 66.5q-161 0 -286.5 -98t-195 -275.5t-69.5 -404.5q0 -238 98 -371t275 -133q164 0 252 73.5t129 245.5l106 -8l-45 -313q-225 -107 -458 -107q-269 0 -413 156t-144 448
q0 259 98 463t273 318t397 114z" />
    <glyph glyph-name="D" unicode="D" horiz-adv-x="1435" 
d="M739 1442q300 0 458.5 -151.5t158.5 -438.5q0 -190 -60 -350t-166.5 -272t-259.5 -175t-333 -63q-69 0 -207.5 4t-223.5 4h-96l13 78l79 14q49 9 69.5 29.5t27.5 66.5l149 1057q3 18 3 31q0 32 -21 46t-84 26l-43 8l4 78h102q85 0 223 4t207 4zM518 90q289 0 463 206.5
t174 549.5q0 236 -114.5 366.5t-321.5 130.5q-96 0 -174 -12l-160 -1132q-3 -18 -3 -32q0 -44 29.5 -60.5t106.5 -16.5z" />
    <glyph glyph-name="E" unicode="E" horiz-adv-x="1234" 
d="M1165 1081l-123 -8q2 70 -1 112.5t-12 74t-29.5 46t-49.5 21t-76 6.5h-329l-78 -551h264q54 0 77 22.5t46 96.5l14 45l107 4l-64 -450l-104 4v90q0 44 -21.5 65t-68.5 21h-264l-68 -485q-2 -20 -2 -28q0 -40 30 -53.5t115 -13.5h215q59 0 94 9t63 39t46 77.5t39 134.5
l121 -8q-17 -187 -66 -352h-1030l13 78l79 14q49 9 69.5 29.5t27.5 66.5l149 1057q3 18 3 31q0 32 -21 46t-84 26l-43 8l4 78h993q0 -159 -35 -353z" />
    <glyph glyph-name="F" unicode="F" horiz-adv-x="1177" 
d="M207 1434h993q0 -159 -35 -353l-123 -8q2 70 -1 112.5t-12 74t-29.5 46t-49.5 21t-76 6.5h-329l-83 -585h294q54 0 77 22t46 96l14 45l106 4l-63 -450l-105 4v90q0 44 -21.5 65t-68.5 21h-293l-61 -428q-4 -32 -4 -42q0 -37 21.5 -52.5t82.5 -24.5l111 -16l-12 -82h-576
l13 78l79 14q49 9 69.5 29.5t27.5 66.5l149 1057q3 18 3 31q0 32 -21 46t-84 26l-43 8z" />
    <glyph glyph-name="G" unicode="G" horiz-adv-x="1437" 
d="M1403 696l-12 -78l-74 -12q-48 -8 -68.5 -29.5t-27.5 -68.5l-64 -455q-233 -86 -489 -86q-269 0 -413 156t-144 448q0 259 98 463t275.5 318t404.5 114q111 0 244.5 -23.5t201.5 -23.5q-12 -161 -49 -344l-110 -8q0 157 -71 224t-233 67q-166 0 -294 -98.5t-197.5 -275.5
t-69.5 -404q0 -235 98 -367.5t275 -132.5q179 0 305 67l51 361q3 18 3 31q0 32 -20.5 45.5t-84.5 25.5l-43 8l4 78h504z" />
    <glyph glyph-name="H" unicode="H" horiz-adv-x="1503" 
d="M1534 1434l-12 -78l-95 -13q-48 -7 -68.5 -29t-27.5 -69l-149 -1057q-3 -18 -3 -31q0 -32 21 -45t84 -24l59 -10l-12 -78h-522l12 78l80 14q49 9 69 29.5t27 66.5l70 494h-614l-70 -494q-3 -18 -3 -31q0 -32 21 -45t84 -24l60 -10l-13 -78h-522l13 78l79 14
q49 9 69.5 29.5t27.5 66.5l149 1057q3 18 3 31q0 32 -21 46t-84 26l-43 8l4 78h528l-12 -78l-94 -13q-48 -7 -69 -29t-28 -69l-64 -457h614l65 457q3 18 3 31q0 33 -22 47t-84 25l-47 8l13 78h524z" />
    <glyph glyph-name="I" unicode="I" horiz-adv-x="704" 
d="M723 1356l-94 -13q-48 -7 -69 -29t-28 -69l-149 -1057q-3 -18 -3 -31q0 -32 21 -45t84 -24l60 -10l-13 -78h-522l13 78l79 14q49 9 69.5 29.5t27.5 66.5l149 1057q3 18 3 31q0 32 -21 46t-84 26l-43 8l4 78h528z" />
    <glyph glyph-name="J" unicode="J" horiz-adv-x="677" 
d="M-106 -406q-27 30 -27 80q0 71 78 97q13 4 61.5 14.5t73.5 26.5q26 17 41 55.5t31.5 126t44.5 287.5l137 964q3 18 3 31q0 32 -21.5 46.5t-82.5 25.5l-43 8l5 78h528l-12 -78l-95 -13q-48 -7 -68.5 -29t-27.5 -69l-131 -928q-34 -239 -79.5 -366.5t-127.5 -212.5
q-50 -52 -127 -90.5t-161 -53.5z" />
    <glyph glyph-name="K" unicode="K" horiz-adv-x="1257" 
d="M380 157q0 -32 21 -45t84 -24l60 -10l-13 -78h-522l13 78l79 14q49 9 69.5 29.5t27.5 66.5l149 1057q3 18 3 31q0 32 -21 46t-84 26l-43 8l4 78h528l-12 -78l-94 -13q-48 -7 -69 -29t-28 -69l-149 -1057q-3 -18 -3 -31zM1352 1434l-13 -78q-77 -19 -124 -52t-177 -159
l-375 -364q43 -58 80 -122l248 -434q73 -129 187 -147l-13 -76q-40 -14 -98 -14q-95 0 -156 49t-137 186l-145 264q-48 88 -76.5 132.5t-83.5 119.5l457 455q84 84 84 118q0 31 -64 40l-28 4l4 78h430z" />
    <glyph glyph-name="L" unicode="L" horiz-adv-x="1175" 
d="M723 1356l-94 -13q-48 -7 -69 -29t-28 -69l-147 -1050q-2 -20 -2 -28q0 -40 30 -53.5t115 -13.5h191q108 0 157 65.5t91 240.5l120 -9q-26 -245 -71 -397h-1006l13 78l79 14q49 9 69.5 29.5t27.5 66.5l149 1057q3 18 3 31q0 32 -21 46t-84 26l-43 8l4 78h528z" />
    <glyph glyph-name="M" unicode="M" horiz-adv-x="1900" 
d="M1884 1434l-12 -78l-94 -13q-49 -6 -71.5 -29t-25.5 -69l-73 -1057q-4 -54 13.5 -71t88.5 -29l59 -10l-12 -78h-518l12 78l80 14q51 9 72 30t24 66l42 592q22 310 45 438q-79 -163 -267 -516l-375 -702h-96l-152 702q-84 388 -110 515q-9 -87 -25 -170.5t-57 -266.5
l-131 -592q-5 -23 -5 -35q0 -28 22.5 -41t84.5 -24l60 -10l-12 -78h-474l13 78l80 14q46 8 66 27.5t30 68.5l233 1057q5 23 5 36q0 29 -22.5 42t-84.5 25l-43 8l4 78h383l248 -1139l610 1139h385z" />
    <glyph glyph-name="N" unicode="N" horiz-adv-x="1509" 
d="M1554 1434l-12 -78l-94 -13q-48 -7 -68.5 -29t-27.5 -69l-176 -1245h-162l-418 899q-85 183 -128 322q-7 -109 -24 -236l-112 -797q-3 -18 -3 -31q0 -32 21 -45t84 -24l60 -10l-13 -78h-471l13 78l79 14q49 9 69.5 29.5t27.5 66.5l149 1057q3 18 3 31q0 32 -21 46t-84 26
l-43 8l4 78h338l418 -899q80 -171 121 -300q7 103 22 213l113 797q2 12 2 31q0 32 -21 46t-84 26l-43 8l4 78h477z" />
    <glyph glyph-name="O" unicode="O" horiz-adv-x="1515" 
d="M877 1466q264 0 411.5 -161t147.5 -451q0 -259 -97 -461t-272.5 -314t-400.5 -112q-258 0 -406.5 167.5t-148.5 457.5q0 254 97 453.5t271.5 310t397.5 110.5zM860 1358q-159 0 -284.5 -97.5t-195 -272t-69.5 -396.5q0 -236 100.5 -376t270.5 -140q94 0 179 37.5
t152.5 108t117.5 165.5t77 215.5t27 253.5q0 236 -99 369t-276 133z" />
    <glyph glyph-name="P" unicode="P" horiz-adv-x="1191" 
d="M435 553l-48 -336q-4 -32 -4 -42q0 -37 21.5 -52.5t82.5 -24.5l111 -16l-12 -82h-576l13 78l79 14q49 9 69.5 29.5t27.5 66.5l149 1057q3 18 3 31q0 32 -21 46t-84 26l-43 8l4 78h102q85 0 223 4t207 4q216 0 328.5 -93t112.5 -272q0 -250 -158 -390t-440 -140
q-85 0 -147 6zM985 1065q0 135 -68 206.5t-198 71.5q-96 0 -174 -12l-96 -676q62 -6 147 -6q181 0 285 111t104 305z" />
    <glyph glyph-name="Q" unicode="Q" horiz-adv-x="1515" 
d="M1337 -37q84 0 84 -84q0 -29 -10 -67q-84 -41 -188 -41q-128 0 -228.5 56.5t-154.5 158.5q-82 -19 -174 -19q-258 0 -406.5 167.5t-148.5 457.5q0 254 97 453.5t271.5 310t397.5 110.5q264 0 411.5 -161t147.5 -451q0 -300 -129.5 -520.5t-352.5 -311.5q83 -88 213 -88
q38 0 90.5 14.5t79.5 14.5zM311 592q0 -236 100.5 -376t270.5 -140q94 0 179 37.5t152.5 108t117.5 165.5t77 215.5t27 253.5q0 236 -99 369t-276 133q-159 0 -284.5 -97.5t-195 -272t-69.5 -396.5z" />
    <glyph glyph-name="R" unicode="R" horiz-adv-x="1267" 
d="M1045 150q22 -36 52 -51.5t85 -18.5l-13 -76q-40 -16 -114 -16q-103 0 -144.5 33.5t-80.5 148.5l-111 326q-30 88 -70 118.5t-125 30.5q-29 0 -77 -4l-64 -453q-3 -18 -3 -31q0 -32 21 -45t84 -24l60 -10l-13 -78h-522l13 78l79 14q49 9 69.5 29.5t27.5 66.5l149 1057
q3 18 3 31q0 32 -21 46t-84 26l-43 8l4 78h102q85 0 223 4t207 4q420 0 420 -318q0 -175 -102 -288t-284 -142q46 -17 77 -63t71 -148q21 -52 61.5 -173.5t62.5 -159.5zM545 1331l-82 -575q62 -6 147 -6q157 0 257 98.5t100 253.5q0 241 -248 241q-96 0 -174 -12z" />
    <glyph glyph-name="S" unicode="S" horiz-adv-x="1087" 
d="M643 1466q128 0 251 -25.5t165 -25.5l-53 -323l-107 -5q-9 146 -70.5 213.5t-185.5 67.5q-114 0 -184 -74t-70 -194q0 -65 31.5 -117.5t81.5 -89t111 -70t121.5 -70.5t110.5 -81t81.5 -111t31.5 -151q0 -203 -132 -323t-355 -120q-283 0 -440 119q9 153 45 299l112 4
q-4 -155 68.5 -239t210.5 -84q132 0 218.5 82.5t86.5 209.5q0 69 -31 125t-81 94.5t-110 74t-120.5 72.5t-110.5 79.5t-81 106.5t-31 143q0 183 122 298t314 115z" />
    <glyph glyph-name="T" unicode="T" horiz-adv-x="1292" 
d="M195 1434h1138q0 -163 -35 -357l-122 -8q2 70 -1 113t-12 75t-29.5 47t-49.5 22t-76 7h-166l-158 -1116q-4 -34 -4 -44q0 -37 21 -53.5t81 -25.5l92 -14l-12 -80h-588l13 80l112 18q49 8 71 34t30 85l157 1116h-165q-112 0 -156.5 -48.5t-85.5 -215.5l-121 8
q17 194 66 357z" />
    <glyph glyph-name="U" unicode="U" horiz-adv-x="1458" 
d="M700 1356l-94 -13q-48 -7 -68.5 -29t-27.5 -69l-104 -735q-10 -72 -10 -120q0 -316 292 -316q163 0 254.5 102.5t122.5 319.5l106 749q3 18 3 31q0 32 -21.5 46.5t-83.5 25.5l-47 8l12 78h486l-13 -78l-94 -13q-48 -7 -68.5 -29t-27.5 -69l-109 -770q-35 -250 -176 -379
t-379 -129q-220 0 -331.5 101.5t-111.5 301.5q0 57 9 122l107 753q2 12 2 31q0 32 -21 46t-84 26l-43 8l4 78h529z" />
    <glyph glyph-name="V" unicode="V" horiz-adv-x="1361" 
d="M1477 1434l-13 -78l-59 -6q-59 -6 -93 -43.5t-98 -165.5l-567 -1147h-108l-242 1147q-28 131 -49 166t-78 43l-41 6l4 78h516l-12 -78l-59 -6q-59 -6 -84.5 -29.5t-25.5 -76.5q0 -42 13 -103l177 -863l411 863q50 103 50 145q0 32 -26.5 46.5t-88.5 19.5l-46 4l13 78h506
z" />
    <glyph glyph-name="W" unicode="W" horiz-adv-x="2029" 
d="M2144 1434l-12 -78l-59 -6q-62 -7 -98.5 -47t-92.5 -162l-524 -1147h-109l-166 1077l-489 -1077h-109l-184 1147q-20 124 -43 162t-84 47l-41 6l4 78h512l-12 -78l-59 -6q-60 -6 -83.5 -27.5t-23.5 -76.5q0 -32 10 -105l124 -843l495 1136h104l165 -1136l368 843
q49 112 49 150q0 31 -25.5 43t-89.5 18l-45 4l12 78h506z" />
    <glyph glyph-name="X" unicode="X" horiz-adv-x="1224" 
d="M1313 1434l-13 -78l-40 -4q-51 -5 -77.5 -18t-56.5 -47t-94 -124l-301 -422l215 -471q54 -118 78.5 -146.5t81.5 -39.5l31 -6l-13 -78h-493l12 78l41 6q54 8 78.5 25t24.5 49q0 30 -23 84l-160 366l-257 -366q-49 -68 -49 -103q0 -23 21.5 -35t67.5 -18l66 -8l-13 -78
h-504l13 78l41 6q74 11 108 39t119 147l306 430l-212 463q-56 123 -80 152t-79 37l-27 4l4 78h498l-13 -78l-41 -4q-103 -10 -103 -74q0 -30 24 -86l156 -359l252 359q50 71 50 105q0 44 -90 53l-65 6l12 78h504z" />
    <glyph glyph-name="Y" unicode="Y" horiz-adv-x="1304" 
d="M1409 1434l-12 -78l-41 -4q-52 -5 -79.5 -19.5t-59 -52t-101.5 -139.5l-368 -539l-56 -385q-4 -34 -4 -44q0 -37 21.5 -53.5t81.5 -25.5l92 -14l-13 -80h-587l12 80l113 18q48 8 70 34.5t30 84.5l55 385l-241 539q-29 64 -44 95t-29.5 57.5t-28 35.5t-26.5 14t-38 9
l-27 4l4 78h518l-12 -78l-59 -6q-105 -10 -105 -75q0 -31 25 -89l201 -448l299 448q49 74 49 108q0 47 -93 56l-65 6l12 78h506z" />
    <glyph glyph-name="Z" unicode="Z" horiz-adv-x="1210" 
d="M1217 1348l-985 -1248h487q108 0 155 55.5t87 213.5l120 -9q-18 -203 -65 -360h-1016l4 86l985 1247h-450q-112 0 -156.5 -48.5t-85.5 -215.5l-121 8q17 194 66 357h979z" />
    <glyph glyph-name="bracketleft" unicode="[" horiz-adv-x="561" 
d="M621 1544l-15 -106h-176l-244 -1741h174l-14 -107h-338l275 1954h338z" />
    <glyph glyph-name="backslash" unicode="\" horiz-adv-x="763" 
d="M561 -377h-139l-236 1856h140z" />
    <glyph glyph-name="bracketright" unicode="]" horiz-adv-x="561" 
d="M-72 -410l15 107h176l243 1741h-174l15 106h338l-275 -1954h-338z" />
    <glyph glyph-name="asciicircum" unicode="^" horiz-adv-x="1067" 
d="M844 614l-195 680l-416 -680h-157l526 840h143l250 -840h-151z" />
    <glyph glyph-name="underscore" unicode="_" 
d="M893 -322h-1024l16 119h1024z" />
    <glyph glyph-name="grave" unicode="`" 
d="M371 1548l368 -268q-19 -48 -53 -82l-401 215q25 74 86 135z" />
    <glyph glyph-name="a" unicode="a" horiz-adv-x="1136" 
d="M944 90q30 0 70 4l-4 -76q-100 -38 -176 -38q-73 0 -107.5 26.5t-34.5 85.5q0 102 88 379h-3q-35 -109 -77.5 -195.5t-97.5 -156t-124 -107t-148 -37.5q-133 0 -194.5 87.5t-61.5 271.5q0 194 71.5 364t192 270.5t258.5 100.5q152 0 232 -115l10 25q19 50 39.5 70
t54.5 20q31 0 74 -25l-132 -833q-5 -35 -5 -54q0 -38 17 -52.5t58 -14.5zM358 94q49 0 112.5 50t125.5 136.5t114.5 221.5t75.5 286l7 44q-26 58 -71.5 93.5t-94.5 35.5q-96 0 -180 -86.5t-133.5 -233t-49.5 -315.5q0 -121 21.5 -176.5t72.5 -55.5z" />
    <glyph glyph-name="b" unicode="b" horiz-adv-x="1132" 
d="M756 1069q143 0 211.5 -87.5t68.5 -270.5q0 -194 -73 -364t-197 -271t-266 -101q-159 0 -240 112l-8 -21q-19 -50 -39.5 -70.5t-54.5 -20.5q-31 0 -74 25l180 1284q6 39 6 62q0 24 -7.5 33.5t-26.5 9.5q-36 0 -95 -17v76q50 30 118 50t120 20q53 0 68.5 -14t15.5 -60
q0 -78 -57.5 -394t-100.5 -477h3q35 109 78 195.5t98 156t124 107t148 37.5zM469 84q100 0 187 86.5t138.5 233t51.5 315.5q0 119 -29 175t-90 56q-49 0 -112.5 -50t-125.5 -136.5t-114.5 -221.5t-75.5 -286l-7 -44q27 -59 74.5 -93.5t102.5 -34.5z" />
    <glyph glyph-name="c" unicode="c" horiz-adv-x="944" 
d="M420 -25q-166 0 -254 107.5t-88 310.5q0 194 72 348.5t200.5 241t290.5 86.5q167 0 279 -84q6 -15 6 -39q0 -47 -29 -75.5t-78 -28.5q-30 0 -52 13t-35.5 31t-28 36.5t-39 31.5t-58.5 13q-92 0 -170 -75t-123 -205t-45 -284q0 -149 55 -228t158 -79q78 0 144 27.5
t135 89.5l45 -96q-91 -76 -180.5 -109t-204.5 -33z" />
    <glyph glyph-name="d" unicode="d" horiz-adv-x="1161" 
d="M1071 1311l-174 -1100q-5 -35 -5 -54q0 -38 17 -52.5t58 -14.5q29 0 69 4l-4 -76q-100 -38 -176 -38q-73 0 -107 26.5t-34 85.5q0 102 88 379h-3q-35 -109 -78 -195.5t-98 -156t-124 -107t-148 -37.5q-143 0 -211.5 88t-68.5 271q0 145 43.5 281t116 235t171.5 159
t205 60q156 0 235 -118q10 114 44 333q6 39 6 62q0 24 -8 33.5t-27 9.5q-34 0 -94 -17v76q50 30 117.5 50t119.5 20q53 0 68.5 -14t15.5 -60q0 -38 -14 -133zM381 94q49 0 112.5 50t125.5 136.5t114.5 221.5t75.5 286l7 44q-27 59 -74.5 94t-102.5 35q-100 0 -187 -86.5
t-138.5 -233t-51.5 -315.5q0 -119 29 -175.5t90 -56.5z" />
    <glyph glyph-name="e" unicode="e" horiz-adv-x="1011" 
d="M334 440q-32 0 -65 5q-1 -14 -1 -42q0 -157 62.5 -232t171.5 -75q90 0 157.5 27.5t137.5 89.5l45 -96q-92 -76 -184 -109t-218 -33q-180 0 -271 107t-91 311q0 194 72 348.5t200.5 241t290.5 86.5q149 0 227 -61t78 -177q0 -186 -160 -288.5t-452 -102.5zM606 967
q-118 0 -208.5 -118.5t-118.5 -302.5q28 -3 55 -3q198 0 314 76t116 206q0 69 -40.5 105.5t-117.5 36.5z" />
    <glyph glyph-name="f" unicode="f" horiz-adv-x="718" 
d="M907 1481q4 -12 4 -33q0 -47 -23.5 -73.5t-66.5 -26.5q-45 0 -104.5 37.5t-110.5 37.5q-107 0 -131 -174l-28 -205h288l-14 -104h-289l-137 -983q-30 -215 -107.5 -311.5t-218.5 -96.5q-80 0 -145 41l26 103q56 -27 107 -27q69 0 101 54t53 206l142 1014h-142l8 82
q18 6 73 14t75 8l20 140q46 334 385 334q120 0 235 -37z" />
    <glyph glyph-name="g" unicode="g" horiz-adv-x="1069" 
d="M1083 1051q9 -27 9 -47q0 -44 -28 -69.5t-77 -25.5q-73 0 -200 45q51 -21 84.5 -83t33.5 -136q0 -161 -124.5 -268t-313.5 -107q-91 0 -165 33q-62 -41 -62 -102q0 -43 34 -67t113 -36l191 -28q177 -27 251 -79.5t74 -152.5q0 -169 -148 -274t-386 -105
q-197 0 -307.5 68.5t-110.5 189.5q0 106 69.5 176.5t201.5 99.5q-128 44 -128 159q0 66 35.5 110.5t112.5 74.5q-117 85 -117 243q0 178 122.5 288.5t319.5 110.5q112 0 194 -45q136 1 322 27zM481 455q109 0 178.5 87.5t69.5 225.5q0 99 -46 153t-130 54q-112 0 -181 -84
t-69 -219q0 -97 49.5 -157t128.5 -60zM725 -121q0 56 -34 87.5t-120 53t-262 43.5q-88 -33 -136 -93t-48 -138q0 -89 70.5 -143t187.5 -54q149 0 245.5 69t96.5 175z" />
    <glyph glyph-name="h" unicode="h" horiz-adv-x="1155" 
d="M961 90q29 0 69 4l-4 -76q-102 -39 -176 -39q-82 0 -117 27.5t-35 94.5q0 35 9 83l108 617q6 33 6 58q0 91 -84 91q-50 0 -115.5 -50t-130 -136.5t-118 -221.5t-74.5 -286l-35 -256h-180l180 1284q6 39 6 62q0 24 -7.5 33.5t-26.5 9.5q-36 0 -95 -17v76q50 30 118 50
t120 20q53 0 68.5 -14t15.5 -60q0 -79 -56.5 -395t-99.5 -476h3q36 108 80.5 195.5t100.5 156.5t126 106.5t149 37.5q116 0 176.5 -50t60.5 -143q0 -28 -6 -59l-106 -606q-6 -33 -6 -55q0 -37 17.5 -51.5t58.5 -14.5z" />
    <glyph glyph-name="i" unicode="i" horiz-adv-x="589" 
d="M258 1358q0 66 39.5 106.5t103.5 40.5q44 0 73.5 -30t29.5 -76q0 -66 -40 -107t-104 -41q-44 0 -73 30.5t-29 76.5zM362 1069q53 0 68.5 -14t15.5 -60q0 -51 -14 -133l-115 -651q-5 -27 -5 -55q0 -37 17 -51.5t58 -14.5q30 0 70 4l-4 -76q-100 -38 -177 -38
q-82 0 -117 27t-35 94q0 35 9 83l115 652q7 36 7 61q0 24 -8.5 33.5t-27.5 9.5q-38 0 -94 -16v75q50 30 117.5 50t119.5 20z" />
    <glyph glyph-name="j" unicode="j" horiz-adv-x="555" 
d="M252 1358q0 66 39.5 106.5t103.5 40.5q44 0 73.5 -30t29.5 -76q0 -66 -40 -107t-104 -41q-44 0 -73 30.5t-29 76.5zM119 924v75q50 30 117.5 50t119.5 20q53 0 68.5 -14t15.5 -60q0 -39 -14 -133l-80 -569q-34 -245 -80.5 -381t-126.5 -219q-50 -52 -126 -90.5
t-160 -53.5q-27 30 -27 80q0 35 18.5 56.5t59.5 35.5q13 4 61.5 14.5t73.5 26.5q37 25 57 107t60 367l84 600q5 34 5 62q0 24 -7 33t-25 9q-38 0 -94 -16z" />
    <glyph glyph-name="k" unicode="k" horiz-adv-x="1019" 
d="M463 1444q0 -32 -15 -133l-184 -1311h-180l180 1284q6 39 6 62q0 24 -7.5 33.5t-26.5 9.5q-36 0 -95 -17v76q50 30 118 50t120 20q53 0 68.5 -14t15.5 -60zM829 913q-36 0 -92 -54t-209 -236q26 -37 107 -185l125 -233q32 -62 61 -88.5t64 -26.5q23 0 43 4l-4 -76
q-65 -39 -136 -39q-75 0 -117.5 42.5t-121.5 197.5l-105 199q-38 72 -92 157l283 330q82 96 136 130t124 34q62 0 109 -20q12 -30 12 -64q0 -46 -25.5 -74t-66.5 -28q-24 0 -50 15t-45 15z" />
    <glyph glyph-name="l" unicode="l" horiz-adv-x="559" 
d="M397 1518q53 0 68.5 -14t15.5 -60q0 -38 -14 -133l-174 -1100q-5 -35 -5 -54q0 -38 16.5 -52.5t57.5 -14.5q30 0 70 4l-4 -76q-100 -38 -176 -38q-82 0 -116.5 27t-34.5 96q0 31 8 81l174 1100q6 39 6 62q0 24 -8 33.5t-27 9.5q-34 0 -94 -17v76q50 30 117.5 50t119.5 20
z" />
    <glyph glyph-name="m" unicode="m" horiz-adv-x="1771" 
d="M1577 90q30 0 70 4l-4 -76q-100 -38 -177 -38q-82 0 -117 27t-35 94q0 35 9 83l109 617q5 28 5 59q0 90 -73 90q-48 0 -113.5 -50t-131 -136.5t-121 -221.5t-78.5 -286l-39 -256h-181l140 801q6 33 6 59q0 90 -74 90q-48 0 -113.5 -50t-131 -136.5t-121 -221.5
t-78.5 -286l-39 -256h-180l131 836q6 39 6 61q0 24 -8 33.5t-27 9.5q-38 0 -94 -16v75q50 30 117.5 50t119.5 20q39 0 55.5 -16.5t16.5 -57.5q0 -52 -26 -176.5t-62 -245.5h3q36 108 82 195.5t103 156t127 106.5t148 38q104 0 153.5 -43t49.5 -113q0 -85 -74 -340h3
q36 108 82 195.5t103 156t127 106.5t148 38q109 0 167.5 -50t58.5 -143q0 -33 -5 -59l-107 -606q-6 -33 -6 -55q0 -37 17.5 -51.5t58.5 -14.5z" />
    <glyph glyph-name="n" unicode="n" horiz-adv-x="1183" 
d="M989 90q30 0 70 4l-4 -76q-100 -38 -176 -38q-82 0 -117 27t-35 94q0 40 8 83l109 617q6 33 6 59q0 90 -74 90q-50 0 -116 -50t-132 -136.5t-121.5 -221.5t-78.5 -286l-39 -256h-180l131 836q6 39 6 61q0 24 -8 33.5t-27 9.5q-38 0 -94 -16v75q50 30 117.5 50t119.5 20
q39 0 55.5 -16.5t16.5 -57.5q0 -52 -26 -176.5t-62 -245.5h3q77 225 194 360.5t270 135.5q109 0 168 -50t59 -143q0 -28 -6 -59l-106 -606q-6 -33 -6 -55q0 -37 17 -51.5t58 -14.5z" />
    <glyph glyph-name="o" unicode="o" horiz-adv-x="1126" 
d="M78 395q0 192 71.5 346t199.5 241t288 87q189 0 288 -105.5t99 -306.5q0 -196 -71.5 -352t-199.5 -243t-290 -87q-183 0 -284 110t-101 310zM621 967q-157 0 -255 -162.5t-98 -421.5q0 -142 56.5 -223.5t154.5 -81.5q101 0 182.5 76t127 211.5t45.5 304.5
q0 144 -55 220.5t-158 76.5z" />
    <glyph glyph-name="p" unicode="p" horiz-adv-x="1171" 
d="M795 1069q143 0 211.5 -87.5t68.5 -270.5q0 -194 -73 -364t-197 -271t-266 -101q-153 0 -233 115q-17 -170 -42 -358l-22 -162h-181l179 1266q5 32 5 61q0 24 -7.5 33.5t-26.5 9.5q-38 0 -94 -16v75q50 30 117.5 50t119.5 20q39 0 55.5 -16.5t16.5 -57.5q0 -108 -82 -422
h3q35 109 78 195.5t98 156t124 107t148 37.5zM508 84q100 0 187 86.5t138.5 233t51.5 315.5q0 119 -29 175t-90 56q-49 0 -112.5 -50t-125.5 -136.5t-114.5 -221.5t-75.5 -286l-7 -44q27 -59 74.5 -93.5t102.5 -34.5z" />
    <glyph glyph-name="q" unicode="q" horiz-adv-x="1130" 
d="M950 1069q31 0 74 -25l-207 -1474h-180l16 119q62 443 150 782h-3q-35 -109 -78 -195.5t-98 -156t-124 -107t-148 -37.5q-143 0 -211.5 88t-68.5 271q0 145 43.5 281t116 235t171.5 159t205 60q159 0 240 -111l8 21q19 50 39.5 70t54.5 20zM381 94q49 0 112.5 50
t126 136.5t115 221.5t74.5 286l7 44q-27 59 -74.5 94t-102.5 35q-100 0 -187 -86.5t-138.5 -233t-51.5 -315.5q0 -119 29 -175.5t90 -56.5z" />
    <glyph glyph-name="r" unicode="r" horiz-adv-x="827" 
d="M842 1026q6 -18 6 -47q0 -54 -25 -83.5t-69 -29.5q-39 0 -69 21.5t-52 21.5q-47 0 -108 -97.5t-113 -250.5t-74 -305l-37 -256h-178l117 836q5 32 5 61q0 24 -7.5 33.5t-26.5 9.5q-38 0 -94 -16v75q50 30 117.5 50t119.5 20q39 0 55.5 -16.5t16.5 -57.5
q0 -54 -24.5 -179.5t-59.5 -242.5h3q30 102 65 186.5t78 156.5t95 112.5t107 40.5q87 0 152 -43z" />
    <glyph glyph-name="s" unicode="s" horiz-adv-x="894" 
d="M778 766l-96 -6q-15 225 -197 225q-72 0 -119 -49.5t-47 -124.5q0 -48 24 -87.5t63 -66.5t85.5 -52.5t93.5 -54t86 -61.5t63 -83t24 -113q0 -149 -104.5 -233.5t-288.5 -84.5q-221 0 -338 97q6 110 34 225l101 6q15 -244 223 -244q85 0 140 53.5t55 135.5q0 48 -24 88
t-62.5 68.5t-84.5 55.5t-92.5 55.5t-85 62t-62.5 82t-24 108.5q0 138 97.5 219.5t261.5 81.5q82 0 177 -26.5t140 -26.5z" />
    <glyph glyph-name="t" unicode="t" horiz-adv-x="729" 
d="M429 940l-103 -690q-4 -28 -4 -39q0 -109 114 -109q82 0 168 64l33 -90q-134 -101 -295 -101q-107 0 -157.5 42.5t-50.5 133.5q0 36 5 66l109 723h-137l8 82q18 6 72 14t73 8q40 103 87 187q23 40 37 51.5t40 11.5q23 0 53 -6l-36 -244h317l-14 -104h-319z" />
    <glyph glyph-name="u" unicode="u" horiz-adv-x="1179" 
d="M983 90q30 0 70 4l-4 -76q-100 -38 -177 -38q-73 0 -107 26.5t-34 85.5q0 102 88 379h-3q-35 -109 -78.5 -195.5t-100 -156t-129.5 -107t-156 -37.5q-110 0 -167 51.5t-57 150.5q0 37 7 73l103 586q7 36 7 61q0 24 -8.5 33.5t-27.5 9.5q-38 0 -94 -16v75q50 30 117.5 50
t119.5 20q53 0 68.5 -14t15.5 -60q0 -51 -14 -133l-105 -596q-7 -41 -7 -75q0 -97 71 -97q56 0 123 50t130.5 137t115.5 221t75 286l39 256h180l-131 -833q-5 -35 -5 -54q0 -38 17 -52.5t58 -14.5z" />
    <glyph glyph-name="v" unicode="v" horiz-adv-x="1056" 
d="M911 1069q109 0 109 -123q0 -129 -133.5 -373.5t-388.5 -582.5q-53 3 -105 20l-123 676q-21 116 -35 166t-31 69t-48 19q-40 0 -93 -16l-8 75q46 29 109.5 49.5t107.5 20.5q49 0 73.5 -20t43 -76t41.5 -185l50 -274q37 -197 45 -303q144 214 229.5 391t85.5 262
q0 36 -15 56t-43 20q-27 0 -80 -16l-8 75q46 29 109.5 49.5t107.5 20.5z" />
    <glyph glyph-name="w" unicode="w" horiz-adv-x="1654" 
d="M1493 1069q109 0 109 -123q0 -142 -131 -401t-353 -555q-49 3 -102 20l-100 551q-24 129 -32 191q-68 -202 -167 -401.5t-211 -360.5q-63 4 -113 20l-123 676q-21 116 -35 166t-31 69t-48 19q-40 0 -93 -16l-8 75q46 29 109.5 49.5t107.5 20.5q49 0 74 -19.5t44 -77
t40 -184.5l46 -274q31 -186 40 -296q99 191 187 414t137 406q78 17 145 17q30 -84 65 -285l45 -260q39 -227 44 -293q130 196 206 370.5t76 276.5q0 36 -15 56t-42 20t-80 -16l-8 75q46 29 109.5 49.5t107.5 20.5z" />
    <glyph glyph-name="x" unicode="x" horiz-adv-x="1015" 
d="M1010 1053q12 -27 12 -62q0 -44 -22.5 -71t-59.5 -27q-14 0 -39 6t-45 6q-75 0 -149 -110t-102 -256l100 -285q35 -98 61 -131t70 -33q25 0 53 4l-4 -80q-61 -34 -142 -34q-77 0 -118 39.5t-76 148.5l-85 265q-22 -193 -121 -325.5t-224 -132.5q-72 0 -133 17
q-13 29 -13 61q0 44 22.5 71.5t59.5 27.5q13 0 39 -6.5t45 -6.5q75 0 149 110.5t102 256.5l-99 285q-30 88 -52 118.5t-55 30.5q-27 0 -80 -16l-8 75q98 70 180 70q68 0 100 -36t70 -156l86 -266q22 193 121 325.5t224 132.5q76 0 133 -16z" />
    <glyph glyph-name="y" unicode="y" horiz-adv-x="1081" 
d="M909 1069q109 0 109 -123q0 -169 -98 -416t-284 -544q-149 -238 -277.5 -337.5t-288.5 -99.5q-34 0 -66 7q-14 28 -14 65q0 47 27.5 73.5t76.5 26.5q21 0 51 -7t48 -7q94 0 154.5 94.5t60.5 241.5q0 91 -23.5 217.5t-88.5 390.5q-45 181 -71.5 235t-70.5 54
q-40 0 -93 -16l-8 75q46 29 109.5 49.5t107.5 20.5q29 0 48.5 -8t37 -26t33.5 -60.5t32.5 -99t41.5 -154.5q94 -374 94 -600q0 -34 -2 -51q125 206 204 420.5t79 349.5q0 54 -13.5 77t-44.5 23q-27 0 -80 -16l-8 75q46 29 109.5 49.5t107.5 20.5z" />
    <glyph glyph-name="z" unicode="z" horiz-adv-x="993" 
d="M204 88h361q70 0 109 48t69 163l111 -8q-7 -138 -49 -291q-100 -2 -309 -2q-56 0 -141 3t-136 3q-109 0 -153 -20q-49 39 -64 102q183 192 387 444l344 426h-315q-72 0 -109.5 -44t-68.5 -164l-111 8q7 134 49 288h746q23 -29 26 -79l-465 -574q-146 -180 -281 -303z" />
    <glyph glyph-name="braceleft" unicode="{" horiz-adv-x="645" 
d="M707 1544l-15 -102h-35q-75 0 -109 -37.5t-48 -132.5l-45 -322q-21 -148 -84 -245.5t-158 -129.5q66 -31 103 -108.5t37 -186.5q0 -50 -7 -96l-45 -321q-5 -37 -5 -59q0 -60 27.5 -85.5t90.5 -25.5h32l-14 -103h-123q-92 0 -135.5 47.5t-43.5 147.5q0 44 7 92l49 348
q7 45 7 90q0 197 -154 197l16 111q92 0 150 72.5t78 213.5l49 348q21 149 82.5 218t171.5 69h121z" />
    <glyph glyph-name="bar" unicode="|" horiz-adv-x="438" 
d="M139 -430h-135l281 1989h135z" />
    <glyph glyph-name="braceright" unicode="}" horiz-adv-x="645" 
d="M438 820q0 -197 154 -197l-17 -111q-186 0 -227 -287l-49 -348q-21 -149 -82.5 -218t-171.5 -69h-121l15 103h34q75 0 110 37.5t48 132.5l45 321q21 148 84 245.5t158 129.5q-66 31 -103 109t-37 187q0 49 7 95l45 322q4 29 4 59q0 60 -27 85.5t-90 25.5h-33l15 102h123
q92 0 135.5 -47t43.5 -147q0 -45 -7 -93l-50 -348q-6 -38 -6 -89z" />
    <glyph glyph-name="asciitilde" unicode="~" horiz-adv-x="1200" 
d="M819 578q68 0 115.5 23t99.5 81l29 -90q-115 -133 -277 -133q-72 0 -133 13.5t-97 29.5t-86 29.5t-101 13.5q-67 0 -114.5 -23t-100.5 -82l-29 90q116 134 276 134q72 0 133 -13.5t97.5 -29.5t86.5 -29.5t101 -13.5z" />
    <glyph glyph-name="uni00A0" unicode="&#xa0;" horiz-adv-x="499" 
 />
    <glyph glyph-name="exclamdown" unicode="&#xa1;" horiz-adv-x="483" 
d="M160 920q0 66 41.5 107.5t107.5 41.5q50 0 79.5 -31.5t29.5 -85.5q0 -66 -42 -107.5t-108 -41.5q-50 0 -79 31.5t-29 85.5zM301 608l-94 -1036l-223 -12l200 1048h117z" />
    <glyph glyph-name="cent" unicode="&#xa2;" horiz-adv-x="964" 
d="M920 985q6 -15 6 -39q0 -47 -29 -75.5t-78 -28.5q-32 0 -55 14.5t-35 33t-31.5 39t-42.5 29.5l-120 -858q113 14 225 113l45 -96q-138 -114 -285 -135l-28 -207h-97l28 200h-3q-166 0 -254 107.5t-88 310.5q0 181 63 328t176.5 237t258.5 107l28 205h96l-28 -202
q148 -7 248 -83zM268 403q0 -134 45 -212t130 -92l120 863q-83 -17 -150.5 -95t-106 -200t-38.5 -264z" />
    <glyph glyph-name="sterling" unicode="&#xa3;" horiz-adv-x="1206" 
d="M774 1368q-110 0 -173 -89.5t-91 -285.5l-27 -190h394l-15 -107h-394q-40 -251 -91 -390t-128 -207q103 10 214 10h246q109 0 157.5 62t89.5 235l121 -9q-26 -245 -71 -397h-1020l14 88q79 9 132 70t90.5 189t68.5 349h-174l14 107h175l30 215q30 214 144.5 331
t293.5 117q115 0 222.5 -25.5t152.5 -25.5l-53 -323l-107 -5q-9 148 -58.5 214.5t-156.5 66.5z" />
    <glyph glyph-name="currency" unicode="&#xa4;" horiz-adv-x="1134" 
d="M995 631q0 -123 -42.5 -225t-119.5 -171l117 -174l-112 -71l-107 176q-105 -51 -231 -51q-128 0 -220 53l-159 -178l-90 82l163 170q-69 89 -69 227q0 121 42 221t119 169l-118 175l113 72l107 -178q106 53 233 53q128 0 218 -48l154 173l90 -82l-157 -164
q69 -87 69 -229zM307 465q0 -114 56 -180t151 -66q127 0 213 120.5t86 299.5q0 114 -53.5 176t-151.5 62q-132 0 -216.5 -116t-84.5 -296z" />
    <glyph glyph-name="yen" unicode="&#xa5;" horiz-adv-x="1394" 
d="M1446 1434l-12 -78l-41 -4q-52 -5 -79.5 -19.5t-59 -52t-101.5 -139.5l-238 -348h273l-12 -93h-324l-68 -98l-7 -53h376l-12 -92h-378l-34 -240q-4 -34 -4 -44q0 -37 21 -53.5t81 -25.5l93 -14l-13 -80h-588l13 80l112 18q48 8 70.5 34.5t30.5 84.5l34 240h-376l12 92
h377l8 53l-44 98h-318l12 93h265l-157 348q-36 80 -51.5 113t-35.5 58.5t-34 30t-44 9.5l-27 4l4 78h518l-12 -78l-60 -6q-54 -5 -79 -23t-25 -52q0 -31 25 -89l201 -448l299 448q49 74 49 108q0 47 -93 56l-65 6l12 78h506z" />
    <glyph glyph-name="brokenbar" unicode="&#xa6;" horiz-adv-x="468" 
d="M338 862h-135l98 697h135zM156 -430h-136l99 696h135z" />
    <glyph glyph-name="section" unicode="&#xa7;" horiz-adv-x="980" 
d="M588 1374q-72 0 -119 -49.5t-47 -124.5q0 -55 25 -103t65 -85t89 -73t97.5 -74.5t88.5 -80.5t65 -100t25 -125q0 -125 -77.5 -209.5t-219.5 -115.5q69 -60 108 -126t39 -153q0 -149 -104.5 -233.5t-288.5 -84.5q-221 0 -338 97q6 105 35 225l100 6q15 -244 223 -244
q85 0 140 53.5t55 135.5q0 55 -24.5 104t-64 87t-87.5 75.5t-95.5 76.5t-87 81.5t-64 98.5t-24.5 120q0 124 83 207.5t227 108.5q-78 66 -121 133t-43 155q0 138 97 219.5t261 81.5q82 0 177.5 -26.5t140.5 -26.5l-43 -250l-97 -6q-8 114 -56 169.5t-140 55.5zM702 514
q0 45 -15 84.5t-48 76.5t-61.5 62t-76.5 62q-101 -1 -165 -58t-64 -145q0 -46 15.5 -85t51 -76.5t62 -59.5t79.5 -62q5 -4 8.5 -6.5t7.5 -5.5q93 14 149.5 71.5t56.5 141.5z" />
    <glyph glyph-name="dieresis" unicode="&#xa8;" 
d="M221 1358q0 56 35.5 91.5t91.5 35.5q40 0 65 -28t25 -71q0 -55 -35.5 -90.5t-91.5 -35.5q-40 0 -65 27.5t-25 70.5zM586 1358q0 56 36 91.5t91 35.5q40 0 65 -28t25 -71q0 -55 -35.5 -90.5t-91.5 -35.5q-40 0 -65 27.5t-25 70.5z" />
    <glyph glyph-name="copyright" unicode="&#xa9;" horiz-adv-x="1755" 
d="M123 717q0 218 103.5 395.5t279.5 276t387 98.5q220 0 396 -99t275 -275t99 -396q0 -218 -103.5 -395.5t-279.5 -276t-387 -98.5t-387 98.5t-279.5 276t-103.5 395.5zM250 717q0 -139 50.5 -261.5t136.5 -209t204.5 -136t251.5 -49.5t251.5 49.5t204.5 136t136.5 209
t50.5 261.5q0 186 -86 336.5t-233 234.5t-324 84t-324 -84t-233 -234.5t-86 -336.5zM926 1077q63 0 133 -13t102 -13q2 -42 2 -93q0 -54 -2 -86l-86 -6q-7 69 -42 101t-103 32q-92 0 -142.5 -71.5t-50.5 -210.5q0 -136 49 -209.5t144 -73.5q72 0 109.5 35t45.5 109l84 -7
v-165q-106 -50 -243 -50q-176 0 -267.5 95t-91.5 266q0 167 101 263.5t258 96.5z" />
    <glyph glyph-name="ordfeminine" unicode="&#xaa;" horiz-adv-x="843" 
d="M754 817q17 0 45 4l-4 -59q-79 -31 -136 -31q-98 0 -98 80q0 60 62 246h-3q-103 -328 -301 -328q-96 0 -139 58t-43 182q0 128 46.5 239t126 176.5t171.5 65.5q108 0 164 -74l4 10q17 38 31.5 51t42.5 13q36 0 72 -20l-86 -539q-4 -26 -4 -33q0 -23 11 -32t38 -9z
M354 827q64 0 146.5 122.5t109.5 299.5l8 48q-17 30 -43.5 47.5t-54.5 17.5q-58 0 -109.5 -55.5t-81.5 -147.5t-30 -196q0 -72 12.5 -104t42.5 -32zM107 590h628l-12 -90h-629z" />
    <glyph glyph-name="guillemotleft" unicode="&#xab;" horiz-adv-x="1032" 
d="M569 870l-311 -345q127 -242 199 -361l-76 -60q-96 46 -315 418q320 365 432 418zM975 870l-312 -345q127 -242 199 -361l-76 -60q-96 46 -315 418q320 365 432 418z" />
    <glyph glyph-name="logicalnot" unicode="&#xac;" horiz-adv-x="1042" 
d="M834 182h-132l48 342h-625l16 113h756z" />
    <glyph glyph-name="registered" unicode="&#xae;" horiz-adv-x="1755" 
d="M893 1487q220 0 396 -99t275 -275t99 -396q0 -218 -103.5 -395.5t-279.5 -276t-387 -98.5t-387 98.5t-279.5 276t-103.5 395.5t103.5 395.5t279.5 276t387 98.5zM893 61q133 0 251.5 49.5t204.5 136t136.5 209t50.5 261.5q0 186 -86 336.5t-233 234.5t-324 84t-324 -84
t-233 -234.5t-86 -336.5q0 -139 50.5 -261.5t136.5 -209t204.5 -136t251.5 -49.5zM1172 475q25 -38 55 -43l12 -2l-2 -53q-42 -10 -92 -10q-62 0 -88 20t-63 96l-57 117q-20 41 -40.5 55.5t-58.5 14.5q-4 0 -31 -3v-184q0 -27 8 -36t37 -13l29 -4l-2 -57h-299l2 57l32 6
q24 5 31.5 14t7.5 33v467q0 26 -8.5 34.5t-40.5 14.5l-22 5l-2 57h67q47 0 123 2t117 2q141 0 208.5 -44t67.5 -136q0 -65 -42.5 -109.5t-118.5 -61.5q50 -15 84 -75q12 -21 42.5 -82.5t43.5 -81.5zM872 743q62 0 96.5 32.5t34.5 92.5q0 125 -122 125q-30 0 -74 -4v-242
q44 -4 65 -4z" />
    <glyph glyph-name="macron" unicode="&#xaf;" 
d="M762 1307h-516l16 114h516z" />
    <glyph glyph-name="degree" unicode="&#xb0;" horiz-adv-x="712" 
d="M182 1239q0 132 89 219.5t221 87.5q107 0 165 -58t58 -167q0 -132 -88.5 -219.5t-220.5 -87.5q-103 0 -163.5 60.5t-60.5 164.5zM475 1446q-72 0 -121 -54.5t-49 -136.5q0 -67 30.5 -104t86.5 -37q69 0 119.5 56.5t50.5 134.5q0 69 -30 105t-87 36z" />
    <glyph glyph-name="plusminus" unicode="&#xb1;" horiz-adv-x="1114" 
d="M1010 717l-17 -115h-368l-50 -350h-129l50 350h-369l16 115h369l49 350h129l-49 -350h369zM66 160h866l-17 -115h-866z" />
    <glyph glyph-name="twosuperior" unicode="&#xb2;" horiz-adv-x="671" 
d="M266 850q77 8 176 8h193l-14 -113h-535l12 89q239 187 334.5 307t95.5 235q0 66 -32.5 100.5t-94.5 34.5q-89 0 -184 -86l-22 105q106 86 268 86q229 0 229 -209q0 -145 -101.5 -278t-324.5 -279z" />
    <glyph glyph-name="threesuperior" unicode="&#xb3;" horiz-adv-x="700" 
d="M516 1198q80 -16 122 -62.5t42 -119.5q0 -132 -94.5 -208.5t-257.5 -76.5q-140 0 -236 57q-2 12 -2 25q0 38 19 59t53 21q26 0 45.5 -13t32 -28t39 -28t63.5 -13q79 0 126.5 54t47.5 143q0 139 -213 139q-21 0 -53 -4l6 88q151 0 222 43t71 135q0 113 -129 113
q-90 0 -182 -74l-23 92q102 76 256 76q116 0 179 -46.5t63 -133.5q0 -92 -52 -154.5t-145 -83.5z" />
    <glyph glyph-name="acute" unicode="&#xb4;" 
d="M285 1280l368 268q61 -61 86 -135l-401 -215q-34 34 -53 82z" />
    <glyph glyph-name="uni00B5" unicode="&#xb5;" horiz-adv-x="1232" 
d="M1012 90q29 0 69 4l-4 -76q-100 -38 -176 -38q-73 0 -107 26.5t-34 85.5q0 102 88 379h-3q-35 -109 -78.5 -195.5t-99.5 -156t-128 -107t-154 -37.5q-45 0 -80 30q-17 -158 -33 -273l-18 -138l-186 -40l180 1282q6 39 6 61q0 24 -8 33.5t-27 9.5q-38 0 -94 -16v75
q50 30 117.5 50t119.5 20q53 0 68.5 -14t15.5 -60q0 -39 -14 -133l-76 -536q-12 -82 -12 -131q0 -55 16.5 -78t53.5 -23q54 0 120.5 50t129.5 137t115 221t75 286l39 256h180l-131 -833q-5 -35 -5 -54q0 -38 17 -52.5t58 -14.5z" />
    <glyph glyph-name="paragraph" unicode="&#xb6;" horiz-adv-x="1155" 
d="M741 1434l-252 -1792h-124l130 927q-176 0 -279 103t-103 278q0 214 140 349t363 135h125zM1200 1434l-12 -78l-94 -13q-48 -7 -69 -29t-28 -69l-225 -1603h-125l252 1792h301z" />
    <glyph glyph-name="periodcentered" unicode="&#xb7;" horiz-adv-x="493" 
d="M115 569q0 66 41.5 108t107.5 42q50 0 79.5 -31.5t29.5 -85.5q0 -66 -42 -107.5t-108 -41.5q-50 0 -79 31t-29 85z" />
    <glyph glyph-name="cedilla" unicode="&#xb8;" 
d="M623 20l-84 -133q75 0 118 -37t43 -102q0 -97 -61.5 -150t-171.5 -53q-86 0 -143 54q13 40 38 69q49 -43 111 -43q44 0 68 24t24 68q0 86 -116 86l-19 39l100 178h93z" />
    <glyph glyph-name="onesuperior" unicode="&#xb9;" horiz-adv-x="555" 
d="M545 811l-10 -66h-439l8 66l76 10q41 5 60.5 18.5t23.5 41.5l84 585q-64 -24 -133 -36l-33 -7l-2 66l248 117h94l-104 -725q-2 -14 -2 -18q0 -21 14.5 -29.5t58.5 -14.5z" />
    <glyph glyph-name="ordmasculine" unicode="&#xba;" horiz-adv-x="800" 
d="M137 1008q0 195 107.5 318.5t279.5 123.5q136 0 206.5 -69t70.5 -203q0 -199 -109 -324t-282 -125q-131 0 -202 73t-71 206zM512 1368q-92 0 -152.5 -106.5t-60.5 -270.5q0 -86 33 -133t92 -47q91 0 153 110.5t62 272.5q0 85 -32.5 129.5t-94.5 44.5zM682 500h-594l12 90
h594z" />
    <glyph glyph-name="guillemotright" unicode="&#xbb;" horiz-adv-x="1032" 
d="M145 881l76 59q46 -22 128.5 -130.5t187.5 -287.5q-319 -364 -433 -418l-71 70l311 346q-127 242 -199 361zM551 881l76 59q96 -46 315 -418q-320 -365 -432 -418l-72 70l312 346q-127 242 -199 361z" />
    <glyph glyph-name="onequarter" unicode="&#xbc;" horiz-adv-x="1640" 
d="M1495 1536l-1294 -1638h-146l1295 1638h145zM512 582h-438l8 65l76 10q41 5 60.5 18.5t23.5 41.5l83 585q-64 -24 -133 -36l-32 -6l-2 65l247 117h95l-105 -725q-1 -7 -1 -18q0 -21 14.5 -29.5t58.5 -14.5l55 -8zM1526 219h-104l-31 -219h-144l30 219h-390l10 68l473 567
h141l-75 -535h104zM1298 319l50 361l-307 -361h257z" />
    <glyph glyph-name="onehalf" unicode="&#xbd;" horiz-adv-x="1636" 
d="M1495 1536l-1294 -1638h-146l1295 1638h145zM512 582h-438l8 65l76 10q41 5 60.5 18.5t23.5 41.5l83 585q-64 -24 -133 -36l-32 -6l-2 65l247 117h95l-105 -725q-1 -7 -1 -18q0 -21 14.5 -29.5t58.5 -14.5l55 -8zM1126 105q77 8 177 8h192l-14 -113h-535l12 88
q239 187 335 307.5t96 235.5q0 66 -32.5 100.5t-94.5 34.5q-90 0 -185 -86l-22 104q106 86 268 86q229 0 229 -208q0 -145 -101.5 -278t-324.5 -279z" />
    <glyph glyph-name="threequarters" unicode="&#xbe;" horiz-adv-x="1785" 
d="M1640 1536l-1294 -1638h-145l1294 1638h145zM657 852q0 -132 -94.5 -208.5t-257.5 -76.5q-137 0 -235 58q-2 12 -2 24q0 38 18.5 59t52.5 21q26 0 45.5 -13t32 -28t39 -28t63.5 -13q79 0 127 54t48 143q0 139 -213 139q-22 0 -54 -4l6 88q151 0 222 43t71 135
q0 113 -129 113q-90 0 -182 -74l-22 92q102 76 256 76q116 0 178.5 -46.5t62.5 -133.5q0 -92 -51.5 -154t-144.5 -84q80 -16 121.5 -62.5t41.5 -119.5zM1671 219h-104l-31 -219h-143l30 219h-391l10 68l474 567h141l-76 -535h105zM1443 319l51 361l-308 -361h257z" />
    <glyph glyph-name="questiondown" unicode="&#xbf;" horiz-adv-x="944" 
d="M430 920q0 66 42 107.5t108 41.5q50 0 79 -31.5t29 -85.5q0 -66 -41.5 -107.5t-107.5 -41.5q-50 0 -79.5 31.5t-29.5 85.5zM313 -457q-162 0 -258 81t-96 218q0 86 28.5 154t74 111.5t100.5 79.5t110 69t100.5 68.5t74 88t28.5 119.5q0 38 -4 66l133 18q12 -40 12 -106
q0 -73 -26 -132t-67.5 -99.5t-92 -76.5t-100.5 -71t-91.5 -73t-67.5 -92t-26 -120q0 -94 53.5 -147t145.5 -53q94 0 148 49t79 155q17 70 46 100t81 30q32 0 58.5 -16t36.5 -42q-31 -173 -161.5 -276t-318.5 -103z" />
    <glyph glyph-name="Agrave" unicode="&#xc0;" horiz-adv-x="1363" 
d="M633 1886l368 -268q-19 -48 -53 -82l-401 215q25 74 86 135zM1264 78l-4 -78h-517l13 78l59 8q60 8 84.5 31t24.5 74q0 34 -13 102l-27 143h-494l-66 -143q-50 -108 -50 -143q0 -30 26 -43.5t89 -22.5l45 -6l-12 -78h-506l12 78l60 8q61 8 95.5 45.5t94.5 161.5l557 1149
h129l232 -1149q25 -125 46.5 -160t80.5 -47zM863 541l-124 643l-300 -643h424z" />
    <glyph glyph-name="Aacute" unicode="&#xc1;" horiz-adv-x="1363" 
d="M1087 1751l-401 -215q-34 34 -53 82l368 268q61 -61 86 -135zM1264 78l-4 -78h-517l13 78l59 8q60 8 84.5 31t24.5 74q0 34 -13 102l-27 143h-494l-66 -143q-50 -108 -50 -143q0 -30 26 -43.5t89 -22.5l45 -6l-12 -78h-506l12 78l60 8q61 8 95.5 45.5t94.5 161.5
l557 1149h129l232 -1149q25 -125 46.5 -160t80.5 -47zM863 541l-124 643l-300 -643h424z" />
    <glyph glyph-name="Acircumflex" unicode="&#xc2;" horiz-adv-x="1363" 
d="M829 1708l-249 -154q-37 34 -54 82l326 248l256 -252q-25 -45 -66 -78zM1264 78l-4 -78h-517l13 78l59 8q60 8 84.5 31t24.5 74q0 34 -13 102l-27 143h-494l-66 -143q-50 -108 -50 -143q0 -30 26 -43.5t89 -22.5l45 -6l-12 -78h-506l12 78l60 8q61 8 95.5 45.5
t94.5 161.5l557 1149h129l232 -1149q25 -125 46.5 -160t80.5 -47zM863 541l-124 643l-300 -643h424z" />
    <glyph glyph-name="Atilde" unicode="&#xc3;" horiz-adv-x="1363" 
d="M692 1673q-80 0 -137 -69l-23 75q26 50 82 83.5t111 33.5q61 0 130 -30.5t108 -30.5q80 0 137 69l22 -75q-26 -50 -81.5 -83.5t-110.5 -33.5q-61 0 -130 30.5t-108 30.5zM1264 78l-4 -78h-517l13 78l59 8q60 8 84.5 31t24.5 74q0 34 -13 102l-27 143h-494l-66 -143
q-50 -108 -50 -143q0 -30 26 -43.5t89 -22.5l45 -6l-12 -78h-506l12 78l60 8q61 8 95.5 45.5t94.5 161.5l557 1149h129l232 -1149q25 -125 46.5 -160t80.5 -47zM863 541l-124 643l-300 -643h424z" />
    <glyph glyph-name="Adieresis" unicode="&#xc4;" horiz-adv-x="1363" 
d="M627 1597q-40 0 -65 28t-25 71q0 56 35.5 91.5t91.5 35.5q40 0 65 -28t25 -71q0 -56 -36 -91.5t-91 -35.5zM991 1597q-40 0 -65 28t-25 71q0 56 35.5 91.5t91.5 35.5q40 0 65 -28t25 -71q0 -56 -36 -91.5t-91 -35.5zM1264 78l-4 -78h-517l13 78l59 8q60 8 84.5 31
t24.5 74q0 34 -13 102l-27 143h-494l-66 -143q-50 -108 -50 -143q0 -30 26 -43.5t89 -22.5l45 -6l-12 -78h-506l12 78l60 8q61 8 95.5 45.5t94.5 161.5l557 1149h129l232 -1149q25 -125 46.5 -160t80.5 -47zM863 541l-124 643l-300 -643h424z" />
    <glyph glyph-name="Aring" unicode="&#xc5;" horiz-adv-x="1363" 
d="M803 1540q-75 0 -120.5 46t-45.5 122q0 95 62.5 156t160.5 61q75 0 120.5 -46t45.5 -122q0 -95 -62.5 -156t-160.5 -61zM848 1841q-50 0 -80.5 -33.5t-30.5 -87.5q0 -96 78 -96q50 0 80.5 33.5t30.5 87.5q0 96 -78 96zM1264 78l-4 -78h-517l13 78l59 8q60 8 84.5 31
t24.5 74q0 34 -13 102l-27 143h-494l-66 -143q-50 -108 -50 -143q0 -30 26 -43.5t89 -22.5l45 -6l-12 -78h-506l12 78l60 8q61 8 95.5 45.5t94.5 161.5l557 1149h129l232 -1149q25 -125 46.5 -160t80.5 -47zM863 541l-124 643l-300 -643h424z" />
    <glyph glyph-name="AE" unicode="&#xc6;" horiz-adv-x="1884" 
d="M1815 1081l-123 -8q2 70 -1 112.5t-12 74t-29.5 46t-49.5 21t-76 6.5h-330l-77 -551h263q54 0 77 22.5t46 96.5l15 45l106 4l-63 -450l-105 4v90q0 44 -21.5 65t-68.5 21h-264l-68 -485q-2 -20 -2 -29q0 -40 30 -53t116 -13h215q59 0 93.5 9t63 39t46 77.5t38.5 134.5
l121 -8q-17 -191 -65 -352h-1031l13 78l80 14q49 9 69 29.5t27 66.5l40 279h-420l-126 -201q-61 -98 -61 -131q0 -22 20 -33.5t66 -17.5l45 -6l-13 -78h-489l12 78l60 8q59 8 93.5 36t86.5 109l641 996q37 56 37 80q0 17 -16.5 25.5t-55.5 13.5l-70 10l4 78h1147
q0 -164 -34 -353zM902 571l108 757l-476 -757h368z" />
    <glyph glyph-name="Ccedilla" unicode="&#xc7;" horiz-adv-x="1292" 
d="M862 1358q-161 0 -286.5 -98t-195 -275.5t-69.5 -404.5q0 -238 98 -371t275 -133q164 0 252 73.5t129 245.5l106 -8l-45 -313q-205 -97 -413 -106l-51 -81q75 0 118 -37t43 -102q0 -97 -61.5 -150t-171.5 -53q-87 0 -144 54q12 39 39 69q49 -43 111 -43q44 0 68 24t24 68
q0 41 -30 63.5t-87 22.5l-18 39l71 126q-248 13 -380.5 168t-132.5 435q0 259 98 463t273 318t397 114q104 0 230.5 -23.5t195.5 -23.5q-11 -153 -50 -344l-110 -8q0 158 -64.5 224.5t-218.5 66.5z" />
    <glyph glyph-name="Egrave" unicode="&#xc8;" horiz-adv-x="1234" 
d="M606 1886l369 -268q-19 -48 -53 -82l-402 215q25 74 86 135zM1165 1081l-123 -8q2 70 -1 112.5t-12 74t-29.5 46t-49.5 21t-76 6.5h-329l-78 -551h264q54 0 77 22.5t46 96.5l14 45l107 4l-64 -450l-104 4v90q0 44 -21.5 65t-68.5 21h-264l-68 -485q-2 -20 -2 -28
q0 -40 30 -53.5t115 -13.5h215q59 0 94 9t63 39t46 77.5t39 134.5l121 -8q-17 -187 -66 -352h-1030l13 78l79 14q49 9 69.5 29.5t27.5 66.5l149 1057q3 18 3 31q0 32 -21 46t-84 26l-43 8l4 78h993q0 -159 -35 -353z" />
    <glyph glyph-name="Eacute" unicode="&#xc9;" horiz-adv-x="1234" 
d="M1038 1751l-401 -215q-34 34 -53 82l368 268q61 -61 86 -135zM1165 1081l-123 -8q2 70 -1 112.5t-12 74t-29.5 46t-49.5 21t-76 6.5h-329l-78 -551h264q54 0 77 22.5t46 96.5l14 45l107 4l-64 -450l-104 4v90q0 44 -21.5 65t-68.5 21h-264l-68 -485q-2 -20 -2 -28
q0 -40 30 -53.5t115 -13.5h215q59 0 94 9t63 39t46 77.5t39 134.5l121 -8q-17 -187 -66 -352h-1030l13 78l79 14q49 9 69.5 29.5t27.5 66.5l149 1057q3 18 3 31q0 32 -21 46t-84 26l-43 8l4 78h993q0 -159 -35 -353z" />
    <glyph glyph-name="Ecircumflex" unicode="&#xca;" horiz-adv-x="1234" 
d="M788 1708l-249 -154q-37 34 -54 82l326 248l256 -252q-25 -45 -66 -78zM1165 1081l-123 -8q2 70 -1 112.5t-12 74t-29.5 46t-49.5 21t-76 6.5h-329l-78 -551h264q54 0 77 22.5t46 96.5l14 45l107 4l-64 -450l-104 4v90q0 44 -21.5 65t-68.5 21h-264l-68 -485
q-2 -20 -2 -28q0 -40 30 -53.5t115 -13.5h215q59 0 94 9t63 39t46 77.5t39 134.5l121 -8q-17 -187 -66 -352h-1030l13 78l79 14q49 9 69.5 29.5t27.5 66.5l149 1057q3 18 3 31q0 32 -21 46t-84 26l-43 8l4 78h993q0 -159 -35 -353z" />
    <glyph glyph-name="Edieresis" unicode="&#xcb;" horiz-adv-x="1234" 
d="M586 1597q-40 0 -65 28t-25 71q0 56 36 91.5t91 35.5q40 0 65 -28t25 -71q0 -56 -35.5 -91.5t-91.5 -35.5zM950 1597q-40 0 -65 28t-25 71q0 56 36 91.5t91 35.5q40 0 65 -28t25 -71q0 -56 -35.5 -91.5t-91.5 -35.5zM1165 1081l-123 -8q2 70 -1 112.5t-12 74t-29.5 46
t-49.5 21t-76 6.5h-329l-78 -551h264q54 0 77 22.5t46 96.5l14 45l107 4l-64 -450l-104 4v90q0 44 -21.5 65t-68.5 21h-264l-68 -485q-2 -20 -2 -28q0 -40 30 -53.5t115 -13.5h215q59 0 94 9t63 39t46 77.5t39 134.5l121 -8q-17 -187 -66 -352h-1030l13 78l79 14
q49 9 69.5 29.5t27.5 66.5l149 1057q3 18 3 31q0 32 -21 46t-84 26l-43 8l4 78h993q0 -159 -35 -353z" />
    <glyph glyph-name="Igrave" unicode="&#xcc;" horiz-adv-x="704" 
d="M330 1886l368 -268q-19 -48 -53 -82l-401 215q25 74 86 135zM723 1356l-94 -13q-48 -7 -69 -29t-28 -69l-149 -1057q-3 -18 -3 -31q0 -32 21 -45t84 -24l60 -10l-13 -78h-522l13 78l79 14q49 9 69.5 29.5t27.5 66.5l149 1057q3 18 3 31q0 32 -21 46t-84 26l-43 8l4 78
h528z" />
    <glyph glyph-name="Iacute" unicode="&#xcd;" horiz-adv-x="704" 
d="M285 1618l368 268q61 -61 86 -135l-401 -215q-34 34 -53 82zM723 1356l-94 -13q-48 -7 -69 -29t-28 -69l-149 -1057q-3 -18 -3 -31q0 -32 21 -45t84 -24l60 -10l-13 -78h-522l13 78l79 14q49 9 69.5 29.5t27.5 66.5l149 1057q3 18 3 31q0 32 -21 46t-84 26l-43 8l4 78
h528z" />
    <glyph glyph-name="Icircumflex" unicode="&#xce;" horiz-adv-x="704" 
d="M530 1884l256 -252q-26 -47 -65 -78l-214 154l-249 -154q-36 32 -53 82zM207 1434h528l-12 -78l-94 -13q-48 -7 -69 -29t-28 -69l-149 -1057q-3 -18 -3 -31q0 -32 21 -45t84 -24l60 -10l-13 -78h-522l13 78l79 14q49 9 69.5 29.5t27.5 66.5l149 1057q3 18 3 31
q0 32 -21 46t-84 26l-43 8z" />
    <glyph glyph-name="Idieresis" unicode="&#xcf;" horiz-adv-x="704" 
d="M215 1696q0 56 35.5 91.5t91.5 35.5q40 0 65 -28t25 -71q0 -56 -36 -91.5t-91 -35.5q-40 0 -65 28t-25 71zM580 1696q0 56 36 91.5t91 35.5q40 0 65 -28t25 -71q0 -56 -35.5 -91.5t-91.5 -35.5q-40 0 -65 28t-25 71zM723 1356l-94 -13q-48 -7 -69 -29t-28 -69l-149 -1057
q-3 -18 -3 -31q0 -32 21 -45t84 -24l60 -10l-13 -78h-522l13 78l79 14q49 9 69.5 29.5t27.5 66.5l149 1057q3 18 3 31q0 32 -21 46t-84 26l-43 8l4 78h528z" />
    <glyph glyph-name="Eth" unicode="&#xd0;" horiz-adv-x="1435" 
d="M739 1442q300 0 458.5 -151.5t158.5 -438.5q0 -190 -60 -350t-166.5 -272t-259.5 -175t-333 -63q-69 0 -207.5 4t-223.5 4h-96l13 78l79 14q49 9 69.5 29.5t27.5 66.5l70 498h-148l14 100h148l65 459q3 18 3 31q0 32 -21 46t-84 26l-43 8l4 78h102q85 0 223 4t207 4z
M518 90q289 0 463 206.5t174 549.5q0 236 -114.5 366.5t-321.5 130.5q-96 0 -174 -12l-77 -545h286l-15 -100h-285l-69 -487q-3 -18 -3 -32q0 -44 29.5 -60.5t106.5 -16.5z" />
    <glyph glyph-name="Ntilde" unicode="&#xd1;" horiz-adv-x="1509" 
d="M780 1673q-80 0 -137 -69l-22 75q26 50 81.5 83.5t110.5 33.5q61 0 130 -30.5t108 -30.5q80 0 137 69l22 -75q-26 -50 -81.5 -83.5t-110.5 -33.5q-61 0 -130 30.5t-108 30.5zM1554 1434l-12 -78l-94 -13q-48 -7 -68.5 -29t-27.5 -69l-176 -1245h-162l-418 899
q-85 183 -128 322q-7 -109 -24 -236l-112 -797q-3 -18 -3 -31q0 -32 21 -45t84 -24l60 -10l-13 -78h-471l13 78l79 14q49 9 69.5 29.5t27.5 66.5l149 1057q3 18 3 31q0 32 -21 46t-84 26l-43 8l4 78h338l418 -899q80 -171 121 -300q7 103 22 213l113 797q2 12 2 31
q0 32 -21 46t-84 26l-43 8l4 78h477z" />
    <glyph glyph-name="Ograve" unicode="&#xd2;" horiz-adv-x="1515" 
d="M737 1886l369 -268q-19 -48 -53 -82l-402 215q25 74 86 135zM877 1466q264 0 411.5 -161t147.5 -451q0 -259 -97 -461t-272.5 -314t-400.5 -112q-258 0 -406.5 167.5t-148.5 457.5q0 254 97 453.5t271.5 310t397.5 110.5zM860 1358q-159 0 -284.5 -97.5t-195 -272
t-69.5 -396.5q0 -236 100.5 -376t270.5 -140q94 0 179 37.5t152.5 108t117.5 165.5t77 215.5t27 253.5q0 236 -99 369t-276 133z" />
    <glyph glyph-name="Oacute" unicode="&#xd3;" horiz-adv-x="1515" 
d="M713 1618l368 268q61 -61 86 -135l-401 -215q-34 34 -53 82zM877 1466q264 0 411.5 -161t147.5 -451q0 -259 -97 -461t-272.5 -314t-400.5 -112q-258 0 -406.5 167.5t-148.5 457.5q0 254 97 453.5t271.5 310t397.5 110.5zM860 1358q-159 0 -284.5 -97.5t-195 -272
t-69.5 -396.5q0 -236 100.5 -376t270.5 -140q94 0 179 37.5t152.5 108t117.5 165.5t77 215.5t27 253.5q0 236 -99 369t-276 133z" />
    <glyph glyph-name="Ocircumflex" unicode="&#xd4;" horiz-adv-x="1515" 
d="M913 1708l-249 -154q-37 34 -54 82l326 248l256 -252q-25 -45 -66 -78zM877 1466q264 0 411.5 -161t147.5 -451q0 -259 -97 -461t-272.5 -314t-400.5 -112q-258 0 -406.5 167.5t-148.5 457.5q0 254 97 453.5t271.5 310t397.5 110.5zM682 76q94 0 179 37.5t152.5 108
t117.5 165.5t77 215.5t27 253.5q0 236 -99 369t-276 133q-159 0 -284.5 -97.5t-195 -272t-69.5 -396.5q0 -236 100.5 -376t270.5 -140z" />
    <glyph glyph-name="Otilde" unicode="&#xd5;" horiz-adv-x="1515" 
d="M1047 1735q80 0 137 69l22 -75q-26 -50 -81.5 -83.5t-110.5 -33.5q-61 0 -130 30.5t-108 30.5q-80 0 -137 -69l-23 75q26 50 82 83.5t111 33.5q61 0 130 -30.5t108 -30.5zM877 1466q264 0 411.5 -161t147.5 -451q0 -259 -97 -461t-272.5 -314t-400.5 -112
q-258 0 -406.5 167.5t-148.5 457.5q0 254 97 453.5t271.5 310t397.5 110.5zM860 1358q-159 0 -284.5 -97.5t-195 -272t-69.5 -396.5q0 -236 100.5 -376t270.5 -140q94 0 179 37.5t152.5 108t117.5 165.5t77 215.5t27 253.5q0 236 -99 369t-276 133z" />
    <glyph glyph-name="Odieresis" unicode="&#xd6;" horiz-adv-x="1515" 
d="M621 1696q0 56 35.5 91.5t91.5 35.5q40 0 65 -28t25 -71q0 -56 -36 -91.5t-91 -35.5q-40 0 -65 28t-25 71zM985 1696q0 56 35.5 91.5t91.5 35.5q40 0 65 -28t25 -71q0 -56 -36 -91.5t-91 -35.5q-40 0 -65 28t-25 71zM877 1466q264 0 411.5 -161t147.5 -451
q0 -259 -97 -461t-272.5 -314t-400.5 -112q-258 0 -406.5 167.5t-148.5 457.5q0 254 97 453.5t271.5 310t397.5 110.5zM860 1358q-159 0 -284.5 -97.5t-195 -272t-69.5 -396.5q0 -236 100.5 -376t270.5 -140q94 0 179 37.5t152.5 108t117.5 165.5t77 215.5t27 253.5
q0 236 -99 369t-276 133z" />
    <glyph glyph-name="multiply" unicode="&#xd7;" horiz-adv-x="997" 
d="M574 557l268 -324l-92 -83l-268 322l-349 -318l-70 86l348 318l-268 323l93 84l267 -323l349 319l70 -87z" />
    <glyph glyph-name="Oslash" unicode="&#xd8;" horiz-adv-x="1515" 
d="M1323 1516l-95 -156q208 -158 208 -506q0 -259 -97 -461t-272.5 -314t-400.5 -112q-141 0 -253 52l-96 -156l-94 55l97 159q-101 80 -155 211t-54 304q0 254 97 453.5t271.5 310t397.5 110.5q145 0 257 -50l95 155zM860 1358q-159 0 -284.5 -97.5t-195 -272t-69.5 -396.5
q0 -234 99 -374l650 1081q-85 59 -200 59zM682 76q94 0 179 37.5t152.5 108t117.5 165.5t77 215.5t27 253.5q0 232 -95 364l-652 -1083q82 -61 194 -61z" />
    <glyph glyph-name="Ugrave" unicode="&#xd9;" horiz-adv-x="1458" 
d="M690 1886l369 -268q-19 -48 -53 -82l-402 215q25 74 86 135zM700 1356l-94 -13q-48 -7 -68.5 -29t-27.5 -69l-104 -735q-10 -72 -10 -120q0 -316 292 -316q163 0 254.5 102.5t122.5 319.5l106 749q3 18 3 31q0 32 -21.5 46.5t-83.5 25.5l-47 8l12 78h486l-13 -78l-94 -13
q-48 -7 -68.5 -29t-27.5 -69l-109 -770q-35 -250 -176 -379t-379 -129q-220 0 -331.5 101.5t-111.5 301.5q0 57 9 122l107 753q2 12 2 31q0 32 -21 46t-84 26l-43 8l4 78h529z" />
    <glyph glyph-name="Uacute" unicode="&#xda;" horiz-adv-x="1458" 
d="M725 1618l369 268q61 -61 86 -135l-402 -215q-34 34 -53 82zM700 1356l-94 -13q-48 -7 -68.5 -29t-27.5 -69l-104 -735q-10 -72 -10 -120q0 -316 292 -316q163 0 254.5 102.5t122.5 319.5l106 749q3 18 3 31q0 32 -21.5 46.5t-83.5 25.5l-47 8l12 78h486l-13 -78l-94 -13
q-48 -7 -68.5 -29t-27.5 -69l-109 -770q-35 -250 -176 -379t-379 -129q-220 0 -331.5 101.5t-111.5 301.5q0 57 9 122l107 753q2 12 2 31q0 32 -21 46t-84 26l-43 8l4 78h529z" />
    <glyph glyph-name="Ucircumflex" unicode="&#xdb;" horiz-adv-x="1458" 
d="M913 1708l-249 -154q-37 34 -54 82l326 248l256 -252q-25 -45 -66 -78zM1520 1434l-13 -78l-94 -13q-48 -7 -68.5 -29t-27.5 -69l-109 -770q-35 -250 -176 -379t-379 -129q-220 0 -331.5 101.5t-111.5 301.5q0 57 9 122l107 753q2 12 2 31q0 32 -21 46t-84 26l-43 8l4 78
h529l-13 -78l-94 -13q-48 -7 -68.5 -29t-27.5 -69l-104 -735q-10 -72 -10 -120q0 -316 292 -316q163 0 254.5 102.5t122.5 319.5l106 749q3 18 3 31q0 32 -21.5 46.5t-83.5 25.5l-47 8l12 78h486z" />
    <glyph glyph-name="Udieresis" unicode="&#xdc;" horiz-adv-x="1458" 
d="M621 1696q0 56 35.5 91.5t91.5 35.5q40 0 65 -28t25 -71q0 -56 -36 -91.5t-91 -35.5q-40 0 -65 28t-25 71zM985 1696q0 56 35.5 91.5t91.5 35.5q40 0 65 -28t25 -71q0 -56 -36 -91.5t-91 -35.5q-40 0 -65 28t-25 71zM700 1356l-94 -13q-48 -7 -68.5 -29t-27.5 -69
l-104 -735q-10 -72 -10 -120q0 -316 292 -316q163 0 254.5 102.5t122.5 319.5l106 749q3 18 3 31q0 32 -21.5 46.5t-83.5 25.5l-47 8l12 78h486l-13 -78l-94 -13q-48 -7 -68.5 -29t-27.5 -69l-109 -770q-35 -250 -176 -379t-379 -129q-220 0 -331.5 101.5t-111.5 301.5
q0 57 9 122l107 753q2 12 2 31q0 32 -21 46t-84 26l-43 8l4 78h529z" />
    <glyph glyph-name="Yacute" unicode="&#xdd;" horiz-adv-x="1304" 
d="M1108 1751l-401 -215q-35 35 -54 82l369 268q61 -61 86 -135zM1409 1434l-12 -78l-41 -4q-52 -5 -79.5 -19.5t-59 -52t-101.5 -139.5l-368 -539l-56 -385q-4 -34 -4 -44q0 -37 21.5 -53.5t81.5 -25.5l92 -14l-13 -80h-587l12 80l113 18q48 8 70 34.5t30 84.5l55 385
l-241 539q-29 64 -44 95t-29.5 57.5t-28 35.5t-26.5 14t-38 9l-27 4l4 78h518l-12 -78l-59 -6q-105 -10 -105 -75q0 -31 25 -89l201 -448l299 448q49 74 49 108q0 47 -93 56l-65 6l12 78h506z" />
    <glyph glyph-name="Thorn" unicode="&#xde;" horiz-adv-x="1191" 
d="M400 307l-13 -90q-4 -32 -4 -42q0 -38 22 -54.5t82 -26.5l91 -14l-13 -80h-555l13 78l79 14q49 9 69.5 29.5t27.5 66.5l149 1057q3 18 3 31q0 32 -21 46t-84 26l-43 8l4 78h528l-12 -78l-94 -13q-48 -7 -69 -29t-28 -69l-13 -93q90 3 179 3q217 0 330 -87t113 -257
q0 -242 -157 -376t-439 -134q-68 0 -145 6zM678 1057q-96 0 -174 -12l-90 -636q77 -6 145 -6q182 0 284.5 105t102.5 291q0 127 -68.5 192.5t-199.5 65.5z" />
    <glyph glyph-name="germandbls" unicode="&#xdf;" horiz-adv-x="1153" 
d="M795 797q0 -40 18.5 -79t46 -69t60 -66.5t60 -70t46 -80.5t18.5 -98q0 -161 -101 -260t-267 -99q-170 0 -279 76q5 90 29 189l96 6q13 -96 53 -141.5t111 -45.5q79 0 129.5 61t50.5 156q0 57 -25.5 106t-62 86l-73 74t-62 88t-25.5 111q0 63 24.5 122t59.5 105.5t70 92
t59.5 99.5t24.5 110q0 66 -37 106.5t-98 40.5q-121 0 -190.5 -119.5t-108.5 -394.5l-133 -946q-30 -215 -107.5 -311.5t-218.5 -96.5q-80 0 -145 41l26 103q56 -27 107 -27q69 0 100.5 54t52.5 206l143 1014h-130l8 92q27 9 144 12q46 245 163 359.5t322 114.5
q133 0 204.5 -56.5t71.5 -161.5q0 -68 -24 -127.5t-59 -102t-69.5 -82.5t-58.5 -89t-24 -102z" />
    <glyph glyph-name="agrave" unicode="&#xe0;" horiz-adv-x="1136" 
d="M496 1548l368 -268q-19 -48 -53 -82l-401 215q25 74 86 135zM944 90q30 0 70 4l-4 -76q-100 -38 -176 -38q-73 0 -107.5 26.5t-34.5 85.5q0 102 88 379h-3q-35 -109 -77.5 -195.5t-97.5 -156t-124 -107t-148 -37.5q-133 0 -194.5 87.5t-61.5 271.5q0 194 71.5 364
t192 270.5t258.5 100.5q152 0 232 -115l10 25q19 50 39.5 70t54.5 20q31 0 74 -25l-132 -833q-5 -35 -5 -54q0 -38 17 -52.5t58 -14.5zM358 94q49 0 112.5 50t125.5 136.5t114.5 221.5t75.5 286l7 44q-26 58 -71.5 93.5t-94.5 35.5q-96 0 -180 -86.5t-133.5 -233
t-49.5 -315.5q0 -121 21.5 -176.5t72.5 -55.5z" />
    <glyph glyph-name="aacute" unicode="&#xe1;" horiz-adv-x="1136" 
d="M967 1413l-402 -215q-34 34 -53 82l369 268q61 -61 86 -135zM944 90q30 0 70 4l-4 -76q-100 -38 -176 -38q-73 0 -107.5 26.5t-34.5 85.5q0 102 88 379h-3q-35 -109 -77.5 -195.5t-97.5 -156t-124 -107t-148 -37.5q-133 0 -194.5 87.5t-61.5 271.5q0 194 71.5 364
t192 270.5t258.5 100.5q152 0 232 -115l10 25q19 50 39.5 70t54.5 20q31 0 74 -25l-132 -833q-5 -35 -5 -54q0 -38 17 -52.5t58 -14.5zM358 94q49 0 112.5 50t125.5 136.5t114.5 221.5t75.5 286l7 44q-26 58 -71.5 93.5t-94.5 35.5q-96 0 -180 -86.5t-133.5 -233
t-49.5 -315.5q0 -121 21.5 -176.5t72.5 -55.5z" />
    <glyph glyph-name="acircumflex" unicode="&#xe2;" horiz-adv-x="1136" 
d="M648 1370l-249 -153q-36 33 -53 81l326 248l256 -252q-24 -43 -66 -77zM944 90q30 0 70 4l-4 -76q-100 -38 -176 -38q-73 0 -107.5 26.5t-34.5 85.5q0 102 88 379h-3q-35 -109 -77.5 -195.5t-97.5 -156t-124 -107t-148 -37.5q-133 0 -194.5 87.5t-61.5 271.5
q0 194 71.5 364t192 270.5t258.5 100.5q152 0 232 -115l10 25q19 50 39.5 70t54.5 20q31 0 74 -25l-132 -833q-5 -35 -5 -54q0 -38 17 -52.5t58 -14.5zM358 94q49 0 112.5 50t125.5 136.5t114.5 221.5t75.5 286l7 44q-26 58 -71.5 93.5t-94.5 35.5q-96 0 -180 -86.5
t-133.5 -233t-49.5 -315.5q0 -121 21.5 -176.5t72.5 -55.5z" />
    <glyph glyph-name="atilde" unicode="&#xe3;" horiz-adv-x="1136" 
d="M514 1335q-80 0 -137 -69l-23 75q26 50 82 83.5t111 33.5q61 0 129.5 -30.5t107.5 -30.5q81 0 138 69l22 -75q-26 -50 -81.5 -83.5t-110.5 -33.5q-61 0 -130 30.5t-108 30.5zM944 90q30 0 70 4l-4 -76q-100 -38 -176 -38q-73 0 -107.5 26.5t-34.5 85.5q0 102 88 379h-3
q-35 -109 -77.5 -195.5t-97.5 -156t-124 -107t-148 -37.5q-133 0 -194.5 87.5t-61.5 271.5q0 194 71.5 364t192 270.5t258.5 100.5q152 0 232 -115l10 25q19 50 39.5 70t54.5 20q31 0 74 -25l-132 -833q-5 -35 -5 -54q0 -38 17 -52.5t58 -14.5zM358 94q49 0 112.5 50
t125.5 136.5t114.5 221.5t75.5 286l7 44q-26 58 -71.5 93.5t-94.5 35.5q-96 0 -180 -86.5t-133.5 -233t-49.5 -315.5q0 -121 21.5 -176.5t72.5 -55.5z" />
    <glyph glyph-name="adieresis" unicode="&#xe4;" horiz-adv-x="1136" 
d="M449 1260q-40 0 -65.5 27.5t-25.5 70.5q0 56 36 91.5t91 35.5q40 0 65 -28t25 -71q0 -56 -35.5 -91t-90.5 -35zM813 1260q-40 0 -65 27.5t-25 70.5q0 56 35.5 91.5t91.5 35.5q40 0 65 -28t25 -71q0 -55 -35.5 -90.5t-91.5 -35.5zM944 90q30 0 70 4l-4 -76
q-100 -38 -176 -38q-73 0 -107.5 26.5t-34.5 85.5q0 102 88 379h-3q-35 -109 -77.5 -195.5t-97.5 -156t-124 -107t-148 -37.5q-133 0 -194.5 87.5t-61.5 271.5q0 194 71.5 364t192 270.5t258.5 100.5q152 0 232 -115l10 25q19 50 39.5 70t54.5 20q31 0 74 -25l-132 -833
q-5 -35 -5 -54q0 -38 17 -52.5t58 -14.5zM358 94q49 0 112.5 50t125.5 136.5t114.5 221.5t75.5 286l7 44q-26 58 -71.5 93.5t-94.5 35.5q-96 0 -180 -86.5t-133.5 -233t-49.5 -315.5q0 -121 21.5 -176.5t72.5 -55.5z" />
    <glyph glyph-name="aring" unicode="&#xe5;" horiz-adv-x="1136" 
d="M625 1202q-75 0 -120.5 46t-45.5 122q0 95 62.5 156t160.5 61q75 0 120.5 -46t45.5 -122q0 -95 -62.5 -156t-160.5 -61zM670 1503q-50 0 -80.5 -33.5t-30.5 -87.5q0 -96 78 -96q50 0 80.5 33.5t30.5 87.5q0 96 -78 96zM944 90q30 0 70 4l-4 -76q-100 -38 -176 -38
q-73 0 -107.5 26.5t-34.5 85.5q0 102 88 379h-3q-35 -109 -77.5 -195.5t-97.5 -156t-124 -107t-148 -37.5q-133 0 -194.5 87.5t-61.5 271.5q0 194 71.5 364t192 270.5t258.5 100.5q152 0 232 -115l10 25q19 50 39.5 70t54.5 20q31 0 74 -25l-132 -833q-5 -35 -5 -54
q0 -38 17 -52.5t58 -14.5zM358 94q49 0 112.5 50t125.5 136.5t114.5 221.5t75.5 286l7 44q-26 58 -71.5 93.5t-94.5 35.5q-96 0 -180 -86.5t-133.5 -233t-49.5 -315.5q0 -121 21.5 -176.5t72.5 -55.5z" />
    <glyph glyph-name="ae" unicode="&#xe6;" horiz-adv-x="1562" 
d="M889 471q-34 0 -67 5q-3 -36 -3 -73q0 -157 62.5 -232t171.5 -75q90 0 157.5 27.5t137.5 89.5l45 -96q-92 -76 -184 -109t-218 -33q-244 0 -325 197q-61 -93 -154 -145t-201 -52q-136 0 -208 62.5t-72 179.5q0 177 130.5 285t342.5 108q83 0 149 -10l19 121q9 55 9 99
q0 163 -126 163q-38 0 -73 -16t-61.5 -38.5t-52 -45t-55 -38.5t-59.5 -16q-35 0 -54.5 19.5t-19.5 54.5q0 29 13 58q179 108 380 108q120 0 181.5 -38t77.5 -125q138 163 360 163q149 0 227 -61t78 -177q0 -173 -158 -266.5t-450 -93.5zM1157 967q-113 0 -201 -109
t-121 -281q38 -4 54 -4q199 0 312.5 67t113.5 185q0 69 -40.5 105.5t-117.5 36.5zM371 94q146 0 261 223q-3 36 -3 76q0 60 7 112q-61 7 -116 7q-141 0 -221 -70t-80 -194q0 -72 40 -113t112 -41z" />
    <glyph glyph-name="ccedilla" unicode="&#xe7;" horiz-adv-x="944" 
d="M920 985q6 -15 6 -39q0 -47 -29 -75.5t-78 -28.5q-30 0 -52 13t-35.5 31t-28 36.5t-39 31.5t-58.5 13q-92 0 -170 -75t-123 -205t-45 -284q0 -149 55 -228t158 -79q78 0 144 27.5t135 89.5l45 -96q-82 -68 -162.5 -101.5t-178.5 -38.5l-56 -90q75 0 118 -37t43 -102
q0 -97 -61.5 -150t-171.5 -53q-86 0 -143 54q13 40 38 69q49 -43 111 -43q44 0 68 24t24 68q0 41 -30 63.5t-87 22.5l-18 39l76 136q-145 14 -221 120t-76 295q0 194 72 348.5t200.5 241t290.5 86.5q167 0 279 -84z" />
    <glyph glyph-name="egrave" unicode="&#xe8;" horiz-adv-x="1011" 
d="M473 1548l369 -268q-19 -47 -54 -82l-401 215q25 74 86 135zM334 440q-32 0 -65 5q-1 -14 -1 -42q0 -157 62.5 -232t171.5 -75q90 0 157.5 27.5t137.5 89.5l45 -96q-92 -76 -184 -109t-218 -33q-180 0 -271 107t-91 311q0 194 72 348.5t200.5 241t290.5 86.5
q149 0 227 -61t78 -177q0 -186 -160 -288.5t-452 -102.5zM606 967q-118 0 -208.5 -118.5t-118.5 -302.5q28 -3 55 -3q198 0 314 76t116 206q0 69 -40.5 105.5t-117.5 36.5z" />
    <glyph glyph-name="eacute" unicode="&#xe9;" horiz-adv-x="1011" 
d="M920 1413l-402 -215q-34 34 -53 82l369 268q61 -61 86 -135zM334 440q-32 0 -65 5q-1 -14 -1 -42q0 -157 62.5 -232t171.5 -75q90 0 157.5 27.5t137.5 89.5l45 -96q-92 -76 -184 -109t-218 -33q-180 0 -271 107t-91 311q0 194 72 348.5t200.5 241t290.5 86.5
q149 0 227 -61t78 -177q0 -186 -160 -288.5t-452 -102.5zM606 967q-118 0 -208.5 -118.5t-118.5 -302.5q28 -3 55 -3q198 0 314 76t116 206q0 69 -40.5 105.5t-117.5 36.5z" />
    <glyph glyph-name="ecircumflex" unicode="&#xea;" horiz-adv-x="1011" 
d="M632 1370l-249 -153q-36 33 -53 81l325 248l256 -252q-25 -45 -65 -77zM334 440q-32 0 -65 5q-1 -14 -1 -42q0 -157 62.5 -232t171.5 -75q90 0 157.5 27.5t137.5 89.5l45 -96q-92 -76 -184 -109t-218 -33q-180 0 -271 107t-91 311q0 194 72 348.5t200.5 241t290.5 86.5
q149 0 227 -61t78 -177q0 -186 -160 -288.5t-452 -102.5zM606 967q-118 0 -208.5 -118.5t-118.5 -302.5q28 -3 55 -3q198 0 314 76t116 206q0 69 -40.5 105.5t-117.5 36.5z" />
    <glyph glyph-name="edieresis" unicode="&#xeb;" horiz-adv-x="1011" 
d="M432 1260q-40 0 -65 27.5t-25 70.5q0 56 36 91.5t91 35.5q40 0 65 -28t25 -71q0 -55 -35.5 -90.5t-91.5 -35.5zM797 1260q-40 0 -65 27.5t-25 70.5q0 56 35.5 91.5t91.5 35.5q40 0 65 -28t25 -71q0 -55 -35.5 -90.5t-91.5 -35.5zM334 440q-32 0 -65 5q-1 -14 -1 -42
q0 -157 62.5 -232t171.5 -75q90 0 157.5 27.5t137.5 89.5l45 -96q-92 -76 -184 -109t-218 -33q-180 0 -271 107t-91 311q0 194 72 348.5t200.5 241t290.5 86.5q149 0 227 -61t78 -177q0 -186 -160 -288.5t-452 -102.5zM606 967q-118 0 -208.5 -118.5t-118.5 -302.5
q28 -3 55 -3q198 0 314 76t116 206q0 69 -40.5 105.5t-117.5 36.5z" />
    <glyph glyph-name="igrave" unicode="&#xec;" horiz-adv-x="589" 
d="M197 1548l368 -268q-19 -48 -53 -82l-401 215q25 74 86 135zM362 1069q53 0 68.5 -14t15.5 -60q0 -51 -14 -133l-115 -651q-5 -27 -5 -55q0 -37 17 -51.5t58 -14.5q30 0 70 4l-4 -76q-100 -38 -177 -38q-82 0 -117 27t-35 94q0 35 9 83l115 652q7 36 7 61q0 24 -8.5 33.5
t-27.5 9.5q-38 0 -94 -16v75q50 30 117.5 50t119.5 20z" />
    <glyph glyph-name="iacute" unicode="&#xed;" horiz-adv-x="589" 
d="M186 1280l369 268q61 -61 86 -135l-401 -215q-35 35 -54 82zM362 1069q53 0 68.5 -14t15.5 -60q0 -51 -14 -133l-115 -651q-5 -27 -5 -55q0 -37 17 -51.5t58 -14.5q30 0 70 4l-4 -76q-100 -38 -177 -38q-82 0 -117 27t-35 94q0 35 9 83l115 652q7 36 7 61q0 24 -8.5 33.5
t-27.5 9.5q-38 0 -94 -16v75q50 30 117.5 50t119.5 20z" />
    <glyph glyph-name="icircumflex" unicode="&#xee;" horiz-adv-x="589" 
d="M401 1546l256 -252q-25 -45 -65 -77l-214 153l-249 -153q-36 33 -53 81zM312 156q0 -37 17 -51.5t58 -14.5q30 0 70 4l-4 -76q-100 -38 -177 -38q-82 0 -117 27t-35 94q0 35 9 83l115 652q7 36 7 61q0 24 -8.5 33.5t-27.5 9.5q-38 0 -94 -16v75q50 30 117.5 50t119.5 20
q53 0 68.5 -14t15.5 -60q0 -51 -14 -133l-115 -651q-5 -27 -5 -55z" />
    <glyph glyph-name="idieresis" unicode="&#xef;" horiz-adv-x="589" 
d="M88 1358q0 56 36 91.5t91 35.5q40 0 65 -28t25 -71q0 -55 -35.5 -90.5t-91.5 -35.5q-40 0 -65 27.5t-25 70.5zM453 1358q0 56 35.5 91.5t91.5 35.5q40 0 65 -28t25 -71q0 -55 -35.5 -90.5t-91.5 -35.5q-40 0 -65 27.5t-25 70.5zM362 1069q53 0 68.5 -14t15.5 -60
q0 -51 -14 -133l-115 -651q-5 -27 -5 -55q0 -37 17 -51.5t58 -14.5q30 0 70 4l-4 -76q-100 -38 -177 -38q-82 0 -117 27t-35 94q0 35 9 83l115 652q7 36 7 61q0 24 -8.5 33.5t-27.5 9.5q-38 0 -94 -16v75q50 30 117.5 50t119.5 20z" />
    <glyph glyph-name="eth" unicode="&#xf0;" horiz-adv-x="1138" 
d="M954 1440l-156 -101q224 -204 224 -575q0 -383 -142.5 -586t-410.5 -203q-389 0 -389 422q0 289 141.5 464t374.5 175q219 0 280 -188h4q-27 267 -216 417l-203 -130l-53 92l158 102q-94 52 -222 82l51 107q179 -26 311 -109l193 125zM483 78q151 0 242.5 149.5
t91.5 395.5q0 301 -215 301q-154 0 -243 -139t-89 -377q0 -157 56 -243.5t157 -86.5z" />
    <glyph glyph-name="ntilde" unicode="&#xf1;" horiz-adv-x="1183" 
d="M553 1335q-80 0 -137 -69l-23 75q26 50 82 83.5t111 33.5q61 0 129.5 -30.5t107.5 -30.5q81 0 138 69l22 -75q-26 -50 -81.5 -83.5t-110.5 -33.5q-61 0 -130 30.5t-108 30.5zM989 90q30 0 70 4l-4 -76q-100 -38 -176 -38q-82 0 -117 27t-35 94q0 40 8 83l109 617
q6 33 6 59q0 90 -74 90q-50 0 -116 -50t-132 -136.5t-121.5 -221.5t-78.5 -286l-39 -256h-180l131 836q6 39 6 61q0 24 -8 33.5t-27 9.5q-38 0 -94 -16v75q50 30 117.5 50t119.5 20q39 0 55.5 -16.5t16.5 -57.5q0 -52 -26 -176.5t-62 -245.5h3q77 225 194 360.5t270 135.5
q109 0 168 -50t59 -143q0 -28 -6 -59l-106 -606q-6 -33 -6 -55q0 -37 17 -51.5t58 -14.5z" />
    <glyph glyph-name="ograve" unicode="&#xf2;" horiz-adv-x="1126" 
d="M530 1548l369 -268q-19 -48 -53 -82l-402 215q25 74 86 135zM78 395q0 192 71.5 346t199.5 241t288 87q189 0 288 -105.5t99 -306.5q0 -196 -71.5 -352t-199.5 -243t-290 -87q-183 0 -284 110t-101 310zM621 967q-157 0 -255 -162.5t-98 -421.5q0 -142 56.5 -223.5
t154.5 -81.5q101 0 182.5 76t127 211.5t45.5 304.5q0 144 -55 220.5t-158 76.5z" />
    <glyph glyph-name="oacute" unicode="&#xf3;" horiz-adv-x="1126" 
d="M465 1280l369 268q61 -61 86 -135l-402 -215q-34 34 -53 82zM78 395q0 192 71.5 346t199.5 241t288 87q189 0 288 -105.5t99 -306.5q0 -196 -71.5 -352t-199.5 -243t-290 -87q-183 0 -284 110t-101 310zM621 967q-157 0 -255 -162.5t-98 -421.5q0 -142 56.5 -223.5
t154.5 -81.5q101 0 182.5 76t127 211.5t45.5 304.5q0 144 -55 220.5t-158 76.5z" />
    <glyph glyph-name="ocircumflex" unicode="&#xf4;" horiz-adv-x="1126" 
d="M675 1370l-249 -153q-36 33 -53 81l325 248l256 -252q-25 -45 -65 -77zM637 1069q189 0 288 -105.5t99 -306.5q0 -196 -71.5 -352t-199.5 -243t-290 -87q-183 0 -284 110t-101 310q0 192 71.5 346t199.5 241t288 87zM479 78q101 0 182.5 76t127 211.5t45.5 304.5
q0 144 -55 220.5t-158 76.5q-157 0 -255 -162.5t-98 -421.5q0 -142 56.5 -223.5t154.5 -81.5z" />
    <glyph glyph-name="otilde" unicode="&#xf5;" horiz-adv-x="1126" 
d="M811 1397q80 0 137 69l23 -75q-26 -50 -82 -83.5t-111 -33.5q-61 0 -129.5 30.5t-107.5 30.5q-81 0 -138 -69l-22 75q26 50 81.5 83.5t110.5 33.5q61 0 130 -30.5t108 -30.5zM78 395q0 192 71.5 346t199.5 241t288 87q189 0 288 -105.5t99 -306.5q0 -196 -71.5 -352
t-199.5 -243t-290 -87q-183 0 -284 110t-101 310zM621 967q-157 0 -255 -162.5t-98 -421.5q0 -142 56.5 -223.5t154.5 -81.5q101 0 182.5 76t127 211.5t45.5 304.5q0 144 -55 220.5t-158 76.5z" />
    <glyph glyph-name="odieresis" unicode="&#xf6;" horiz-adv-x="1126" 
d="M385 1358q0 56 35.5 91.5t91.5 35.5q40 0 65 -28t25 -71q0 -55 -35.5 -90.5t-91.5 -35.5q-40 0 -65 27.5t-25 70.5zM750 1358q0 56 36 91.5t91 35.5q40 0 65 -28t25 -71q0 -55 -35.5 -90.5t-91.5 -35.5q-40 0 -65 27.5t-25 70.5zM78 395q0 192 71.5 346t199.5 241t288 87
q189 0 288 -105.5t99 -306.5q0 -196 -71.5 -352t-199.5 -243t-290 -87q-183 0 -284 110t-101 310zM621 967q-157 0 -255 -162.5t-98 -421.5q0 -142 56.5 -223.5t154.5 -81.5q101 0 182.5 76t127 211.5t45.5 304.5q0 144 -55 220.5t-158 76.5z" />
    <glyph glyph-name="divide" unicode="&#xf7;" horiz-adv-x="1144" 
d="M496 920q0 66 40.5 107.5t104.5 41.5q47 0 75.5 -29.5t28.5 -78.5q0 -66 -40.5 -108t-104.5 -42q-47 0 -75.5 29.5t-28.5 79.5zM1022 500h-928l17 114h927zM387 154q0 66 40.5 107.5t104.5 41.5q47 0 76 -29.5t29 -78.5q0 -66 -40.5 -108t-104.5 -42q-47 0 -76 30t-29 79
z" />
    <glyph glyph-name="oslash" unicode="&#xf8;" horiz-adv-x="1126" 
d="M979 1130l-85 -138q130 -104 130 -335q0 -196 -71.5 -352t-199.5 -243t-290 -87q-95 0 -167 30l-87 -142l-88 51l88 143q-131 109 -131 338q0 192 71.5 346t199.5 241t288 87q96 0 168 -27l86 140zM621 967q-157 0 -255 -162.5t-98 -421.5q0 -107 32 -180l436 730
q-48 34 -115 34zM479 78q101 0 182.5 76t127 211.5t45.5 304.5q0 106 -31 177l-437 -732q48 -37 113 -37z" />
    <glyph glyph-name="ugrave" unicode="&#xf9;" horiz-adv-x="1179" 
d="M492 1548l368 -268q-19 -48 -53 -82l-401 215q25 74 86 135zM983 90q30 0 70 4l-4 -76q-100 -38 -177 -38q-73 0 -107 26.5t-34 85.5q0 102 88 379h-3q-35 -109 -78.5 -195.5t-100 -156t-129.5 -107t-156 -37.5q-110 0 -167 51.5t-57 150.5q0 37 7 73l103 586q7 36 7 61
q0 24 -8.5 33.5t-27.5 9.5q-38 0 -94 -16v75q50 30 117.5 50t119.5 20q53 0 68.5 -14t15.5 -60q0 -51 -14 -133l-105 -596q-7 -41 -7 -75q0 -97 71 -97q56 0 123 50t130.5 137t115.5 221t75 286l39 256h180l-131 -833q-5 -35 -5 -54q0 -38 17 -52.5t58 -14.5z" />
    <glyph glyph-name="uacute" unicode="&#xfa;" horiz-adv-x="1179" 
d="M944 1413l-401 -215q-35 35 -54 82l369 268q61 -61 86 -135zM983 90q30 0 70 4l-4 -76q-100 -38 -177 -38q-73 0 -107 26.5t-34 85.5q0 102 88 379h-3q-35 -109 -78.5 -195.5t-100 -156t-129.5 -107t-156 -37.5q-110 0 -167 51.5t-57 150.5q0 37 7 73l103 586q7 36 7 61
q0 24 -8.5 33.5t-27.5 9.5q-38 0 -94 -16v75q50 30 117.5 50t119.5 20q53 0 68.5 -14t15.5 -60q0 -51 -14 -133l-105 -596q-7 -41 -7 -75q0 -97 71 -97q56 0 123 50t130.5 137t115.5 221t75 286l39 256h180l-131 -833q-5 -35 -5 -54q0 -38 17 -52.5t58 -14.5z" />
    <glyph glyph-name="ucircumflex" unicode="&#xfb;" horiz-adv-x="1179" 
d="M687 1370l-249 -153q-36 33 -53 81l326 248l256 -252q-24 -43 -66 -77zM983 90q30 0 70 4l-4 -76q-100 -38 -177 -38q-73 0 -107 26.5t-34 85.5q0 102 88 379h-3q-35 -109 -78.5 -195.5t-100 -156t-129.5 -107t-156 -37.5q-110 0 -167 51.5t-57 150.5q0 37 7 73l103 586
q7 36 7 61q0 24 -8.5 33.5t-27.5 9.5q-38 0 -94 -16v75q50 30 117.5 50t119.5 20q53 0 68.5 -14t15.5 -60q0 -51 -14 -133l-105 -596q-7 -41 -7 -75q0 -97 71 -97q56 0 123 50t130.5 137t115.5 221t75 286l39 256h180l-131 -833q-5 -35 -5 -54q0 -38 17 -52.5t58 -14.5z" />
    <glyph glyph-name="udieresis" unicode="&#xfc;" horiz-adv-x="1179" 
d="M487 1260q-40 0 -65 27.5t-25 70.5q0 56 35.5 91.5t91.5 35.5q40 0 65 -28t25 -71q0 -55 -35.5 -90.5t-91.5 -35.5zM852 1260q-40 0 -65 27.5t-25 70.5q0 56 36 91.5t91 35.5q40 0 65 -28t25 -71q0 -55 -35.5 -90.5t-91.5 -35.5zM983 90q30 0 70 4l-4 -76
q-100 -38 -177 -38q-73 0 -107 26.5t-34 85.5q0 102 88 379h-3q-35 -109 -78.5 -195.5t-100 -156t-129.5 -107t-156 -37.5q-110 0 -167 51.5t-57 150.5q0 37 7 73l103 586q7 36 7 61q0 24 -8.5 33.5t-27.5 9.5q-38 0 -94 -16v75q50 30 117.5 50t119.5 20q53 0 68.5 -14
t15.5 -60q0 -51 -14 -133l-105 -596q-7 -41 -7 -75q0 -97 71 -97q56 0 123 50t130.5 137t115.5 221t75 286l39 256h180l-131 -833q-5 -35 -5 -54q0 -38 17 -52.5t58 -14.5z" />
    <glyph glyph-name="yacute" unicode="&#xfd;" horiz-adv-x="1081" 
d="M879 1413l-402 -215q-34 34 -53 82l369 268q61 -61 86 -135zM909 1069q109 0 109 -123q0 -169 -98 -416t-284 -544q-149 -238 -277.5 -337.5t-288.5 -99.5q-34 0 -66 7q-14 28 -14 65q0 47 27.5 73.5t76.5 26.5q21 0 51 -7t48 -7q94 0 154.5 94.5t60.5 241.5
q0 91 -23.5 217.5t-88.5 390.5q-45 181 -71.5 235t-70.5 54q-40 0 -93 -16l-8 75q46 29 109.5 49.5t107.5 20.5q29 0 48.5 -8t37 -26t33.5 -60.5t32.5 -99t41.5 -154.5q94 -374 94 -600q0 -34 -2 -51q125 206 204 420.5t79 349.5q0 54 -13.5 77t-44.5 23q-27 0 -80 -16
l-8 75q46 29 109.5 49.5t107.5 20.5z" />
    <glyph glyph-name="thorn" unicode="&#xfe;" horiz-adv-x="1132" 
d="M756 1069q143 0 211.5 -87.5t68.5 -270.5q0 -194 -73 -364t-197 -271t-266 -101q-153 0 -233 115q-17 -170 -42 -358l-22 -162h-180l241 1714q6 39 6 62q0 24 -7.5 33.5t-26.5 9.5q-36 0 -95 -17v76q50 30 118 50t120 20q53 0 68.5 -14t15.5 -60q0 -78 -57.5 -394
t-100.5 -477h3q35 109 78 195.5t98 156t124 107t148 37.5zM469 84q100 0 187 86.5t138.5 233t51.5 315.5q0 119 -29 175t-90 56q-49 0 -112.5 -50t-126 -136.5t-115 -221.5t-74.5 -286l-7 -44q27 -59 74.5 -93.5t102.5 -34.5z" />
    <glyph glyph-name="ydieresis" unicode="&#xff;" horiz-adv-x="1081" 
d="M440 1260q-40 0 -65 27.5t-25 70.5q0 56 36 91.5t91 35.5q40 0 65 -28t25 -71q0 -55 -35.5 -90.5t-91.5 -35.5zM805 1260q-40 0 -65 27.5t-25 70.5q0 56 35.5 91.5t91.5 35.5q40 0 65 -28t25 -71q0 -55 -35.5 -90.5t-91.5 -35.5zM909 1069q109 0 109 -123
q0 -169 -98 -416t-284 -544q-149 -238 -277.5 -337.5t-288.5 -99.5q-34 0 -66 7q-14 28 -14 65q0 47 27.5 73.5t76.5 26.5q21 0 51 -7t48 -7q94 0 154.5 94.5t60.5 241.5q0 91 -23.5 217.5t-88.5 390.5q-45 181 -71.5 235t-70.5 54q-40 0 -93 -16l-8 75q46 29 109.5 49.5
t107.5 20.5q29 0 48.5 -8t37 -26t33.5 -60.5t32.5 -99t41.5 -154.5q94 -374 94 -600q0 -34 -2 -51q125 206 204 420.5t79 349.5q0 54 -13.5 77t-44.5 23q-27 0 -80 -16l-8 75q46 29 109.5 49.5t107.5 20.5z" />
    <glyph glyph-name="Amacron" unicode="&#x100;" horiz-adv-x="1363" 
d="M1077 1645h-516l17 114h516zM1264 78l-4 -78h-517l13 78l59 8q60 8 84.5 31t24.5 74q0 34 -13 102l-27 143h-494l-66 -143q-50 -108 -50 -143q0 -30 26 -43.5t89 -22.5l45 -6l-12 -78h-506l12 78l60 8q61 8 95.5 45.5t94.5 161.5l557 1149h129l232 -1149
q25 -125 46.5 -160t80.5 -47zM863 541l-124 643l-300 -643h424z" />
    <glyph glyph-name="amacron" unicode="&#x101;" horiz-adv-x="1136" 
d="M897 1307h-516l16 114h516zM944 90q30 0 70 4l-4 -76q-100 -38 -176 -38q-73 0 -107.5 26.5t-34.5 85.5q0 102 88 379h-3q-35 -109 -77.5 -195.5t-97.5 -156t-124 -107t-148 -37.5q-133 0 -194.5 87.5t-61.5 271.5q0 194 71.5 364t192 270.5t258.5 100.5q152 0 232 -115
l10 25q19 50 39.5 70t54.5 20q31 0 74 -25l-132 -833q-5 -35 -5 -54q0 -38 17 -52.5t58 -14.5zM358 94q49 0 112.5 50t125.5 136.5t114.5 221.5t75.5 286l7 44q-26 58 -71.5 93.5t-94.5 35.5q-96 0 -180 -86.5t-133.5 -233t-49.5 -315.5q0 -121 21.5 -176.5t72.5 -55.5z" />
    <glyph glyph-name="Abreve" unicode="&#x102;" horiz-adv-x="1363" 
d="M815 1569q-104 0 -168.5 56t-83.5 163q14 14 45.5 26.5t53.5 12.5q30 -137 169 -137q63 0 108 32t83 105q22 0 50.5 -12.5t39.5 -26.5q-51 -112 -123.5 -165.5t-173.5 -53.5zM1264 78l-4 -78h-517l13 78l59 8q60 8 84.5 31t24.5 74q0 34 -13 102l-27 143h-494l-66 -143
q-50 -108 -50 -143q0 -30 26 -43.5t89 -22.5l45 -6l-12 -78h-506l12 78l60 8q61 8 95.5 45.5t94.5 161.5l557 1149h129l232 -1149q25 -125 46.5 -160t80.5 -47zM863 541l-124 643l-300 -643h424z" />
    <glyph glyph-name="abreve" unicode="&#x103;" horiz-adv-x="1136" 
d="M639 1231q-104 0 -168.5 56t-83.5 163q14 14 45.5 26.5t52.5 12.5q30 -137 170 -137q63 0 108 32t83 105q22 0 50.5 -12.5t39.5 -26.5q-51 -112 -123.5 -165.5t-173.5 -53.5zM944 90q30 0 70 4l-4 -76q-100 -38 -176 -38q-73 0 -107.5 26.5t-34.5 85.5q0 102 88 379h-3
q-35 -109 -77.5 -195.5t-97.5 -156t-124 -107t-148 -37.5q-133 0 -194.5 87.5t-61.5 271.5q0 194 71.5 364t192 270.5t258.5 100.5q152 0 232 -115l10 25q19 50 39.5 70t54.5 20q31 0 74 -25l-132 -833q-5 -35 -5 -54q0 -38 17 -52.5t58 -14.5zM358 94q49 0 112.5 50
t125.5 136.5t114.5 221.5t75.5 286l7 44q-26 58 -71.5 93.5t-94.5 35.5q-96 0 -180 -86.5t-133.5 -233t-49.5 -315.5q0 -121 21.5 -176.5t72.5 -55.5z" />
    <glyph glyph-name="Aogonek" unicode="&#x104;" horiz-adv-x="1363" 
d="M1264 78l-4 -78h-213q-146 0 -231 -59t-85 -160q0 -52 22 -80.5t62 -28.5q61 0 113 49q21 -35 24 -71q-84 -72 -204 -72q-75 0 -121.5 45.5t-46.5 118.5q0 62 19 112t49.5 82t67 58.5t73 47t67 41t49.5 47.5t19 60t-13 103l-27 143h-494l-66 -143q-50 -108 -50 -143
q0 -30 26 -43.5t89 -22.5l45 -6l-12 -78h-506l12 78l60 8q61 8 95.5 45.5t94.5 161.5l557 1149h129l232 -1149q25 -125 46.5 -160t80.5 -47zM863 541l-124 643l-300 -643h424z" />
    <glyph glyph-name="aogonek" unicode="&#x105;" horiz-adv-x="1136" 
d="M1014 94l-4 -82q-128 -32 -199.5 -95t-71.5 -144q0 -46 23 -73.5t61 -27.5q61 0 113 49q22 -37 25 -71q-84 -72 -205 -72q-75 0 -121.5 45.5t-46.5 118.5q0 78 48 143.5t130 101.5q-74 21 -74 105q0 102 88 379h-3q-35 -109 -77.5 -195.5t-97.5 -156t-124 -107
t-148 -37.5q-133 0 -194.5 87.5t-61.5 271.5q0 194 71.5 364t192 270.5t258.5 100.5q152 0 232 -115l10 25q19 50 39.5 70t54.5 20q31 0 74 -25l-132 -833q-5 -37 -5 -55q0 -38 17 -52t58 -14q30 0 70 4zM358 94q49 0 112.5 50t125.5 136.5t114.5 221.5t75.5 286l7 44
q-26 58 -71.5 93.5t-94.5 35.5q-96 0 -180 -86.5t-133.5 -233t-49.5 -315.5q0 -121 21.5 -176.5t72.5 -55.5z" />
    <glyph glyph-name="Cacute" unicode="&#x106;" horiz-adv-x="1292" 
d="M715 1618l368 268q61 -61 86 -135l-401 -215q-34 34 -53 82zM879 1466q104 0 230.5 -23.5t195.5 -23.5q-11 -153 -50 -344l-110 -8q0 158 -64.5 224.5t-218.5 66.5q-161 0 -286.5 -98t-195 -275.5t-69.5 -404.5q0 -238 98 -371t275 -133q164 0 252 73.5t129 245.5l106 -8
l-45 -313q-225 -107 -458 -107q-269 0 -413 156t-144 448q0 259 98 463t273 318t397 114z" />
    <glyph glyph-name="cacute" unicode="&#x107;" horiz-adv-x="944" 
d="M465 1280l369 268q61 -61 86 -135l-402 -215q-34 34 -53 82zM420 -25q-166 0 -254 107.5t-88 310.5q0 194 72 348.5t200.5 241t290.5 86.5q167 0 279 -84q6 -15 6 -39q0 -47 -29 -75.5t-78 -28.5q-30 0 -52 13t-35.5 31t-28 36.5t-39 31.5t-58.5 13q-92 0 -170 -75
t-123 -205t-45 -284q0 -149 55 -228t158 -79q78 0 144 27.5t135 89.5l45 -96q-91 -76 -180.5 -109t-204.5 -33z" />
    <glyph glyph-name="Ccircumflex" unicode="&#x108;" horiz-adv-x="1292" 
d="M894 1708l-249 -154q-36 32 -53 82l326 248l256 -252q-25 -45 -66 -78zM862 1358q-161 0 -286.5 -98t-195 -275.5t-69.5 -404.5q0 -238 98 -371t275 -133q164 0 252 73.5t129 245.5l106 -8l-45 -313q-225 -107 -458 -107q-269 0 -413 156t-144 448q0 259 98 463t273 318
t397 114q104 0 230.5 -23.5t195.5 -23.5q-11 -153 -50 -344l-110 -8q0 158 -64.5 224.5t-218.5 66.5z" />
    <glyph glyph-name="ccircumflex" unicode="&#x109;" horiz-adv-x="944" 
d="M657 1370l-249 -153q-38 34 -54 81l326 248l256 -252q-24 -43 -66 -77zM641 1069q167 0 279 -84q6 -15 6 -39q0 -47 -29 -75.5t-78 -28.5q-30 0 -52 13t-35.5 31t-28 36.5t-39 31.5t-58.5 13q-92 0 -170 -75t-123 -205t-45 -284q0 -149 55 -228t158 -79q78 0 144 27.5
t135 89.5l45 -96q-91 -76 -180.5 -109t-204.5 -33q-166 0 -254 107.5t-88 310.5q0 194 72 348.5t200.5 241t290.5 86.5z" />
    <glyph glyph-name="Cdotaccent" unicode="&#x10a;" horiz-adv-x="1292" 
d="M772 1696q0 65 39 105t102 40q43 0 72 -30t29 -74q0 -65 -39.5 -105.5t-102.5 -40.5q-43 0 -71.5 30.5t-28.5 74.5zM879 1466q104 0 230.5 -23.5t195.5 -23.5q-11 -153 -50 -344l-110 -8q0 158 -64.5 224.5t-218.5 66.5q-161 0 -286.5 -98t-195 -275.5t-69.5 -404.5
q0 -238 98 -371t275 -133q164 0 252 73.5t129 245.5l106 -8l-45 -313q-225 -107 -458 -107q-269 0 -413 156t-144 448q0 259 98 463t273 318t397 114z" />
    <glyph glyph-name="cdotaccent" unicode="&#x10b;" horiz-adv-x="944" 
d="M539 1358q0 65 39 105t102 40q43 0 71.5 -30t28.5 -74q0 -65 -39 -105.5t-102 -40.5q-43 0 -71.5 30.5t-28.5 74.5zM420 -25q-166 0 -254 107.5t-88 310.5q0 194 72 348.5t200.5 241t290.5 86.5q167 0 279 -84q6 -15 6 -39q0 -47 -29 -75.5t-78 -28.5q-30 0 -52 13
t-35.5 31t-28 36.5t-39 31.5t-58.5 13q-92 0 -170 -75t-123 -205t-45 -284q0 -149 55 -228t158 -79q78 0 144 27.5t135 89.5l45 -96q-91 -76 -180.5 -109t-204.5 -33z" />
    <glyph glyph-name="Ccaron" unicode="&#x10c;" horiz-adv-x="1292" 
d="M870 1546l-245 252q26 47 65 78l204 -153l239 153q36 -32 53 -82zM862 1358q-161 0 -286.5 -98t-195 -275.5t-69.5 -404.5q0 -238 98 -371t275 -133q164 0 252 73.5t129 245.5l106 -8l-45 -313q-225 -107 -458 -107q-269 0 -413 156t-144 448q0 259 98 463t273 318
t397 114q104 0 230.5 -23.5t195.5 -23.5q-11 -153 -50 -344l-110 -8q0 158 -64.5 224.5t-218.5 66.5z" />
    <glyph glyph-name="ccaron" unicode="&#x10d;" horiz-adv-x="944" 
d="M637 1208l-246 252q25 45 66 78l203 -153l239 153q36 -32 53 -82zM641 1069q167 0 279 -84q6 -15 6 -39q0 -47 -29 -75.5t-78 -28.5q-30 0 -52 13t-35.5 31t-28 36.5t-39 31.5t-58.5 13q-92 0 -170 -75t-123 -205t-45 -284q0 -149 55 -228t158 -79q78 0 144 27.5
t135 89.5l45 -96q-91 -76 -180.5 -109t-204.5 -33q-166 0 -254 107.5t-88 310.5q0 194 72 348.5t200.5 241t290.5 86.5z" />
    <glyph glyph-name="Dcaron" unicode="&#x10e;" horiz-adv-x="1435" 
d="M836 1546l-246 252q26 47 65 78l204 -153l239 153q36 -32 53 -82zM739 1442q300 0 458.5 -151.5t158.5 -438.5q0 -190 -60 -350t-166.5 -272t-259.5 -175t-333 -63q-69 0 -207.5 4t-223.5 4h-96l13 78l79 14q49 9 69.5 29.5t27.5 66.5l149 1057q3 18 3 31q0 32 -21 46
t-84 26l-43 8l4 78h102q85 0 223 4t207 4zM518 90q289 0 463 206.5t174 549.5q0 236 -114.5 366.5t-321.5 130.5q-96 0 -174 -12l-160 -1132q-3 -18 -3 -32q0 -44 29.5 -60.5t106.5 -16.5z" />
    <glyph glyph-name="dcaron" unicode="&#x10f;" horiz-adv-x="1181" 
d="M1237 1538q77 -3 143 -27q-37 -198 -114 -358q-57 3 -103 27q56 199 74 358zM1001 1518q53 0 68.5 -14t15.5 -60q0 -38 -14 -133l-174 -1100q-5 -35 -5 -54q0 -38 17 -52.5t58 -14.5q29 0 69 4l-4 -76q-100 -38 -176 -38q-73 0 -107 26.5t-34 85.5q0 102 88 379h-3
q-35 -109 -78 -195.5t-98 -156t-124 -107t-148 -37.5q-143 0 -211.5 88t-68.5 271q0 145 43.5 281t116 235t171.5 159t205 60q156 0 235 -118q10 114 44 333q6 39 6 62q0 24 -8 33.5t-27 9.5q-34 0 -94 -17v76q50 30 117.5 50t119.5 20zM381 94q49 0 112.5 50t125.5 136.5
t114.5 221.5t75.5 286l7 44q-27 59 -74.5 94t-102.5 35q-100 0 -187 -86.5t-138.5 -233t-51.5 -315.5q0 -119 29 -175.5t90 -56.5z" />
    <glyph glyph-name="Dcroat" unicode="&#x110;" horiz-adv-x="1435" 
d="M739 1442q300 0 458.5 -151.5t158.5 -438.5q0 -190 -60 -350t-166.5 -272t-259.5 -175t-333 -63q-69 0 -207.5 4t-223.5 4h-96l13 78l79 14q49 9 69.5 29.5t27.5 66.5l70 498h-148l14 100h148l65 459q3 18 3 31q0 32 -21 46t-84 26l-43 8l4 78h102q85 0 223 4t207 4z
M518 90q289 0 463 206.5t174 549.5q0 236 -114.5 366.5t-321.5 130.5q-96 0 -174 -12l-77 -545h286l-15 -100h-285l-69 -487q-3 -18 -3 -32q0 -44 29.5 -60.5t106.5 -16.5z" />
    <glyph glyph-name="dcroat" unicode="&#x111;" horiz-adv-x="1161" 
d="M1052 1188l-155 -977q-5 -37 -5 -55q0 -38 17 -52t58 -14q29 0 69 4l-4 -76q-102 -39 -176 -39q-73 0 -107 27t-34 86q0 102 88 379h-3q-35 -109 -78 -195.5t-98 -156t-124 -107t-148 -37.5q-143 0 -211.5 88t-68.5 271q0 145 43.5 281t116 235t171.5 159t205 60
q156 0 235 -118q7 85 29 237h-282l12 92h284l1 4q6 42 6 65q0 48 -35 48q-34 0 -94 -17v68q50 30 117.5 50t119.5 20q53 0 68.5 -14t15.5 -60q0 -38 -14 -133l-5 -31h130l-12 -92h-132zM381 94q49 0 112.5 50t125.5 136.5t114.5 221.5t75.5 286l7 44q-27 59 -74.5 94
t-102.5 35q-100 0 -187 -86.5t-138.5 -233t-51.5 -315.5q0 -119 29 -175.5t90 -56.5z" />
    <glyph glyph-name="Emacron" unicode="&#x112;" horiz-adv-x="1234" 
d="M1036 1645h-516l17 114h516zM1165 1081l-123 -8q2 70 -1 112.5t-12 74t-29.5 46t-49.5 21t-76 6.5h-329l-78 -551h264q54 0 77 22.5t46 96.5l14 45l107 4l-64 -450l-104 4v90q0 44 -21.5 65t-68.5 21h-264l-68 -485q-2 -20 -2 -28q0 -40 30 -53.5t115 -13.5h215
q59 0 94 9t63 39t46 77.5t39 134.5l121 -8q-17 -187 -66 -352h-1030l13 78l79 14q49 9 69.5 29.5t27.5 66.5l149 1057q3 18 3 31q0 32 -21 46t-84 26l-43 8l4 78h993q0 -159 -35 -353z" />
    <glyph glyph-name="emacron" unicode="&#x113;" horiz-adv-x="1011" 
d="M881 1307h-516l16 114h516zM334 440q-32 0 -65 5q-1 -14 -1 -42q0 -157 62.5 -232t171.5 -75q90 0 157.5 27.5t137.5 89.5l45 -96q-92 -76 -184 -109t-218 -33q-180 0 -271 107t-91 311q0 194 72 348.5t200.5 241t290.5 86.5q149 0 227 -61t78 -177q0 -186 -160 -288.5
t-452 -102.5zM606 967q-118 0 -208.5 -118.5t-118.5 -302.5q28 -3 55 -3q198 0 314 76t116 206q0 69 -40.5 105.5t-117.5 36.5z" />
    <glyph glyph-name="Ebreve" unicode="&#x114;" horiz-adv-x="1234" 
d="M774 1569q-104 0 -168.5 56t-83.5 163q14 14 45.5 26.5t53.5 12.5q30 -137 170 -137q63 0 107.5 32t82.5 105q22 0 50.5 -12.5t39.5 -26.5q-51 -112 -123.5 -165.5t-173.5 -53.5zM1165 1081l-123 -8q2 70 -1 112.5t-12 74t-29.5 46t-49.5 21t-76 6.5h-329l-78 -551h264
q54 0 77 22.5t46 96.5l14 45l107 4l-64 -450l-104 4v90q0 44 -21.5 65t-68.5 21h-264l-68 -485q-2 -20 -2 -28q0 -40 30 -53.5t115 -13.5h215q59 0 94 9t63 39t46 77.5t39 134.5l121 -8q-17 -187 -66 -352h-1030l13 78l79 14q49 9 69.5 29.5t27.5 66.5l149 1057q3 18 3 31
q0 32 -21 46t-84 26l-43 8l4 78h993q0 -159 -35 -353z" />
    <glyph glyph-name="ebreve" unicode="&#x115;" horiz-adv-x="1011" 
d="M623 1231q-104 0 -168.5 56t-83.5 163q14 14 45.5 26.5t52.5 12.5q30 -137 170 -137q63 0 107.5 32t82.5 105q22 0 51 -12.5t40 -26.5q-51 -112 -123.5 -165.5t-173.5 -53.5zM334 440q-32 0 -65 5q-1 -14 -1 -42q0 -157 62.5 -232t171.5 -75q90 0 157.5 27.5t137.5 89.5
l45 -96q-92 -76 -184 -109t-218 -33q-180 0 -271 107t-91 311q0 194 72 348.5t200.5 241t290.5 86.5q149 0 227 -61t78 -177q0 -186 -160 -288.5t-452 -102.5zM606 967q-118 0 -208.5 -118.5t-118.5 -302.5q28 -3 55 -3q198 0 314 76t116 206q0 69 -40.5 105.5t-117.5 36.5z
" />
    <glyph glyph-name="Edotaccent" unicode="&#x116;" horiz-adv-x="1234" 
d="M766 1591q-43 0 -71.5 30.5t-28.5 74.5q0 65 39 105t102 40q43 0 71.5 -30t28.5 -74q0 -65 -39 -105.5t-102 -40.5zM1165 1081l-123 -8q2 70 -1 112.5t-12 74t-29.5 46t-49.5 21t-76 6.5h-329l-78 -551h264q54 0 77 22.5t46 96.5l14 45l107 4l-64 -450l-104 4v90
q0 44 -21.5 65t-68.5 21h-264l-68 -485q-2 -20 -2 -28q0 -40 30 -53.5t115 -13.5h215q59 0 94 9t63 39t46 77.5t39 134.5l121 -8q-17 -187 -66 -352h-1030l13 78l79 14q49 9 69.5 29.5t27.5 66.5l149 1057q3 18 3 31q0 32 -21 46t-84 26l-43 8l4 78h993q0 -159 -35 -353z
" />
    <glyph glyph-name="edotaccent" unicode="&#x117;" horiz-adv-x="1011" 
d="M614 1253q-43 0 -71.5 30.5t-28.5 74.5q0 65 39 105t102 40q43 0 72 -30t29 -74q0 -65 -39.5 -105.5t-102.5 -40.5zM334 440q-32 0 -65 5q-1 -14 -1 -42q0 -157 62.5 -232t171.5 -75q90 0 157.5 27.5t137.5 89.5l45 -96q-92 -76 -184 -109t-218 -33q-180 0 -271 107
t-91 311q0 194 72 348.5t200.5 241t290.5 86.5q149 0 227 -61t78 -177q0 -186 -160 -288.5t-452 -102.5zM606 967q-118 0 -208.5 -118.5t-118.5 -302.5q28 -3 55 -3q198 0 314 76t116 206q0 69 -40.5 105.5t-117.5 36.5z" />
    <glyph glyph-name="Eogonek" unicode="&#x118;" horiz-adv-x="1234" 
d="M1165 1081l-123 -8q2 70 -1 112.5t-12 74t-29.5 46t-49.5 21t-76 6.5h-329l-78 -551h264q54 0 77 22.5t46 96.5l14 45l107 4l-64 -450l-104 4v90q0 44 -21.5 65t-68.5 21h-264l-68 -485q-2 -20 -2 -28q0 -40 30 -53.5t115 -13.5h215q59 0 94 9t63 39t46 77.5t39 134.5
l121 -8q-17 -187 -66 -352q-109 0 -191.5 -69t-82.5 -160q0 -44 23 -71.5t61 -27.5q61 0 113 49q21 -35 24 -71q-84 -72 -205 -72q-75 0 -121.5 45.5t-46.5 118.5q0 86 55.5 156t147.5 102h-807l13 78l79 14q49 9 69.5 29.5t27.5 66.5l149 1057q3 18 3 31q0 32 -21 46
t-84 26l-43 8l4 78h993q0 -159 -35 -353z" />
    <glyph glyph-name="eogonek" unicode="&#x119;" horiz-adv-x="1011" 
d="M334 440q-32 0 -65 5q-1 -14 -1 -42q0 -157 62.5 -232t171.5 -75q90 0 157.5 27.5t137.5 89.5l47 -102q-291 -179 -291 -334q0 -50 22 -77.5t62 -27.5q61 0 113 49q21 -35 24 -71q-84 -72 -205 -72q-75 0 -121.5 45.5t-46.5 118.5t39 138t103 101q-48 -6 -103 -6
q-180 0 -271 107t-91 311q0 194 72 348.5t200.5 241t290.5 86.5q149 0 227 -61t78 -177q0 -186 -160 -288.5t-452 -102.5zM606 967q-118 0 -208.5 -118.5t-118.5 -302.5q28 -3 55 -3q198 0 314 76t116 206q0 69 -40.5 105.5t-117.5 36.5z" />
    <glyph glyph-name="Ecaron" unicode="&#x11a;" horiz-adv-x="1234" 
d="M764 1546l-246 252q25 45 66 78l203 -153l239 153q36 -32 53 -82zM1165 1081l-123 -8q2 70 -1 112.5t-12 74t-29.5 46t-49.5 21t-76 6.5h-329l-78 -551h264q54 0 77 22.5t46 96.5l14 45l107 4l-64 -450l-104 4v90q0 44 -21.5 65t-68.5 21h-264l-68 -485q-2 -20 -2 -28
q0 -40 30 -53.5t115 -13.5h215q59 0 94 9t63 39t46 77.5t39 134.5l121 -8q-17 -187 -66 -352h-1030l13 78l79 14q49 9 69.5 29.5t27.5 66.5l149 1057q3 18 3 31q0 32 -21 46t-84 26l-43 8l4 78h993q0 -159 -35 -353z" />
    <glyph glyph-name="ecaron" unicode="&#x11b;" horiz-adv-x="1011" 
d="M612 1208l-245 252q26 47 65 78l204 -153l238 153q37 -34 54 -82zM334 440q-32 0 -65 5q-1 -14 -1 -42q0 -157 62.5 -232t171.5 -75q90 0 157.5 27.5t137.5 89.5l45 -96q-92 -76 -184 -109t-218 -33q-180 0 -271 107t-91 311q0 194 72 348.5t200.5 241t290.5 86.5
q149 0 227 -61t78 -177q0 -186 -160 -288.5t-452 -102.5zM606 967q-118 0 -208.5 -118.5t-118.5 -302.5q28 -3 55 -3q198 0 314 76t116 206q0 69 -40.5 105.5t-117.5 36.5z" />
    <glyph glyph-name="Gcircumflex" unicode="&#x11c;" horiz-adv-x="1437" 
d="M904 1708l-249 -154q-36 32 -53 82l326 248l256 -252q-25 -45 -66 -78zM1403 696l-12 -78l-74 -12q-48 -8 -68.5 -29.5t-27.5 -68.5l-64 -455q-233 -86 -489 -86q-269 0 -413 156t-144 448q0 259 98 463t275.5 318t404.5 114q111 0 244.5 -23.5t201.5 -23.5
q-12 -161 -49 -344l-110 -8q0 157 -71 224t-233 67q-166 0 -294 -98.5t-197.5 -275.5t-69.5 -404q0 -235 98 -367.5t275 -132.5q179 0 305 67l51 361q3 18 3 31q0 32 -20.5 45.5t-84.5 25.5l-43 8l4 78h504z" />
    <glyph glyph-name="gcircumflex" unicode="&#x11d;" horiz-adv-x="1069" 
d="M630 1370l-249 -153q-36 33 -53 81l325 248l256 -252q-25 -45 -65 -77zM1083 1051q9 -27 9 -47q0 -44 -28 -69.5t-77 -25.5q-73 0 -200 45q51 -21 84.5 -83t33.5 -136q0 -161 -124.5 -268t-313.5 -107q-91 0 -165 33q-62 -41 -62 -102q0 -43 34 -67t113 -36l191 -28
q177 -27 251 -79.5t74 -152.5q0 -169 -148 -274t-386 -105q-197 0 -307.5 68.5t-110.5 189.5q0 106 69.5 176.5t201.5 99.5q-128 44 -128 159q0 66 35.5 110.5t112.5 74.5q-117 85 -117 243q0 178 122.5 288.5t319.5 110.5q112 0 194 -45q136 1 322 27zM481 455
q109 0 178.5 87.5t69.5 225.5q0 99 -46 153t-130 54q-112 0 -181 -84t-69 -219q0 -97 49.5 -157t128.5 -60zM725 -121q0 56 -34 87.5t-120 53t-262 43.5q-88 -33 -136 -93t-48 -138q0 -89 70.5 -143t187.5 -54q149 0 245.5 69t96.5 175z" />
    <glyph glyph-name="Gbreve" unicode="&#x11e;" horiz-adv-x="1437" 
d="M891 1569q-104 0 -168.5 56t-83.5 163q14 14 45.5 26.5t52.5 12.5q30 -137 170 -137q63 0 108 32t83 105q22 0 50.5 -12.5t39.5 -26.5q-51 -112 -123.5 -165.5t-173.5 -53.5zM1403 696l-12 -78l-74 -12q-48 -8 -68.5 -29.5t-27.5 -68.5l-64 -455q-233 -86 -489 -86
q-269 0 -413 156t-144 448q0 259 98 463t275.5 318t404.5 114q111 0 244.5 -23.5t201.5 -23.5q-12 -161 -49 -344l-110 -8q0 157 -71 224t-233 67q-166 0 -294 -98.5t-197.5 -275.5t-69.5 -404q0 -235 98 -367.5t275 -132.5q179 0 305 67l51 361q3 18 3 31q0 32 -20.5 45.5
t-84.5 25.5l-43 8l4 78h504z" />
    <glyph glyph-name="gbreve" unicode="&#x11f;" horiz-adv-x="1069" 
d="M621 1231q-104 0 -168.5 56t-83.5 163q14 14 45.5 26.5t52.5 12.5q30 -137 170 -137q63 0 107.5 32t82.5 105q22 0 51 -12.5t40 -26.5q-51 -112 -123.5 -165.5t-173.5 -53.5zM1083 1051q9 -27 9 -47q0 -44 -28 -69.5t-77 -25.5q-73 0 -200 45q51 -21 84.5 -83t33.5 -136
q0 -161 -124.5 -268t-313.5 -107q-91 0 -165 33q-62 -41 -62 -102q0 -43 34 -67t113 -36l191 -28q177 -27 251 -79.5t74 -152.5q0 -169 -148 -274t-386 -105q-197 0 -307.5 68.5t-110.5 189.5q0 106 69.5 176.5t201.5 99.5q-128 44 -128 159q0 66 35.5 110.5t112.5 74.5
q-117 85 -117 243q0 178 122.5 288.5t319.5 110.5q112 0 194 -45q136 1 322 27zM481 455q109 0 178.5 87.5t69.5 225.5q0 99 -46 153t-130 54q-112 0 -181 -84t-69 -219q0 -97 49.5 -157t128.5 -60zM725 -121q0 56 -34 87.5t-120 53t-262 43.5q-88 -33 -136 -93t-48 -138
q0 -89 70.5 -143t187.5 -54q149 0 245.5 69t96.5 175z" />
    <glyph glyph-name="Gdotaccent" unicode="&#x120;" horiz-adv-x="1437" 
d="M883 1591q-43 0 -72 30.5t-29 74.5q0 64 39.5 104.5t102.5 40.5q43 0 71.5 -30t28.5 -74q0 -65 -39 -105.5t-102 -40.5zM1403 696l-12 -78l-74 -12q-48 -8 -68.5 -29.5t-27.5 -68.5l-64 -455q-233 -86 -489 -86q-269 0 -413 156t-144 448q0 259 98 463t275.5 318
t404.5 114q111 0 244.5 -23.5t201.5 -23.5q-12 -161 -49 -344l-110 -8q0 157 -71 224t-233 67q-166 0 -294 -98.5t-197.5 -275.5t-69.5 -404q0 -235 98 -367.5t275 -132.5q179 0 305 67l51 361q3 18 3 31q0 32 -20.5 45.5t-84.5 25.5l-43 8l4 78h504z" />
    <glyph glyph-name="gdotaccent" unicode="&#x121;" horiz-adv-x="1069" 
d="M612 1253q-43 0 -71.5 30.5t-28.5 74.5q0 65 39 105t102 40q43 0 72 -30t29 -74q0 -65 -39.5 -105.5t-102.5 -40.5zM1083 1051q9 -27 9 -47q0 -44 -28 -69.5t-77 -25.5q-73 0 -200 45q51 -21 84.5 -83t33.5 -136q0 -161 -124.5 -268t-313.5 -107q-91 0 -165 33
q-62 -41 -62 -102q0 -43 34 -67t113 -36l191 -28q177 -27 251 -79.5t74 -152.5q0 -169 -148 -274t-386 -105q-197 0 -307.5 68.5t-110.5 189.5q0 106 69.5 176.5t201.5 99.5q-128 44 -128 159q0 66 35.5 110.5t112.5 74.5q-117 85 -117 243q0 178 122.5 288.5t319.5 110.5
q112 0 194 -45q136 1 322 27zM481 455q109 0 178.5 87.5t69.5 225.5q0 99 -46 153t-130 54q-112 0 -181 -84t-69 -219q0 -97 49.5 -157t128.5 -60zM725 -121q0 56 -34 87.5t-120 53t-262 43.5q-88 -33 -136 -93t-48 -138q0 -89 70.5 -143t187.5 -54q149 0 245.5 69t96.5 175
z" />
    <glyph glyph-name="Gcommaaccent" unicode="&#x122;" horiz-adv-x="1437" 
d="M1403 696l-12 -78l-74 -12q-48 -8 -68.5 -29.5t-27.5 -68.5l-64 -455q-233 -86 -489 -86q-269 0 -413 156t-144 448q0 259 98 463t275.5 318t404.5 114q111 0 244.5 -23.5t201.5 -23.5q-12 -161 -49 -344l-110 -8q0 157 -71 224t-233 67q-166 0 -294 -98.5t-197.5 -275.5
t-69.5 -404q0 -235 98 -367.5t275 -132.5q179 0 305 67l51 361q3 18 3 31q0 32 -20.5 45.5t-84.5 25.5l-43 8l4 78h504zM657 -82q41 0 64.5 -29.5t23.5 -81.5q0 -104 -59 -174t-170 -98q-18 16 -24 45q50 20 76.5 50t36.5 81q-29 8 -46.5 34t-17.5 62q0 50 32 80.5t84 30.5z
" />
    <glyph glyph-name="gcommaaccent" unicode="&#x123;" horiz-adv-x="1069" 
d="M610 1208q-41 0 -64.5 29.5t-23.5 81.5q0 104 59.5 174t170.5 98q18 -16 24 -45q-50 -20 -76.5 -49.5t-36.5 -80.5q29 -8 46.5 -34t17.5 -63q0 -50 -32.5 -80.5t-84.5 -30.5zM1083 1051q9 -27 9 -47q0 -44 -28 -69.5t-77 -25.5q-73 0 -200 45q51 -21 84.5 -83t33.5 -136
q0 -161 -124.5 -268t-313.5 -107q-91 0 -165 33q-62 -41 -62 -102q0 -43 34 -67t113 -36l191 -28q177 -27 251 -79.5t74 -152.5q0 -169 -148 -274t-386 -105q-197 0 -307.5 68.5t-110.5 189.5q0 106 69.5 176.5t201.5 99.5q-128 44 -128 159q0 66 35.5 110.5t112.5 74.5
q-117 85 -117 243q0 178 122.5 288.5t319.5 110.5q112 0 194 -45q136 1 322 27zM481 455q109 0 178.5 87.5t69.5 225.5q0 99 -46 153t-130 54q-112 0 -181 -84t-69 -219q0 -97 49.5 -157t128.5 -60zM725 -121q0 56 -34 87.5t-120 53t-262 43.5q-88 -33 -136 -93t-48 -138
q0 -89 70.5 -143t187.5 -54q149 0 245.5 69t96.5 175z" />
    <glyph glyph-name="Hcircumflex" unicode="&#x124;" horiz-adv-x="1503" 
d="M911 1708l-249 -154q-37 34 -54 82l326 248l256 -252q-25 -45 -66 -78zM1534 1434l-12 -78l-95 -13q-48 -7 -68.5 -29t-27.5 -69l-149 -1057q-3 -18 -3 -31q0 -32 21 -45t84 -24l59 -10l-12 -78h-522l12 78l80 14q49 9 69 29.5t27 66.5l70 494h-614l-70 -494
q-3 -18 -3 -31q0 -32 21 -45t84 -24l60 -10l-13 -78h-522l13 78l79 14q49 9 69.5 29.5t27.5 66.5l149 1057q3 18 3 31q0 32 -21 46t-84 26l-43 8l4 78h528l-12 -78l-94 -13q-48 -7 -69 -29t-28 -69l-64 -457h614l65 457q3 18 3 31q0 33 -22 47t-84 25l-47 8l13 78h524z" />
    <glyph glyph-name="hcircumflex" unicode="&#x125;" horiz-adv-x="1155" 
d="M378 1708l-249 -154q-36 32 -53 82l325 248l256 -252q-26 -47 -65 -78zM961 90q29 0 69 4l-4 -76q-102 -39 -176 -39q-82 0 -117 27.5t-35 94.5q0 35 9 83l108 617q6 33 6 58q0 91 -84 91q-50 0 -115.5 -50t-130 -136.5t-118 -221.5t-74.5 -286l-35 -256h-180l180 1284
q6 39 6 62q0 24 -7.5 33.5t-26.5 9.5q-36 0 -95 -17v76q50 30 118 50t120 20q53 0 68.5 -14t15.5 -60q0 -79 -56.5 -395t-99.5 -476h3q36 108 80.5 195.5t100.5 156.5t126 106.5t149 37.5q116 0 176.5 -50t60.5 -143q0 -28 -6 -59l-106 -606q-6 -33 -6 -55q0 -37 17.5 -51.5
t58.5 -14.5z" />
    <glyph glyph-name="Hbar" unicode="&#x126;" horiz-adv-x="1503" 
d="M1522 1356l-95 -13q-48 -7 -68.5 -29t-27.5 -69l-16 -112h160l-15 -101h-159l-119 -844q-3 -18 -3 -31q0 -32 21 -45t84 -24l59 -10l-12 -78h-522l12 78l80 14q49 9 69 29.5t27 66.5l70 494h-614l-70 -494q-3 -18 -3 -31q0 -32 21 -45t84 -24l60 -10l-13 -78h-522l13 78
l79 14q49 9 69.5 29.5t27.5 66.5l119 844h-160l14 101h160l16 112q3 18 3 31q0 32 -21 46t-84 26l-43 8l4 78h528l-12 -78l-94 -13q-48 -7 -69 -29t-28 -69l-15 -112h614l16 112q3 18 3 31q0 33 -22 47t-84 25l-47 8l13 78h524zM1117 1032h-615l-34 -244h614z" />
    <glyph glyph-name="hbar" unicode="&#x127;" horiz-adv-x="1155" 
d="M961 90q29 0 69 4l-4 -76q-100 -38 -176 -38q-82 0 -117 27t-35 94q0 35 9 83l108 617q6 33 6 58q0 91 -84 91q-50 0 -115.5 -50t-130 -136.5t-118 -221.5t-74.5 -286l-35 -256h-180l167 1188h-130l12 92h131v4q6 42 6 65q0 27 -7.5 37.5t-26.5 10.5q-36 0 -95 -17v68
q50 30 118 50t120 20q53 0 68.5 -14t15.5 -60q0 -40 -18 -164h280l-12 -92h-283q-68 -411 -123 -615h3q36 108 80.5 195.5t100.5 156.5t126 106.5t149 37.5q116 0 176.5 -50t60.5 -143q0 -28 -6 -59l-106 -606q-6 -33 -6 -55q0 -37 17.5 -51.5t58.5 -14.5z" />
    <glyph glyph-name="Itilde" unicode="&#x128;" horiz-adv-x="704" 
d="M641 1735q80 0 137 69l23 -75q-26 -50 -82 -83.5t-111 -33.5q-61 0 -129.5 30.5t-107.5 30.5q-81 0 -138 -69l-22 75q26 50 81.5 83.5t110.5 33.5q61 0 130 -30.5t108 -30.5zM723 1356l-94 -13q-48 -7 -69 -29t-28 -69l-149 -1057q-3 -18 -3 -31q0 -32 21 -45t84 -24
l60 -10l-13 -78h-522l13 78l79 14q49 9 69.5 29.5t27.5 66.5l149 1057q3 18 3 31q0 32 -21 46t-84 26l-43 8l4 78h528z" />
    <glyph glyph-name="itilde" unicode="&#x129;" horiz-adv-x="589" 
d="M514 1397q80 0 137 69l23 -75q-26 -50 -82 -83.5t-111 -33.5q-61 0 -129.5 30.5t-107.5 30.5q-81 0 -138 -69l-22 75q26 50 81.5 83.5t110.5 33.5q61 0 130 -30.5t108 -30.5zM362 1069q53 0 68.5 -14t15.5 -60q0 -51 -14 -133l-115 -651q-5 -27 -5 -55q0 -37 17 -51.5
t58 -14.5q30 0 70 4l-4 -76q-100 -38 -177 -38q-82 0 -117 27t-35 94q0 35 9 83l115 652q7 36 7 61q0 24 -8.5 33.5t-27.5 9.5q-38 0 -94 -16v75q50 30 117.5 50t119.5 20z" />
    <glyph glyph-name="Imacron" unicode="&#x12a;" horiz-adv-x="704" 
d="M760 1645h-516l16 114h516zM723 1356l-94 -13q-48 -7 -69 -29t-28 -69l-149 -1057q-3 -18 -3 -31q0 -32 21 -45t84 -24l60 -10l-13 -78h-522l13 78l79 14q49 9 69.5 29.5t27.5 66.5l149 1057q3 18 3 31q0 32 -21 46t-84 26l-43 8l4 78h528z" />
    <glyph glyph-name="imacron" unicode="&#x12b;" horiz-adv-x="589" 
d="M627 1307h-516l16 114h516zM362 1069q53 0 68.5 -14t15.5 -60q0 -51 -14 -133l-115 -651q-5 -27 -5 -55q0 -37 17 -51.5t58 -14.5q30 0 70 4l-4 -76q-100 -38 -177 -38q-82 0 -117 27t-35 94q0 35 9 83l115 652q7 36 7 61q0 24 -8.5 33.5t-27.5 9.5q-38 0 -94 -16v75
q50 30 117.5 50t119.5 20z" />
    <glyph glyph-name="Ibreve" unicode="&#x12c;" horiz-adv-x="704" 
d="M340 1827q30 -137 170 -137q63 0 107.5 32t82.5 105q22 0 51 -12.5t40 -26.5q-51 -112 -123.5 -165.5t-173.5 -53.5q-104 0 -168.5 56t-83.5 163q14 14 45.5 26.5t52.5 12.5zM723 1356l-94 -13q-48 -7 -69 -29t-28 -69l-149 -1057q-3 -18 -3 -31q0 -32 21 -45t84 -24
l60 -10l-13 -78h-522l13 78l79 14q49 9 69.5 29.5t27.5 66.5l149 1057q3 18 3 31q0 32 -21 46t-84 26l-43 8l4 78h528z" />
    <glyph glyph-name="ibreve" unicode="&#x12d;" horiz-adv-x="589" 
d="M215 1489q30 -137 170 -137q63 0 107.5 32t82.5 105q22 0 51 -12.5t40 -26.5q-51 -112 -123.5 -165.5t-173.5 -53.5q-104 0 -168.5 56t-83.5 163q14 14 45.5 26.5t52.5 12.5zM362 1069q53 0 68.5 -14t15.5 -60q0 -51 -14 -133l-115 -651q-5 -27 -5 -55q0 -37 17 -51.5
t58 -14.5q30 0 70 4l-4 -76q-100 -38 -177 -38q-82 0 -117 27t-35 94q0 35 9 83l115 652q7 36 7 61q0 24 -8.5 33.5t-27.5 9.5q-38 0 -94 -16v75q50 30 117.5 50t119.5 20z" />
    <glyph glyph-name="Iogonek" unicode="&#x12e;" horiz-adv-x="704" 
d="M735 1434l-12 -78l-94 -13q-48 -7 -69 -29t-28 -69l-149 -1057q-3 -18 -3 -31q0 -32 21 -45t84 -24l60 -10l-13 -78q-109 0 -191.5 -69t-82.5 -160q0 -44 23 -71.5t61 -27.5q61 0 113 49q21 -35 24 -71q-84 -72 -205 -72q-75 0 -121.5 45.5t-46.5 118.5q0 86 55.5 156
t147.5 102h-299l13 78l79 14q49 9 69.5 29.5t27.5 66.5l149 1057q3 18 3 31q0 32 -21 46t-84 26l-43 8l4 78h528z" />
    <glyph glyph-name="iogonek" unicode="&#x12f;" horiz-adv-x="589" 
d="M401 1505q44 0 73.5 -30t29.5 -76q0 -66 -40 -107t-104 -41q-44 0 -73 30.5t-29 76.5q0 66 39.5 106.5t103.5 40.5zM312 156q0 -37 17 -51.5t58 -14.5q30 0 70 4l-4 -82q-128 -32 -199.5 -95t-71.5 -144q0 -46 23 -73.5t61 -27.5q61 0 113 49q21 -35 24 -71
q-84 -72 -204 -72q-75 0 -121.5 45.5t-46.5 118.5q0 77 47 142.5t128 101.5q-43 10 -62.5 37t-19.5 78q0 35 9 83l115 652q7 36 7 61q0 24 -8.5 33.5t-27.5 9.5q-38 0 -94 -16v75q50 30 117.5 50t119.5 20q53 0 68.5 -14t15.5 -60q0 -51 -14 -133l-115 -651q-5 -27 -5 -55z
" />
    <glyph glyph-name="Idotaccent" unicode="&#x130;" horiz-adv-x="704" 
d="M385 1696q0 65 39 105t102 40q43 0 72 -30t29 -74q0 -65 -39.5 -105.5t-102.5 -40.5q-43 0 -71.5 30.5t-28.5 74.5zM723 1356l-94 -13q-48 -7 -69 -29t-28 -69l-149 -1057q-3 -18 -3 -31q0 -32 21 -45t84 -24l60 -10l-13 -78h-522l13 78l79 14q49 9 69.5 29.5t27.5 66.5
l149 1057q3 18 3 31q0 32 -21 46t-84 26l-43 8l4 78h528z" />
    <glyph glyph-name="dotlessi" unicode="&#x131;" horiz-adv-x="589" 
d="M362 1069q53 0 68.5 -14t15.5 -60q0 -51 -14 -133l-115 -651q-5 -27 -5 -55q0 -37 17 -51.5t58 -14.5q30 0 70 4l-4 -76q-100 -38 -177 -38q-82 0 -117 27t-35 94q0 35 9 83l115 652q7 36 7 61q0 24 -8.5 33.5t-27.5 9.5q-38 0 -94 -16v75q50 30 117.5 50t119.5 20z" />
    <glyph glyph-name="IJ" unicode="&#x132;" horiz-adv-x="1382" 
d="M723 1356l-94 -13q-48 -7 -69 -29t-28 -69l-149 -1057q-3 -18 -3 -31q0 -32 21 -45t84 -24l60 -10l-13 -78h-522l13 78l79 14q49 9 69.5 29.5t27.5 66.5l149 1057q3 18 3 31q0 32 -21 46t-84 26l-43 8l4 78h528zM598 -406q-27 30 -27 80q0 71 78 97q13 4 61.5 14.5
t73.5 26.5q26 17 41 55.5t31.5 126t44.5 287.5l137 964q3 18 3 31q0 32 -21 46.5t-82 25.5l-43 8l4 78h528l-12 -78l-94 -13q-48 -7 -68.5 -29t-27.5 -69l-131 -928q-34 -239 -79.5 -366.5t-127.5 -212.5q-50 -51 -127.5 -90t-161.5 -54z" />
    <glyph glyph-name="ij" unicode="&#x133;" horiz-adv-x="1144" 
d="M258 1358q0 66 39.5 106.5t103.5 40.5q44 0 73.5 -30t29.5 -76q0 -66 -40 -107t-104 -41q-44 0 -73 30.5t-29 76.5zM842 1358q0 66 39.5 106.5t103.5 40.5q44 0 73 -30t29 -76q0 -66 -39.5 -107t-103.5 -41q-44 0 -73 30.5t-29 76.5zM362 1069q53 0 68.5 -14t15.5 -60
q0 -51 -14 -133l-115 -651q-5 -27 -5 -55q0 -37 17 -51.5t58 -14.5q30 0 70 4l-4 -76q-100 -38 -177 -38q-82 0 -117 27t-35 94q0 35 9 83l115 652q7 36 7 61q0 24 -8.5 33.5t-27.5 9.5q-38 0 -94 -16v75q50 30 117.5 50t119.5 20zM709 924v75q50 30 117.5 50t119.5 20
q53 0 68.5 -14t15.5 -60q0 -39 -14 -133l-80 -569q-34 -245 -80.5 -381t-126.5 -219q-50 -52 -126.5 -90.5t-160.5 -53.5q-26 29 -26 80q0 35 18.5 56.5t59.5 35.5q13 4 61.5 14.5t73.5 26.5q37 25 56.5 106t59.5 368l84 600q6 40 6 62q0 24 -7 33t-25 9q-38 0 -94 -16z" />
    <glyph glyph-name="Jcircumflex" unicode="&#x134;" horiz-adv-x="677" 
d="M518 1884l256 -252q-26 -47 -65 -78l-214 154l-249 -154q-36 32 -53 82zM195 1434h528l-12 -78l-95 -13q-48 -7 -68.5 -29t-27.5 -69l-131 -928q-34 -239 -79.5 -366.5t-127.5 -212.5q-50 -52 -127 -90.5t-161 -53.5q-27 30 -27 80q0 71 78 97q13 4 61.5 14.5t73.5 26.5
q26 17 41 55.5t31.5 126t44.5 287.5l137 964q3 18 3 31q0 32 -21.5 46.5t-82.5 25.5l-43 8z" />
    <glyph glyph-name="jcircumflex" unicode="&#x135;" horiz-adv-x="555" 
d="M395 1546l256 -252q-25 -45 -65 -77l-214 153l-249 -153q-36 33 -53 81zM356 1069q53 0 68.5 -14t15.5 -60q0 -39 -14 -133l-80 -569q-34 -245 -80.5 -381t-126.5 -219q-50 -52 -126 -90.5t-160 -53.5q-27 30 -27 80q0 35 18.5 56.5t59.5 35.5q13 4 61.5 14.5t73.5 26.5
q37 25 57 107t60 367l84 600q5 34 5 62q0 24 -7 33t-25 9q-38 0 -94 -16v75q50 30 117.5 50t119.5 20z" />
    <glyph glyph-name="Kcommaaccent" unicode="&#x136;" horiz-adv-x="1257" 
d="M532 0h-522l13 78l79 14q49 9 69.5 29.5t27.5 66.5l149 1057q3 18 3 31q0 32 -21 46t-84 26l-43 8l4 78h528l-12 -78l-94 -13q-48 -7 -69 -29t-28 -69l-149 -1057q-3 -18 -3 -31q0 -32 21 -45t84 -24l60 -10zM1352 1434l-13 -78q-77 -19 -124 -52t-177 -159l-375 -364
q43 -58 80 -122l248 -434q73 -129 187 -147l-13 -76q-40 -14 -98 -14q-95 0 -156 49t-137 186l-145 264q-48 88 -76.5 132.5t-83.5 119.5l457 455q84 84 84 118q0 31 -64 40l-28 4l4 78h430zM645 -82q41 0 64.5 -29t23.5 -81q0 -104 -59.5 -174.5t-169.5 -98.5
q-19 17 -25 45q50 20 77 50.5t37 80.5q-30 8 -47.5 34.5t-17.5 62.5q0 49 32 79.5t85 30.5z" />
    <glyph glyph-name="kcommaaccent" unicode="&#x137;" horiz-adv-x="1019" 
d="M463 1444q0 -32 -15 -133l-184 -1311h-180l180 1284q6 39 6 62q0 24 -7.5 33.5t-26.5 9.5q-36 0 -95 -17v76q50 30 118 50t120 20q53 0 68.5 -14t15.5 -60zM829 913q-36 0 -92 -54t-209 -236q26 -37 107 -185l125 -233q32 -62 61 -88.5t64 -26.5q23 0 43 4l-4 -76
q-65 -39 -136 -39q-75 0 -117.5 42.5t-121.5 197.5l-105 199q-38 72 -92 157l283 330q82 96 136 130t124 34q62 0 109 -20q12 -30 12 -64q0 -46 -25.5 -74t-66.5 -28q-24 0 -50 15t-45 15zM467 -82q41 0 64.5 -29.5t23.5 -81.5q0 -104 -59 -174t-170 -98q-19 17 -25 45
q50 20 76.5 50t36.5 81q-29 8 -46.5 34t-17.5 62q0 50 32.5 80.5t84.5 30.5z" />
    <glyph glyph-name="Lacute" unicode="&#x139;" horiz-adv-x="1175" 
d="M346 1618l369 268q61 -61 86 -135l-402 -215q-34 34 -53 82zM723 1356l-94 -13q-48 -7 -69 -29t-28 -69l-147 -1050q-2 -20 -2 -28q0 -40 30 -53.5t115 -13.5h191q108 0 157 65.5t91 240.5l120 -9q-26 -245 -71 -397h-1006l13 78l79 14q49 9 69.5 29.5t27.5 66.5
l149 1057q3 18 3 31q0 32 -21 46t-84 26l-43 8l4 78h528z" />
    <glyph glyph-name="lacute" unicode="&#x13a;" horiz-adv-x="559" 
d="M184 1686l410 200q48 -69 61 -149l-434 -142q-27 43 -37 91zM397 1518q53 0 68.5 -14t15.5 -60q0 -38 -14 -133l-174 -1100q-5 -35 -5 -54q0 -38 16.5 -52.5t57.5 -14.5q30 0 70 4l-4 -76q-100 -38 -176 -38q-82 0 -116.5 27t-34.5 96q0 31 8 81l174 1100q6 39 6 62
q0 24 -8 33.5t-27 9.5q-34 0 -94 -17v76q50 30 117.5 50t119.5 20z" />
    <glyph glyph-name="Lcommaaccent" unicode="&#x13b;" horiz-adv-x="1175" 
d="M967 406l120 -9q-26 -245 -71 -397h-1006l13 78l79 14q49 9 69.5 29.5t27.5 66.5l149 1057q3 18 3 31q0 32 -21 46t-84 26l-43 8l4 78h528l-12 -78l-94 -13q-48 -7 -69 -29t-28 -69l-147 -1050q-2 -20 -2 -29q0 -40 30 -53t115 -13h191q108 0 157 65.5t91 240.5zM541 -82
q41 0 64.5 -29.5t23.5 -81.5q0 -104 -59.5 -174t-170.5 -98q-18 16 -24 45q50 20 76.5 50t36.5 81q-29 8 -46.5 34t-17.5 62q0 50 32.5 80.5t84.5 30.5z" />
    <glyph glyph-name="lcommaaccent" unicode="&#x13c;" horiz-adv-x="559" 
d="M467 1311l-174 -1100q-5 -35 -5 -54q0 -38 16.5 -52.5t57.5 -14.5q30 0 70 4l-4 -76q-100 -38 -176 -38q-82 0 -116.5 27t-34.5 96q0 31 8 81l174 1100q6 39 6 62q0 24 -8 33.5t-27 9.5q-34 0 -94 -17v76q50 30 117.5 50t119.5 20q53 0 68.5 -14t15.5 -60q0 -38 -14 -133
zM217 -82q41 0 64.5 -29.5t23.5 -81.5q0 -104 -59 -174t-170 -98q-19 17 -25 45q50 20 76.5 50t36.5 81q-29 8 -46.5 34t-17.5 62q0 50 32.5 80.5t84.5 30.5z" />
    <glyph glyph-name="Lcaron" unicode="&#x13d;" horiz-adv-x="1175" 
d="M866 1538q78 -3 144 -27q-36 -195 -115 -358q-56 3 -102 27q54 193 73 358zM723 1356l-94 -13q-48 -7 -69 -29t-28 -69l-147 -1050q-2 -20 -2 -28q0 -40 30 -53.5t115 -13.5h191q108 0 157 65.5t91 240.5l120 -9q-26 -245 -71 -397h-1006l13 78l79 14q49 9 69.5 29.5
t27.5 66.5l149 1057q3 18 3 31q0 32 -21 46t-84 26l-43 8l4 78h528z" />
    <glyph glyph-name="lcaron" unicode="&#x13e;" horiz-adv-x="579" 
d="M633 1538q77 -3 143 -27q-37 -198 -114 -358q-57 3 -103 27q56 199 74 358zM397 1518q53 0 68.5 -14t15.5 -60q0 -38 -14 -133l-174 -1100q-5 -35 -5 -54q0 -38 16.5 -52.5t57.5 -14.5q30 0 70 4l-4 -76q-100 -38 -176 -38q-82 0 -116.5 27t-34.5 96q0 31 8 81l174 1100
q6 39 6 62q0 24 -8 33.5t-27 9.5q-34 0 -94 -17v76q50 30 117.5 50t119.5 20z" />
    <glyph glyph-name="Ldot" unicode="&#x13f;" horiz-adv-x="1206" 
d="M723 1356l-94 -13q-48 -7 -69 -29t-28 -69l-147 -1050q-2 -20 -2 -28q0 -40 30 -53.5t115 -13.5h191q108 0 157 65.5t91 240.5l120 -9q-26 -245 -71 -397h-1006l13 78l79 14q49 9 69.5 29.5t27.5 66.5l149 1057q3 18 3 31q0 32 -21 46t-84 26l-43 8l4 78h528zM840 776
q0 65 39 105.5t102 40.5q43 0 71.5 -30.5t28.5 -74.5q0 -65 -39 -105t-102 -40q-43 0 -71.5 30t-28.5 74z" />
    <glyph glyph-name="ldot" unicode="&#x140;" horiz-adv-x="731" 
d="M397 1518q53 0 68.5 -14t15.5 -60q0 -38 -14 -133l-174 -1100q-5 -35 -5 -54q0 -38 16.5 -52.5t57.5 -14.5q30 0 70 4l-4 -76q-100 -38 -176 -38q-82 0 -116.5 27t-34.5 96q0 31 8 81l174 1100q6 39 6 62q0 24 -8 33.5t-27 9.5q-34 0 -94 -17v76q50 30 117.5 50t119.5 20
zM522 670q0 64 39.5 104.5t102.5 40.5q43 0 71.5 -30t28.5 -74q0 -65 -39 -105.5t-102 -40.5q-43 0 -72 30.5t-29 74.5z" />
    <glyph glyph-name="Lslash" unicode="&#x141;" horiz-adv-x="1175" 
d="M967 406l120 -9q-26 -245 -71 -397h-1006l13 78l79 14q49 9 69.5 29.5t27.5 66.5l29 207q12 91 23 132l-161 -68l16 119l157 65l85 602q3 18 3 31q0 32 -21 46t-84 26l-43 8l4 78h528l-12 -78l-94 -13q-48 -7 -69 -29t-28 -69l-56 -399q-12 -91 -23 -132l467 197
l-17 -118l-461 -195l-57 -403q-2 -20 -2 -29q0 -40 30 -53t115 -13h191q108 0 157 65.5t91 240.5z" />
    <glyph glyph-name="lslash" unicode="&#x142;" horiz-adv-x="593" 
d="M405 727l-81 -516q-6 -42 -6 -54q0 -38 17 -52.5t58 -14.5q30 0 70 4l-4 -76q-100 -38 -176 -38q-82 0 -116.5 27t-34.5 96q0 38 7 81l54 340q11 68 26 133l-156 -65l19 110l149 63l82 519q7 46 7 62q0 24 -8 33.5t-27 9.5q-36 0 -95 -17v76q50 30 118 50t120 20
q53 0 68.5 -14t15.5 -60q0 -38 -14 -133l-54 -342q-12 -76 -27 -134l179 74l-18 -110z" />
    <glyph glyph-name="Nacute" unicode="&#x143;" horiz-adv-x="1509" 
d="M1206 1751l-401 -215q-34 34 -53 82l368 268q61 -61 86 -135zM1554 1434l-12 -78l-94 -13q-48 -7 -68.5 -29t-27.5 -69l-176 -1245h-162l-418 899q-85 183 -128 322q-7 -109 -24 -236l-112 -797q-3 -18 -3 -31q0 -32 21 -45t84 -24l60 -10l-13 -78h-471l13 78l79 14
q49 9 69.5 29.5t27.5 66.5l149 1057q3 18 3 31q0 32 -21 46t-84 26l-43 8l4 78h338l418 -899q80 -171 121 -300q7 103 22 213l113 797q2 12 2 31q0 32 -21 46t-84 26l-43 8l4 78h477z" />
    <glyph glyph-name="nacute" unicode="&#x144;" horiz-adv-x="1183" 
d="M993 1413l-401 -215q-34 34 -53 82l368 268q61 -61 86 -135zM989 90q30 0 70 4l-4 -76q-100 -38 -176 -38q-82 0 -117 27t-35 94q0 40 8 83l109 617q6 33 6 59q0 90 -74 90q-50 0 -116 -50t-132 -136.5t-121.5 -221.5t-78.5 -286l-39 -256h-180l131 836q6 39 6 61
q0 24 -8 33.5t-27 9.5q-38 0 -94 -16v75q50 30 117.5 50t119.5 20q39 0 55.5 -16.5t16.5 -57.5q0 -52 -26 -176.5t-62 -245.5h3q77 225 194 360.5t270 135.5q109 0 168 -50t59 -143q0 -28 -6 -59l-106 -606q-6 -33 -6 -55q0 -37 17 -51.5t58 -14.5z" />
    <glyph glyph-name="Ncommaaccent" unicode="&#x145;" horiz-adv-x="1509" 
d="M1554 1434l-12 -78l-94 -13q-48 -7 -68.5 -29t-27.5 -69l-176 -1245h-162l-418 899q-85 183 -128 322q-7 -109 -24 -236l-112 -797q-3 -18 -3 -31q0 -32 21 -45t84 -24l60 -10l-13 -78h-471l13 78l79 14q49 9 69.5 29.5t27.5 66.5l149 1057q3 18 3 31q0 32 -21 46t-84 26
l-43 8l4 78h338l418 -899q80 -171 121 -300q7 103 22 213l113 797q2 12 2 31q0 32 -21 46t-84 26l-43 8l4 78h477zM653 -82q41 0 64.5 -29.5t23.5 -81.5q0 -104 -59 -174t-170 -98q-19 17 -25 45q50 20 77 50.5t37 80.5q-29 8 -46.5 34t-17.5 62q0 50 32 80.5t84 30.5z" />
    <glyph glyph-name="ncommaaccent" unicode="&#x146;" horiz-adv-x="1183" 
d="M989 90q30 0 70 4l-4 -76q-100 -38 -176 -38q-82 0 -117 27t-35 94q0 40 8 83l109 617q6 33 6 59q0 90 -74 90q-50 0 -116 -50t-132 -136.5t-121.5 -221.5t-78.5 -286l-39 -256h-180l131 836q6 39 6 61q0 24 -8 33.5t-27 9.5q-38 0 -94 -16v75q50 30 117.5 50t119.5 20
q39 0 55.5 -16.5t16.5 -57.5q0 -52 -26 -176.5t-62 -245.5h3q77 225 194 360.5t270 135.5q109 0 168 -50t59 -143q0 -28 -6 -59l-106 -606q-6 -33 -6 -55q0 -37 17 -51.5t58 -14.5zM510 -82q41 0 64.5 -29.5t23.5 -81.5q0 -104 -59 -174t-170 -98q-19 17 -25 45
q50 20 76.5 50t36.5 81q-29 8 -46.5 34t-17.5 62q0 50 32.5 80.5t84.5 30.5z" />
    <glyph glyph-name="Ncaron" unicode="&#x147;" horiz-adv-x="1509" 
d="M893 1546l-246 252q25 45 66 78l203 -153l239 153q36 -32 53 -82zM1554 1434l-12 -78l-94 -13q-48 -7 -68.5 -29t-27.5 -69l-176 -1245h-162l-418 899q-85 183 -128 322q-7 -109 -24 -236l-112 -797q-3 -18 -3 -31q0 -32 21 -45t84 -24l60 -10l-13 -78h-471l13 78l79 14
q49 9 69.5 29.5t27.5 66.5l149 1057q3 18 3 31q0 32 -21 46t-84 26l-43 8l4 78h338l418 -899q80 -171 121 -300q7 103 22 213l113 797q2 12 2 31q0 32 -21 46t-84 26l-43 8l4 78h477z" />
    <glyph glyph-name="ncaron" unicode="&#x148;" horiz-adv-x="1183" 
d="M696 1208l-245 252q26 47 65 78l204 -153l238 153q37 -34 54 -82zM989 90q30 0 70 4l-4 -76q-100 -38 -176 -38q-82 0 -117 27t-35 94q0 40 8 83l109 617q6 33 6 59q0 90 -74 90q-50 0 -116 -50t-132 -136.5t-121.5 -221.5t-78.5 -286l-39 -256h-180l131 836q6 39 6 61
q0 24 -8 33.5t-27 9.5q-38 0 -94 -16v75q50 30 117.5 50t119.5 20q39 0 55.5 -16.5t16.5 -57.5q0 -52 -26 -176.5t-62 -245.5h3q77 225 194 360.5t270 135.5q109 0 168 -50t59 -143q0 -28 -6 -59l-106 -606q-6 -33 -6 -55q0 -37 17 -51.5t58 -14.5z" />
    <glyph glyph-name="napostrophe" unicode="&#x149;" horiz-adv-x="1183" 
d="M303 1434q0 -104 -59.5 -174.5t-169.5 -98.5q-19 17 -25 45q50 20 76.5 50t36.5 81q-29 8 -46.5 34t-17.5 63q0 49 32 79.5t85 30.5q41 0 64.5 -29t23.5 -81zM989 90q30 0 70 4l-4 -76q-100 -38 -176 -38q-82 0 -117 27t-35 94q0 40 8 83l109 617q6 33 6 59q0 90 -74 90
q-50 0 -116 -50t-132 -136.5t-121.5 -221.5t-78.5 -286l-39 -256h-180l131 836q6 39 6 61q0 24 -8 33.5t-27 9.5q-38 0 -94 -16v75q50 30 117.5 50t119.5 20q39 0 55.5 -16.5t16.5 -57.5q0 -52 -26 -176.5t-62 -245.5h3q77 225 194 360.5t270 135.5q109 0 168 -50t59 -143
q0 -28 -6 -59l-106 -606q-6 -33 -6 -55q0 -37 17 -51.5t58 -14.5z" />
    <glyph glyph-name="Eng" unicode="&#x14a;" horiz-adv-x="1509" 
d="M1554 1434l-12 -78l-94 -13q-48 -7 -68.5 -29t-27.5 -69l-131 -928q-34 -239 -79.5 -366.5t-127.5 -212.5q-50 -51 -127.5 -90t-161.5 -54q-27 30 -27 80q0 71 78 97q13 4 61.5 14.5t73.5 26.5q38 25 61 66.5t42 124.5q-37 77 -80 169l-338 727q-85 183 -128 322
q-7 -109 -24 -236l-112 -797q-3 -18 -3 -31q0 -32 21 -45t84 -24l60 -10l-13 -78h-471l13 78l79 14q49 9 69.5 29.5t27.5 66.5l149 1057q3 18 3 31q0 32 -21 46t-84 26l-43 8l4 78h338l418 -899q80 -171 121 -300q7 103 22 213l113 797q2 12 2 31q0 32 -21 46t-84 26l-43 8
l4 78h477z" />
    <glyph glyph-name="eng" unicode="&#x14b;" horiz-adv-x="1146" 
d="M805 1069q110 0 168 -50.5t58 -145.5q0 -23 -5 -56l-82 -524q-38 -243 -86.5 -380t-128.5 -220q-50 -52 -126.5 -90.5t-160.5 -53.5q-26 29 -26 80q0 35 18.5 56.5t59.5 35.5q13 4 61.5 14.5t73.5 26.5q26 17 42 57.5t33.5 127.5t49.5 289l90 565q5 37 5 58q0 91 -73 91
q-50 0 -116 -50t-132 -136.5t-121.5 -221.5t-78.5 -286l-39 -256h-180l131 836q6 39 6 61q0 24 -8 33.5t-27 9.5q-38 0 -94 -16v75q50 30 117.5 50t119.5 20q39 0 55.5 -16.5t16.5 -57.5q0 -52 -26 -176.5t-62 -245.5h3q77 225 194 360.5t270 135.5z" />
    <glyph glyph-name="Omacron" unicode="&#x14c;" horiz-adv-x="1515" 
d="M1161 1645h-516l17 114h516zM877 1466q264 0 411.5 -161t147.5 -451q0 -259 -97 -461t-272.5 -314t-400.5 -112q-258 0 -406.5 167.5t-148.5 457.5q0 254 97 453.5t271.5 310t397.5 110.5zM860 1358q-159 0 -284.5 -97.5t-195 -272t-69.5 -396.5q0 -236 100.5 -376
t270.5 -140q94 0 179 37.5t152.5 108t117.5 165.5t77 215.5t27 253.5q0 236 -99 369t-276 133z" />
    <glyph glyph-name="omacron" unicode="&#x14d;" horiz-adv-x="1126" 
d="M924 1307h-516l16 114h516zM78 395q0 192 71.5 346t199.5 241t288 87q189 0 288 -105.5t99 -306.5q0 -196 -71.5 -352t-199.5 -243t-290 -87q-183 0 -284 110t-101 310zM621 967q-157 0 -255 -162.5t-98 -421.5q0 -142 56.5 -223.5t154.5 -81.5q101 0 182.5 76t127 211.5
t45.5 304.5q0 144 -55 220.5t-158 76.5z" />
    <glyph glyph-name="Obreve" unicode="&#x14e;" horiz-adv-x="1515" 
d="M745 1827q30 -137 170 -137q63 0 108 32t83 105q22 0 50.5 -12.5t39.5 -26.5q-51 -112 -123.5 -165.5t-173.5 -53.5q-104 0 -168.5 56t-83.5 163q14 14 45.5 26.5t52.5 12.5zM877 1466q264 0 411.5 -161t147.5 -451q0 -259 -97 -461t-272.5 -314t-400.5 -112
q-258 0 -406.5 167.5t-148.5 457.5q0 254 97 453.5t271.5 310t397.5 110.5zM860 1358q-159 0 -284.5 -97.5t-195 -272t-69.5 -396.5q0 -236 100.5 -376t270.5 -140q94 0 179 37.5t152.5 108t117.5 165.5t77 215.5t27 253.5q0 236 -99 369t-276 133z" />
    <glyph glyph-name="obreve" unicode="&#x14f;" horiz-adv-x="1126" 
d="M512 1489q30 -137 170 -137q63 0 107.5 32t82.5 105q22 0 51 -12.5t40 -26.5q-51 -112 -123.5 -165.5t-173.5 -53.5q-104 0 -168.5 56t-83.5 163q14 14 45.5 26.5t52.5 12.5zM78 395q0 192 71.5 346t199.5 241t288 87q189 0 288 -105.5t99 -306.5q0 -196 -71.5 -352
t-199.5 -243t-290 -87q-183 0 -284 110t-101 310zM621 967q-157 0 -255 -162.5t-98 -421.5q0 -142 56.5 -223.5t154.5 -81.5q101 0 182.5 76t127 211.5t45.5 304.5q0 144 -55 220.5t-158 76.5z" />
    <glyph glyph-name="Ohungarumlaut" unicode="&#x150;" horiz-adv-x="1515" 
d="M702 1573l123 350q73 -12 133 -57l-165 -332q-50 11 -91 39zM987 1581l154 342q72 -18 127 -70l-195 -319q-45 12 -86 47zM877 1466q264 0 411.5 -161t147.5 -451q0 -259 -97 -461t-272.5 -314t-400.5 -112q-258 0 -406.5 167.5t-148.5 457.5q0 254 97 453.5t271.5 310
t397.5 110.5zM860 1358q-159 0 -284.5 -97.5t-195 -272t-69.5 -396.5q0 -236 100.5 -376t270.5 -140q94 0 179 37.5t152.5 108t117.5 165.5t77 215.5t27 253.5q0 236 -99 369t-276 133z" />
    <glyph glyph-name="ohungarumlaut" unicode="&#x151;" horiz-adv-x="1126" 
d="M457 1235l123 350q73 -12 133 -57l-166 -332q-49 11 -90 39zM741 1243l154 342q74 -19 127 -69l-195 -320q-45 12 -86 47zM78 395q0 192 71.5 346t199.5 241t288 87q189 0 288 -105.5t99 -306.5q0 -196 -71.5 -352t-199.5 -243t-290 -87q-183 0 -284 110t-101 310z
M621 967q-157 0 -255 -162.5t-98 -421.5q0 -142 56.5 -223.5t154.5 -81.5q101 0 182.5 76t127 211.5t45.5 304.5q0 144 -55 220.5t-158 76.5z" />
    <glyph glyph-name="OE" unicode="&#x152;" horiz-adv-x="1986" 
d="M1917 1081l-123 -8q2 70 -1 112.5t-12 74t-29.5 46t-49.5 21t-76 6.5h-330l-77 -551h264q54 0 77 22.5t46 96.5l14 45l106 4l-63 -450l-104 4v90q0 44 -22 65t-69 21h-263l-68 -485q0 -3 -1 -9.5t-1.5 -11t-0.5 -8.5q0 -40 30 -53t116 -13h215q59 0 94 9t63 39t46 77.5
t39 134.5l121 -8q-17 -187 -66 -352h-937q-86 -8 -185 -8q-259 0 -409 160t-150 440q0 186 56 344t155 269.5t241 174t309 62.5q99 0 185 -8h895q0 -159 -35 -353zM964 287l122 860q4 28 4 57q0 73 -45 101t-158 28q-267 0 -421.5 -204.5t-154.5 -536.5q0 -231 104 -361.5
t302 -130.5q130 0 180.5 39t66.5 148z" />
    <glyph glyph-name="oe" unicode="&#x153;" horiz-adv-x="1748" 
d="M1071 440q-32 0 -65 5q-1 0 0 -21v-21q0 -157 62.5 -232t170.5 -75q90 0 157.5 27.5t137.5 89.5l45 -96q-92 -76 -183.5 -109t-217.5 -33q-239 0 -313 213q-73 -101 -175.5 -157t-226.5 -56q-183 0 -284 110t-101 310q0 192 71.5 346t199.5 241t288 87q257 0 335 -214
q73 102 177 158t229 56q149 0 227 -61t78 -177q0 -186 -160 -288.5t-452 -102.5zM479 78q101 0 182.5 76t127 211.5t45.5 304.5q0 144 -55 220.5t-158 76.5q-157 0 -255 -162.5t-98 -421.5q0 -142 56.5 -223.5t154.5 -81.5zM1343 967q-118 0 -208.5 -118.5t-118.5 -302.5
q28 -3 55 -3q198 0 314 76t116 206q0 69 -40.5 105.5t-117.5 36.5z" />
    <glyph glyph-name="Racute" unicode="&#x154;" horiz-adv-x="1267" 
d="M1049 1751l-402 -215q-34 34 -53 82l369 268q61 -61 86 -135zM1045 150q22 -36 52 -51.5t85 -18.5l-13 -76q-40 -16 -114 -16q-103 0 -144.5 33.5t-80.5 148.5l-111 326q-30 88 -70 118.5t-125 30.5q-29 0 -77 -4l-64 -453q-3 -18 -3 -31q0 -32 21 -45t84 -24l60 -10
l-13 -78h-522l13 78l79 14q49 9 69.5 29.5t27.5 66.5l149 1057q3 18 3 31q0 32 -21 46t-84 26l-43 8l4 78h102q85 0 223 4t207 4q420 0 420 -318q0 -175 -102 -288t-284 -142q46 -17 77 -63t71 -148q21 -52 61.5 -173.5t62.5 -159.5zM545 1331l-82 -575q62 -6 147 -6
q157 0 257 98.5t100 253.5q0 241 -248 241q-96 0 -174 -12z" />
    <glyph glyph-name="racute" unicode="&#x155;" horiz-adv-x="827" 
d="M829 1413l-401 -215q-34 34 -53 82l368 268q61 -61 86 -135zM842 1026q6 -18 6 -47q0 -54 -25 -83.5t-69 -29.5q-39 0 -69 21.5t-52 21.5q-47 0 -108 -97.5t-113 -250.5t-74 -305l-37 -256h-178l117 836q5 32 5 61q0 24 -7.5 33.5t-26.5 9.5q-38 0 -94 -16v75
q50 30 117.5 50t119.5 20q39 0 55.5 -16.5t16.5 -57.5q0 -54 -24.5 -179.5t-59.5 -242.5h3q30 102 65 186.5t78 156.5t95 112.5t107 40.5q87 0 152 -43z" />
    <glyph glyph-name="Rcommaaccent" unicode="&#x156;" horiz-adv-x="1267" 
d="M1045 150q22 -36 52 -51.5t85 -18.5l-13 -76q-40 -16 -114 -16q-103 0 -144.5 33.5t-80.5 148.5l-111 326q-30 88 -70 118.5t-125 30.5q-29 0 -77 -4l-64 -453q-3 -18 -3 -31q0 -32 21 -45t84 -24l60 -10l-13 -78h-522l13 78l79 14q49 9 69.5 29.5t27.5 66.5l149 1057
q3 18 3 31q0 32 -21 46t-84 26l-43 8l4 78h102q85 0 223 4t207 4q420 0 420 -318q0 -175 -102 -288t-284 -142q46 -17 77 -63t71 -148q21 -52 61.5 -173.5t62.5 -159.5zM545 1331l-82 -575q62 -6 147 -6q157 0 257 98.5t100 253.5q0 241 -248 241q-96 0 -174 -12zM645 -82
q41 0 64.5 -29.5t23.5 -81.5q0 -104 -59 -174t-170 -98q-19 17 -25 45q50 20 76.5 50t36.5 81q-29 8 -46.5 34t-17.5 62q0 50 32.5 80.5t84.5 30.5z" />
    <glyph glyph-name="rcommaaccent" unicode="&#x157;" horiz-adv-x="827" 
d="M842 1026q6 -18 6 -47q0 -54 -25 -83.5t-69 -29.5q-39 0 -69 21.5t-52 21.5q-47 0 -108 -97.5t-113 -250.5t-74 -305l-37 -256h-178l117 836q5 32 5 61q0 24 -7.5 33.5t-26.5 9.5q-38 0 -94 -16v75q50 30 117.5 50t119.5 20q39 0 55.5 -16.5t16.5 -57.5
q0 -54 -24.5 -179.5t-59.5 -242.5h3q30 102 65 186.5t78 156.5t95 112.5t107 40.5q87 0 152 -43zM199 -82q41 0 64.5 -29.5t23.5 -81.5q0 -104 -59.5 -174t-170.5 -98q-18 16 -24 45q50 20 76.5 50t36.5 81q-29 8 -46.5 34t-17.5 62q0 50 32.5 80.5t84.5 30.5z" />
    <glyph glyph-name="Rcaron" unicode="&#x158;" horiz-adv-x="1267" 
d="M764 1546l-246 252q25 45 66 78l203 -153l239 153q36 -32 53 -82zM1045 150q22 -36 52 -51.5t85 -18.5l-13 -76q-40 -16 -114 -16q-103 0 -144.5 33.5t-80.5 148.5l-111 326q-30 88 -70 118.5t-125 30.5q-29 0 -77 -4l-64 -453q-3 -18 -3 -31q0 -32 21 -45t84 -24l60 -10
l-13 -78h-522l13 78l79 14q49 9 69.5 29.5t27.5 66.5l149 1057q3 18 3 31q0 32 -21 46t-84 26l-43 8l4 78h102q85 0 223 4t207 4q420 0 420 -318q0 -175 -102 -288t-284 -142q46 -17 77 -63t71 -148q21 -52 61.5 -173.5t62.5 -159.5zM545 1331l-82 -575q62 -6 147 -6
q157 0 257 98.5t100 253.5q0 241 -248 241q-96 0 -174 -12z" />
    <glyph glyph-name="rcaron" unicode="&#x159;" horiz-adv-x="827" 
d="M506 1208l-246 252q25 45 66 78l203 -153l239 153q36 -32 53 -82zM842 1026q6 -18 6 -47q0 -54 -25 -83.5t-69 -29.5q-39 0 -69 21.5t-52 21.5q-47 0 -108 -97.5t-113 -250.5t-74 -305l-37 -256h-178l117 836q5 32 5 61q0 24 -7.5 33.5t-26.5 9.5q-38 0 -94 -16v75
q50 30 117.5 50t119.5 20q39 0 55.5 -16.5t16.5 -57.5q0 -54 -24.5 -179.5t-59.5 -242.5h3q30 102 65 186.5t78 156.5t95 112.5t107 40.5q87 0 152 -43z" />
    <glyph glyph-name="Sacute" unicode="&#x15a;" horiz-adv-x="1087" 
d="M510 1618l369 268q61 -61 86 -135l-402 -215q-34 34 -53 82zM643 1466q128 0 251 -25.5t165 -25.5l-53 -323l-107 -5q-9 146 -70.5 213.5t-185.5 67.5q-114 0 -184 -74t-70 -194q0 -65 31.5 -117.5t81.5 -89t111 -70t121.5 -70.5t110.5 -81t81.5 -111t31.5 -151
q0 -203 -132 -323t-355 -120q-283 0 -440 119q9 153 45 299l112 4q-4 -155 68.5 -239t210.5 -84q132 0 218.5 82.5t86.5 209.5q0 69 -31 125t-81 94.5t-110 74t-120.5 72.5t-110.5 79.5t-81 106.5t-31 143q0 183 122 298t314 115z" />
    <glyph glyph-name="sacute" unicode="&#x15b;" horiz-adv-x="894" 
d="M348 1280l369 268q61 -61 86 -135l-402 -215q-34 34 -53 82zM778 766l-96 -6q-15 225 -197 225q-72 0 -119 -49.5t-47 -124.5q0 -48 24 -87.5t63 -66.5t85.5 -52.5t93.5 -54t86 -61.5t63 -83t24 -113q0 -149 -104.5 -233.5t-288.5 -84.5q-221 0 -338 97q6 110 34 225
l101 6q15 -244 223 -244q85 0 140 53.5t55 135.5q0 48 -24 88t-62.5 68.5t-84.5 55.5t-92.5 55.5t-85 62t-62.5 82t-24 108.5q0 138 97.5 219.5t261.5 81.5q82 0 177 -26.5t140 -26.5z" />
    <glyph glyph-name="Scircumflex" unicode="&#x15c;" horiz-adv-x="1087" 
d="M677 1708l-249 -154q-36 32 -53 82l325 248l256 -252q-26 -47 -65 -78zM643 1368q-114 0 -184 -74t-70 -194q0 -65 31.5 -117.5t81.5 -89t111 -70t121.5 -70.5t110.5 -81t81.5 -111t31.5 -151q0 -203 -132 -323t-355 -120q-283 0 -440 119q9 153 45 299l112 4
q-4 -155 68.5 -239t210.5 -84q132 0 218.5 82.5t86.5 209.5q0 69 -31 125t-81 94.5t-110 74t-120.5 72.5t-110.5 79.5t-81 106.5t-31 143q0 183 122 298t314 115q128 0 251 -25.5t165 -25.5l-53 -323l-107 -5q-9 146 -70.5 213.5t-185.5 67.5z" />
    <glyph glyph-name="scircumflex" unicode="&#x15d;" horiz-adv-x="894" 
d="M536 1370l-249 -153q-38 34 -54 81l326 248l256 -252q-25 -45 -65 -77zM485 985q-72 0 -119 -49.5t-47 -124.5q0 -48 24 -87.5t63 -66.5t85.5 -52.5t93.5 -54t86 -61.5t63 -83t24 -113q0 -149 -104.5 -233.5t-288.5 -84.5q-221 0 -338 97q6 110 34 225l101 6
q15 -244 223 -244q85 0 140 53.5t55 135.5q0 48 -24 88t-62.5 68.5t-84.5 55.5t-92.5 55.5t-85 62t-62.5 82t-24 108.5q0 138 97.5 219.5t261.5 81.5q82 0 177 -26.5t140 -26.5l-43 -250l-96 -6q-15 225 -197 225z" />
    <glyph glyph-name="Scedilla" unicode="&#x15e;" horiz-adv-x="1087" 
d="M643 1368q-114 0 -184 -74t-70 -194q0 -65 31.5 -117.5t81.5 -89t111 -70t121.5 -70.5t110.5 -81t81.5 -111t31.5 -151q0 -192 -119 -310t-323 -131l-51 -82q75 0 118.5 -37.5t43.5 -101.5q0 -96 -61.5 -149.5t-172.5 -53.5q-86 0 -143 54q12 39 39 69q49 -43 110 -43
q44 0 68.5 24t24.5 68q0 41 -30 63.5t-87 22.5l-19 39l71 126q-253 9 -396 118q9 153 45 299l112 4q-4 -155 68.5 -239t210.5 -84q132 0 218.5 82.5t86.5 209.5q0 69 -31 125t-81 94.5t-110 74t-120.5 72.5t-110.5 79.5t-81 106.5t-31 143q0 183 122 298t314 115
q128 0 251 -25.5t165 -25.5l-53 -323l-107 -5q-9 146 -70.5 213.5t-185.5 67.5z" />
    <glyph glyph-name="scedilla" unicode="&#x15f;" horiz-adv-x="894" 
d="M485 985q-72 0 -119 -49.5t-47 -124.5q0 -48 24 -87.5t63 -66.5t85.5 -52.5t93.5 -54t86 -61.5t63 -83t24 -113q0 -139 -91.5 -222t-255.5 -94l-57 -90q75 0 118.5 -37.5t43.5 -101.5q0 -97 -61.5 -150t-171.5 -53q-87 0 -144 54q12 39 39 69q49 -43 111 -43q44 0 68 24
t24 68q0 41 -30 63.5t-87 22.5l-18 39l75 134q-190 9 -294 96q6 110 34 225l101 6q15 -244 223 -244q85 0 140 53.5t55 135.5q0 48 -24 88t-62.5 68.5t-84.5 55.5t-92.5 55.5t-85 62t-62.5 82t-24 108.5q0 138 97.5 219.5t261.5 81.5q82 0 177 -26.5t140 -26.5l-43 -250
l-96 -6q-15 225 -197 225z" />
    <glyph glyph-name="Scaron" unicode="&#x160;" horiz-adv-x="1087" 
d="M653 1546l-245 252q26 47 65 78l204 -153l238 153q37 -34 54 -82zM643 1368q-114 0 -184 -74t-70 -194q0 -65 31.5 -117.5t81.5 -89t111 -70t121.5 -70.5t110.5 -81t81.5 -111t31.5 -151q0 -203 -132 -323t-355 -120q-283 0 -440 119q9 153 45 299l112 4
q-4 -155 68.5 -239t210.5 -84q132 0 218.5 82.5t86.5 209.5q0 69 -31 125t-81 94.5t-110 74t-120.5 72.5t-110.5 79.5t-81 106.5t-31 143q0 183 122 298t314 115q128 0 251 -25.5t165 -25.5l-53 -323l-107 -5q-9 146 -70.5 213.5t-185.5 67.5z" />
    <glyph glyph-name="scaron" unicode="&#x161;" horiz-adv-x="894" 
d="M516 1208l-246 252q25 45 66 78l204 -153l238 153q36 -32 53 -82zM145 768q0 138 97.5 219.5t261.5 81.5q82 0 177 -26.5t140 -26.5l-43 -250l-96 -6q-15 225 -197 225q-72 0 -119 -49.5t-47 -124.5q0 -48 24 -87.5t63 -66.5t85.5 -52.5t93.5 -54t86 -61.5t63 -83
t24 -113q0 -149 -104.5 -233.5t-288.5 -84.5q-221 0 -338 97q6 110 34 225l101 6q15 -244 223 -244q85 0 140 53.5t55 135.5q0 48 -24 88t-62.5 68.5t-84.5 55.5t-92.5 55.5t-85 62t-62.5 82t-24 108.5z" />
    <glyph glyph-name="Tcedilla" unicode="&#x162;" horiz-adv-x="1292" 
d="M195 1434h1138q0 -163 -35 -357l-122 -8q2 70 -1 113t-12 75t-29.5 47t-49.5 22t-76 7h-166l-158 -1116q-4 -34 -4 -44q0 -37 21 -53.5t81 -25.5l92 -14l-12 -80h-254l-71 -113q75 0 118 -37t43 -102q0 -97 -61.5 -150t-171.5 -53q-86 0 -143 54q13 40 38 69
q49 -43 111 -43q44 0 68 24t24 68q0 41 -30 63.5t-87 22.5l-18 39l89 158h-243l13 80l112 18q49 8 71 34t30 85l157 1116h-165q-112 0 -156.5 -48.5t-85.5 -215.5l-121 8q17 194 66 357z" />
    <glyph glyph-name="tcedilla" unicode="&#x163;" horiz-adv-x="729" 
d="M429 940l-103 -690q-4 -28 -4 -39q0 -109 114 -109q82 0 168 64l33 -90q-117 -87 -251 -99l-56 -90q75 0 118.5 -37.5t43.5 -101.5q0 -96 -61.5 -149.5t-172.5 -53.5q-86 0 -143 54q12 39 39 69q49 -43 110 -43q44 0 68 24t24 68q0 86 -116 86l-19 39l76 135
q-83 8 -123 50.5t-40 123.5q0 36 5 66l109 723h-137l8 82q18 6 72 14t73 8q40 103 87 187q23 40 37 51.5t40 11.5q23 0 53 -6l-36 -244h317l-14 -104h-319z" />
    <glyph glyph-name="Tcaron" unicode="&#x164;" horiz-adv-x="1292" 
d="M780 1546l-245 252q26 47 65 78l204 -153l238 153q37 -34 54 -82zM195 1434h1138q0 -163 -35 -357l-122 -8q2 70 -1 113t-12 75t-29.5 47t-49.5 22t-76 7h-166l-158 -1116q-4 -34 -4 -44q0 -37 21 -53.5t81 -25.5l92 -14l-12 -80h-588l13 80l112 18q49 8 71 34t30 85
l157 1116h-165q-112 0 -156.5 -48.5t-85.5 -215.5l-121 8q17 194 66 357z" />
    <glyph glyph-name="tcaron" unicode="&#x165;" horiz-adv-x="729" 
d="M805 1511q-36 -195 -115 -358q-56 3 -102 27q56 199 74 358q77 -3 143 -27zM445 1044h317l-14 -104h-319l-103 -690q-4 -28 -4 -39q0 -109 114 -109q82 0 168 64l33 -90q-134 -101 -295 -101q-107 0 -157.5 42.5t-50.5 133.5q0 36 5 66l109 723h-137l8 82q18 6 72 14
t73 8q40 103 87 187q23 40 37 51.5t40 11.5q23 0 53 -6z" />
    <glyph glyph-name="Tbar" unicode="&#x166;" horiz-adv-x="1314" 
d="M205 1434h1138q0 -168 -34 -357l-123 -8q2 70 -1 113t-12 75t-29.5 47t-49.5 22t-76 7h-166l-77 -547h339l-14 -100h-339l-67 -469q-4 -34 -4 -44q0 -37 21.5 -53.5t81.5 -25.5l92 -14l-13 -80h-587l12 80l113 18q48 8 70 34t30 85l66 469h-340l14 100h340l78 547h-166
q-112 0 -156.5 -48.5t-85.5 -215.5l-121 8q17 194 66 357z" />
    <glyph glyph-name="tbar" unicode="&#x167;" horiz-adv-x="737" 
d="M431 940l-35 -238h317l-15 -100h-318l-52 -352q-3 -21 -3 -39q0 -109 113 -109q82 0 168 64l33 -90q-134 -101 -295 -101q-107 0 -157.5 42.5t-50.5 133.5q0 36 5 66l58 385h-138l15 100h139l35 238h-137l8 82q18 6 72 14t73 8q40 103 87 187q23 40 37 51.5t40 11.5
q23 0 53 -6l-36 -244h317l-14 -104h-319z" />
    <glyph glyph-name="Utilde" unicode="&#x168;" horiz-adv-x="1458" 
d="M1047 1735q80 0 137 69l22 -75q-26 -50 -81.5 -83.5t-110.5 -33.5q-61 0 -130 30.5t-108 30.5q-80 0 -137 -69l-23 75q26 50 82 83.5t111 33.5q61 0 130 -30.5t108 -30.5zM700 1356l-94 -13q-48 -7 -68.5 -29t-27.5 -69l-104 -735q-10 -72 -10 -120q0 -316 292 -316
q163 0 254.5 102.5t122.5 319.5l106 749q3 18 3 31q0 32 -21.5 46.5t-83.5 25.5l-47 8l12 78h486l-13 -78l-94 -13q-48 -7 -68.5 -29t-27.5 -69l-109 -770q-35 -250 -176 -379t-379 -129q-220 0 -331.5 101.5t-111.5 301.5q0 57 9 122l107 753q2 12 2 31q0 32 -21 46t-84 26
l-43 8l4 78h529z" />
    <glyph glyph-name="utilde" unicode="&#x169;" horiz-adv-x="1179" 
d="M553 1335q-80 0 -137 -69l-23 75q26 50 82 83.5t111 33.5q61 0 129.5 -30.5t107.5 -30.5q81 0 138 69l22 -75q-26 -50 -81.5 -83.5t-110.5 -33.5q-61 0 -130 30.5t-108 30.5zM983 90q30 0 70 4l-4 -76q-100 -38 -177 -38q-73 0 -107 26.5t-34 85.5q0 102 88 379h-3
q-35 -109 -78.5 -195.5t-100 -156t-129.5 -107t-156 -37.5q-110 0 -167 51.5t-57 150.5q0 37 7 73l103 586q7 36 7 61q0 24 -8.5 33.5t-27.5 9.5q-38 0 -94 -16v75q50 30 117.5 50t119.5 20q53 0 68.5 -14t15.5 -60q0 -51 -14 -133l-105 -596q-7 -41 -7 -75q0 -97 71 -97
q56 0 123 50t130.5 137t115.5 221t75 286l39 256h180l-131 -833q-5 -35 -5 -54q0 -38 17 -52.5t58 -14.5z" />
    <glyph glyph-name="Umacron" unicode="&#x16a;" horiz-adv-x="1458" 
d="M1161 1645h-516l17 114h516zM700 1356l-94 -13q-48 -7 -68.5 -29t-27.5 -69l-104 -735q-10 -72 -10 -120q0 -316 292 -316q163 0 254.5 102.5t122.5 319.5l106 749q3 18 3 31q0 32 -21.5 46.5t-83.5 25.5l-47 8l12 78h486l-13 -78l-94 -13q-48 -7 -68.5 -29t-27.5 -69
l-109 -770q-35 -250 -176 -379t-379 -129q-220 0 -331.5 101.5t-111.5 301.5q0 57 9 122l107 753q2 12 2 31q0 32 -21 46t-84 26l-43 8l4 78h529z" />
    <glyph glyph-name="umacron" unicode="&#x16b;" horiz-adv-x="1179" 
d="M936 1307h-516l16 114h516zM983 90q30 0 70 4l-4 -76q-100 -38 -177 -38q-73 0 -107 26.5t-34 85.5q0 102 88 379h-3q-35 -109 -78.5 -195.5t-100 -156t-129.5 -107t-156 -37.5q-110 0 -167 51.5t-57 150.5q0 37 7 73l103 586q7 36 7 61q0 24 -8.5 33.5t-27.5 9.5
q-38 0 -94 -16v75q50 30 117.5 50t119.5 20q53 0 68.5 -14t15.5 -60q0 -51 -14 -133l-105 -596q-7 -41 -7 -75q0 -97 71 -97q56 0 123 50t130.5 137t115.5 221t75 286l39 256h180l-131 -833q-5 -35 -5 -54q0 -38 17 -52.5t58 -14.5z" />
    <glyph glyph-name="Ubreve" unicode="&#x16c;" horiz-adv-x="1458" 
d="M745 1827q30 -137 170 -137q63 0 108 32t83 105q22 0 50.5 -12.5t39.5 -26.5q-51 -112 -123.5 -165.5t-173.5 -53.5q-104 0 -168.5 56t-83.5 163q14 14 45.5 26.5t52.5 12.5zM700 1356l-94 -13q-48 -7 -68.5 -29t-27.5 -69l-104 -735q-10 -72 -10 -120q0 -316 292 -316
q163 0 254.5 102.5t122.5 319.5l106 749q3 18 3 31q0 32 -21.5 46.5t-83.5 25.5l-47 8l12 78h486l-13 -78l-94 -13q-48 -7 -68.5 -29t-27.5 -69l-109 -770q-35 -250 -176 -379t-379 -129q-220 0 -331.5 101.5t-111.5 301.5q0 57 9 122l107 753q2 12 2 31q0 32 -21 46t-84 26
l-43 8l4 78h529z" />
    <glyph glyph-name="ubreve" unicode="&#x16d;" horiz-adv-x="1179" 
d="M678 1231q-104 0 -168.5 56t-83.5 163q14 14 45.5 26.5t52.5 12.5q30 -137 170 -137q63 0 108 32t83 105q22 0 50.5 -12.5t39.5 -26.5q-51 -112 -123.5 -165.5t-173.5 -53.5zM983 90q30 0 70 4l-4 -76q-100 -38 -177 -38q-73 0 -107 26.5t-34 85.5q0 102 88 379h-3
q-35 -109 -78.5 -195.5t-100 -156t-129.5 -107t-156 -37.5q-110 0 -167 51.5t-57 150.5q0 37 7 73l103 586q7 36 7 61q0 24 -8.5 33.5t-27.5 9.5q-38 0 -94 -16v75q50 30 117.5 50t119.5 20q53 0 68.5 -14t15.5 -60q0 -51 -14 -133l-105 -596q-7 -41 -7 -75q0 -97 71 -97
q56 0 123 50t130.5 137t115.5 221t75 286l39 256h180l-131 -833q-5 -35 -5 -54q0 -38 17 -52.5t58 -14.5z" />
    <glyph glyph-name="Uring" unicode="&#x16e;" horiz-adv-x="1458" 
d="M721 1708q0 95 62.5 156t160.5 61q75 0 120.5 -46t45.5 -122q0 -95 -62.5 -156t-160.5 -61q-75 0 -120.5 46t-45.5 122zM932 1841q-50 0 -80.5 -33.5t-30.5 -87.5q0 -96 78 -96q50 0 80.5 33.5t30.5 87.5q0 96 -78 96zM700 1356l-94 -13q-48 -7 -68.5 -29t-27.5 -69
l-104 -735q-10 -72 -10 -120q0 -316 292 -316q163 0 254.5 102.5t122.5 319.5l106 749q3 18 3 31q0 32 -21.5 46.5t-83.5 25.5l-47 8l12 78h486l-13 -78l-94 -13q-48 -7 -68.5 -29t-27.5 -69l-109 -770q-35 -250 -176 -379t-379 -129q-220 0 -331.5 101.5t-111.5 301.5
q0 57 9 122l107 753q2 12 2 31q0 32 -21 46t-84 26l-43 8l4 78h529z" />
    <glyph glyph-name="uring" unicode="&#x16f;" horiz-adv-x="1179" 
d="M664 1202q-75 0 -120.5 46t-45.5 122q0 95 62.5 156t160.5 61q75 0 120.5 -46t45.5 -122q0 -95 -62.5 -156t-160.5 -61zM709 1503q-50 0 -80.5 -33.5t-30.5 -87.5q0 -96 78 -96q49 0 79.5 33.5t30.5 87.5q0 96 -77 96zM983 90q30 0 70 4l-4 -76q-100 -38 -177 -38
q-73 0 -107 26.5t-34 85.5q0 102 88 379h-3q-35 -109 -78.5 -195.5t-100 -156t-129.5 -107t-156 -37.5q-110 0 -167 51.5t-57 150.5q0 37 7 73l103 586q7 36 7 61q0 24 -8.5 33.5t-27.5 9.5q-38 0 -94 -16v75q50 30 117.5 50t119.5 20q53 0 68.5 -14t15.5 -60
q0 -51 -14 -133l-105 -596q-7 -41 -7 -75q0 -97 71 -97q56 0 123 50t130.5 137t115.5 221t75 286l39 256h180l-131 -833q-5 -35 -5 -54q0 -38 17 -52.5t58 -14.5z" />
    <glyph glyph-name="Uhungarumlaut" unicode="&#x170;" horiz-adv-x="1458" 
d="M690 1573l123 350q73 -12 133 -57l-166 -332q-49 11 -90 39zM975 1581l153 342q72 -18 127 -70l-194 -319q-45 12 -86 47zM700 1356l-94 -13q-48 -7 -68.5 -29t-27.5 -69l-104 -735q-10 -72 -10 -120q0 -316 292 -316q163 0 254.5 102.5t122.5 319.5l106 749q3 18 3 31
q0 32 -21.5 46.5t-83.5 25.5l-47 8l12 78h486l-13 -78l-94 -13q-48 -7 -68.5 -29t-27.5 -69l-109 -770q-35 -250 -176 -379t-379 -129q-220 0 -331.5 101.5t-111.5 301.5q0 57 9 122l107 753q2 12 2 31q0 32 -21 46t-84 26l-43 8l4 78h529z" />
    <glyph glyph-name="uhungarumlaut" unicode="&#x171;" horiz-adv-x="1179" 
d="M702 1528l-165 -332q-50 11 -91 39l123 350q73 -12 133 -57zM1012 1516l-195 -320q-45 12 -86 47l154 342q74 -19 127 -69zM983 90q30 0 70 4l-4 -76q-100 -38 -177 -38q-73 0 -107 26.5t-34 85.5q0 102 88 379h-3q-35 -109 -78.5 -195.5t-100 -156t-129.5 -107
t-156 -37.5q-110 0 -167 51.5t-57 150.5q0 37 7 73l103 586q7 36 7 61q0 24 -8.5 33.5t-27.5 9.5q-38 0 -94 -16v75q50 30 117.5 50t119.5 20q53 0 68.5 -14t15.5 -60q0 -51 -14 -133l-105 -596q-7 -41 -7 -75q0 -97 71 -97q56 0 123 50t130.5 137t115.5 221t75 286l39 256
h180l-131 -833q-5 -35 -5 -54q0 -38 17 -52.5t58 -14.5z" />
    <glyph glyph-name="Uogonek" unicode="&#x172;" horiz-adv-x="1458" 
d="M1520 1434l-13 -78l-94 -13q-48 -7 -68.5 -29t-27.5 -69l-109 -770q-59 -416 -399 -492q-197 -67 -197 -206q0 -50 22 -77.5t62 -27.5q61 0 113 49q22 -37 25 -71q-84 -72 -205 -72q-75 0 -121.5 45.5t-46.5 118.5q0 69 38 129t104 98q-393 23 -393 401q0 57 9 122
l107 753q2 12 2 31q0 32 -21 46t-84 26l-43 8l4 78h529l-13 -78l-94 -13q-48 -7 -68.5 -29t-27.5 -69l-104 -735q-10 -72 -10 -120q0 -316 292 -316q163 0 254.5 102.5t122.5 319.5l106 749q3 18 3 31q0 32 -21.5 46.5t-83.5 25.5l-47 8l12 78h486z" />
    <glyph glyph-name="uogonek" unicode="&#x173;" horiz-adv-x="1179" 
d="M1049 12q-128 -32 -199.5 -95t-71.5 -144q0 -46 23 -73.5t61 -27.5q61 0 113 49q21 -35 24 -71q-84 -72 -204 -72q-75 0 -121.5 45.5t-46.5 118.5q0 78 48 143.5t130 101.5q-74 21 -74 105q0 102 88 379h-3q-35 -109 -78.5 -195.5t-100 -156t-129.5 -107t-156 -37.5
q-110 0 -167 51.5t-57 150.5q0 37 7 73l103 586q7 36 7 61q0 24 -8.5 33.5t-27.5 9.5q-38 0 -94 -16v75q50 30 117.5 50t119.5 20q53 0 68.5 -14t15.5 -60q0 -51 -14 -133l-105 -596q-7 -41 -7 -75q0 -97 71 -97q56 0 123 50t130.5 137t115.5 221t75 286l39 256h180
l-131 -833q-5 -35 -5 -54q0 -38 17 -52.5t58 -14.5q30 0 70 4z" />
    <glyph glyph-name="Wcircumflex" unicode="&#x174;" horiz-adv-x="2029" 
d="M1193 1708l-249 -154q-36 32 -53 82l326 248l256 -252q-25 -45 -66 -78zM2144 1434l-12 -78l-59 -6q-62 -7 -98.5 -47t-92.5 -162l-524 -1147h-109l-166 1077l-489 -1077h-109l-184 1147q-20 124 -43 162t-84 47l-41 6l4 78h512l-12 -78l-59 -6q-60 -6 -83.5 -27.5
t-23.5 -76.5q0 -32 10 -105l124 -843l495 1136h104l165 -1136l368 843q49 112 49 150q0 31 -25.5 43t-89.5 18l-45 4l12 78h506z" />
    <glyph glyph-name="wcircumflex" unicode="&#x175;" horiz-adv-x="1654" 
d="M943 1370l-249 -153q-36 33 -53 81l326 248l256 -252q-24 -43 -66 -77zM1493 1069q109 0 109 -123q0 -142 -131 -401t-353 -555q-49 3 -102 20l-100 551q-24 129 -32 191q-68 -202 -167 -401.5t-211 -360.5q-63 4 -113 20l-123 676q-21 116 -35 166t-31 69t-48 19
q-40 0 -93 -16l-8 75q46 29 109.5 49.5t107.5 20.5q49 0 74 -19.5t44 -77t40 -184.5l46 -274q31 -186 40 -296q99 191 187 414t137 406q78 17 145 17q30 -84 65 -285l45 -260q39 -227 44 -293q130 196 206 370.5t76 276.5q0 36 -15 56t-42 20t-80 -16l-8 75
q46 29 109.5 49.5t107.5 20.5z" />
    <glyph glyph-name="Ycircumflex" unicode="&#x176;" horiz-adv-x="1304" 
d="M816 1708l-249 -154q-36 32 -53 82l326 248l256 -252q-25 -45 -66 -78zM1409 1434l-12 -78l-41 -4q-52 -5 -79.5 -19.5t-59 -52t-101.5 -139.5l-368 -539l-56 -385q-4 -34 -4 -44q0 -37 21.5 -53.5t81.5 -25.5l92 -14l-13 -80h-587l12 80l113 18q48 8 70 34.5t30 84.5
l55 385l-241 539q-29 64 -44 95t-29.5 57.5t-28 35.5t-26.5 14t-38 9l-27 4l4 78h518l-12 -78l-59 -6q-105 -10 -105 -75q0 -31 25 -89l201 -448l299 448q49 74 49 108q0 47 -93 56l-65 6l12 78h506z" />
    <glyph glyph-name="ycircumflex" unicode="&#x177;" horiz-adv-x="1081" 
d="M640 1370l-249 -153q-36 33 -53 81l326 248l256 -252q-24 -43 -66 -77zM909 1069q109 0 109 -123q0 -169 -98 -416t-284 -544q-149 -238 -277.5 -337.5t-288.5 -99.5q-34 0 -66 7q-14 28 -14 65q0 47 27.5 73.5t76.5 26.5q21 0 51 -7t48 -7q94 0 154.5 94.5t60.5 241.5
q0 91 -23.5 217.5t-88.5 390.5q-45 181 -71.5 235t-70.5 54q-40 0 -93 -16l-8 75q46 29 109.5 49.5t107.5 20.5q29 0 48.5 -8t37 -26t33.5 -60.5t32.5 -99t41.5 -154.5q94 -374 94 -600q0 -34 -2 -51q125 206 204 420.5t79 349.5q0 54 -13.5 77t-44.5 23q-27 0 -80 -16
l-8 75q46 29 109.5 49.5t107.5 20.5z" />
    <glyph glyph-name="Ydieresis" unicode="&#x178;" horiz-adv-x="1304" 
d="M614 1597q-40 0 -65 28t-25 71q0 56 36 91.5t91 35.5q40 0 65 -28t25 -71q0 -56 -35.5 -91.5t-91.5 -35.5zM979 1597q-40 0 -65 28t-25 71q0 56 35.5 91.5t91.5 35.5q40 0 65 -28t25 -71q0 -56 -36 -91.5t-91 -35.5zM1409 1434l-12 -78l-41 -4q-52 -5 -79.5 -19.5
t-59 -52t-101.5 -139.5l-368 -539l-56 -385q-4 -34 -4 -44q0 -37 21.5 -53.5t81.5 -25.5l92 -14l-13 -80h-587l12 80l113 18q48 8 70 34.5t30 84.5l55 385l-241 539q-29 64 -44 95t-29.5 57.5t-28 35.5t-26.5 14t-38 9l-27 4l4 78h518l-12 -78l-59 -6q-105 -10 -105 -75
q0 -31 25 -89l201 -448l299 448q49 74 49 108q0 47 -93 56l-65 6l12 78h506z" />
    <glyph glyph-name="Zacute" unicode="&#x179;" horiz-adv-x="1210" 
d="M1049 1751l-402 -215q-34 34 -53 82l369 268q61 -61 86 -135zM1217 1348l-985 -1248h487q108 0 155 55.5t87 213.5l120 -9q-18 -203 -65 -360h-1016l4 86l985 1247h-450q-112 0 -156.5 -48.5t-85.5 -215.5l-121 8q17 194 66 357h979z" />
    <glyph glyph-name="zacute" unicode="&#x17a;" horiz-adv-x="993" 
d="M872 1413l-401 -215q-34 34 -53 82l368 268q61 -61 86 -135zM204 88h361q70 0 109 48t69 163l111 -8q-7 -138 -49 -291q-100 -2 -309 -2q-56 0 -141 3t-136 3q-109 0 -153 -20q-49 39 -64 102q183 192 387 444l344 426h-315q-72 0 -109.5 -44t-68.5 -164l-111 8
q7 134 49 288h746q23 -29 26 -79l-465 -574q-146 -180 -281 -303z" />
    <glyph glyph-name="Zdotaccent" unicode="&#x17b;" horiz-adv-x="1210" 
d="M745 1591q-43 0 -71.5 30.5t-28.5 74.5q0 65 39 105t102 40q43 0 72 -30t29 -74q0 -65 -39.5 -105.5t-102.5 -40.5zM1217 1348l-985 -1248h487q108 0 155 55.5t87 213.5l120 -9q-18 -203 -65 -360h-1016l4 86l985 1247h-450q-112 0 -156.5 -48.5t-85.5 -215.5l-121 8
q17 194 66 357h979z" />
    <glyph glyph-name="zdotaccent" unicode="&#x17c;" horiz-adv-x="993" 
d="M590 1253q-43 0 -72 30.5t-29 74.5q0 64 39.5 104.5t102.5 40.5q43 0 71.5 -30t28.5 -74q0 -65 -39 -105.5t-102 -40.5zM204 88h361q70 0 109 48t69 163l111 -8q-7 -138 -49 -291q-100 -2 -309 -2q-56 0 -141 3t-136 3q-109 0 -153 -20q-49 39 -64 102q183 192 387 444
l344 426h-315q-72 0 -109.5 -44t-68.5 -164l-111 8q7 134 49 288h746q23 -29 26 -79l-465 -574q-146 -180 -281 -303z" />
    <glyph glyph-name="Zcaron" unicode="&#x17d;" horiz-adv-x="1210" 
d="M743 1546l-245 252q26 47 65 78l204 -153l239 153q36 -32 53 -82zM1217 1348l-985 -1248h487q108 0 155 55.5t87 213.5l120 -9q-18 -203 -65 -360h-1016l4 86l985 1247h-450q-112 0 -156.5 -48.5t-85.5 -215.5l-121 8q17 194 66 357h979z" />
    <glyph glyph-name="zcaron" unicode="&#x17e;" horiz-adv-x="993" 
d="M588 1208l-246 252q25 45 66 78l203 -153l239 153q36 -32 53 -82zM204 88h361q70 0 109 48t69 163l111 -8q-7 -138 -49 -291q-100 -2 -309 -2q-56 0 -141 3t-136 3q-109 0 -153 -20q-49 39 -64 102q183 192 387 444l344 426h-315q-72 0 -109.5 -44t-68.5 -164l-111 8
q7 134 49 288h746q23 -29 26 -79l-465 -574q-146 -180 -281 -303z" />
    <glyph glyph-name="longs" unicode="&#x17f;" horiz-adv-x="555" 
d="M907 1481q4 -12 4 -33q0 -47 -23.5 -73.5t-66.5 -26.5q-45 0 -104.5 37.5t-110.5 37.5q-107 0 -131 -174l-180 -1292q-30 -215 -107.5 -311.5t-218.5 -96.5q-80 0 -145 41l26 103q56 -27 107 -27q69 0 101 54t53 206l142 1014h-142l8 82q18 6 73 14t75 8l20 140
q46 334 385 334q120 0 235 -37z" />
    <glyph glyph-name="Schwa" unicode="&#x18f;" horiz-adv-x="1349" 
d="M737 1466q255 0 393 -158t138 -448q0 -197 -55 -363.5t-152.5 -283t-237.5 -181.5t-305 -65q-212 0 -332 122.5t-120 338.5q0 131 24 184.5t84 53.5h880q13 93 13 180q0 230 -98 361.5t-269 131.5q-114 0 -207 -38t-214 -134l-58 103q137 112 248.5 154t267.5 42zM557 76
q168 0 295.5 131.5t181.5 351.5h-688q-49 0 -71.5 -35.5t-22.5 -115.5q0 -148 84.5 -240t220.5 -92z" />
    <glyph glyph-name="florin" unicode="&#x192;" horiz-adv-x="974" 
d="M1059 1481q2 -12 2 -29q0 -47 -29 -75.5t-76 -28.5q-29 0 -54 11.5t-41 26t-44 26t-61 11.5q-51 0 -89 -46t-57 -128l-74 -327h287l-22 -105h-289l-195 -860q-49 -217 -134 -312.5t-230 -95.5q-79 0 -141 41l36 103q52 -27 105 -27q66 0 103 55.5t71 204.5l202 891h-143
l15 82q19 6 74 14t77 9l60 262q38 170 140 252t275 82q120 0 232 -37z" />
    <glyph glyph-name="AEacute" unicode="&#x1fc;" horiz-adv-x="1884" 
d="M1604 1751l-402 -215q-34 34 -53 82l369 268q61 -61 86 -135zM1815 1081l-123 -8q2 70 -1 112.5t-12 74t-29.5 46t-49.5 21t-76 6.5h-330l-77 -551h263q54 0 77 22.5t46 96.5l15 45l106 4l-63 -450l-105 4v90q0 44 -21.5 65t-68.5 21h-264l-68 -485q-2 -20 -2 -29
q0 -40 30 -53t116 -13h215q59 0 93.5 9t63 39t46 77.5t38.5 134.5l121 -8q-17 -191 -65 -352h-1031l13 78l80 14q49 9 69 29.5t27 66.5l40 279h-420l-126 -201q-61 -98 -61 -131q0 -22 20 -33.5t66 -17.5l45 -6l-13 -78h-489l12 78l60 8q59 8 93.5 36t86.5 109l641 996
q37 56 37 80q0 17 -16.5 25.5t-55.5 13.5l-70 10l4 78h1147q0 -164 -34 -353zM902 571l108 757l-476 -757h368z" />
    <glyph glyph-name="aeacute" unicode="&#x1fd;" horiz-adv-x="1562" 
d="M1139 1413l-402 -215q-34 34 -53 82l369 268q61 -61 86 -135zM889 471q-34 0 -67 5q-3 -36 -3 -73q0 -157 62.5 -232t171.5 -75q90 0 157.5 27.5t137.5 89.5l45 -96q-92 -76 -184 -109t-218 -33q-244 0 -325 197q-61 -93 -154 -145t-201 -52q-136 0 -208 62.5t-72 179.5
q0 177 130.5 285t342.5 108q83 0 149 -10l19 121q9 55 9 99q0 163 -126 163q-38 0 -73 -16t-61.5 -38.5t-52 -45t-55 -38.5t-59.5 -16q-35 0 -54.5 19.5t-19.5 54.5q0 29 13 58q179 108 380 108q120 0 181.5 -38t77.5 -125q138 163 360 163q149 0 227 -61t78 -177
q0 -173 -158 -266.5t-450 -93.5zM1157 967q-113 0 -201 -109t-121 -281q38 -4 54 -4q199 0 312.5 67t113.5 185q0 69 -40.5 105.5t-117.5 36.5zM371 94q146 0 261 223q-3 36 -3 76q0 60 7 112q-61 7 -116 7q-141 0 -221 -70t-80 -194q0 -72 40 -113t112 -41z" />
    <glyph glyph-name="Oslashacute" unicode="&#x1fe;" horiz-adv-x="1515" 
d="M1167 1751l-401 -215q-34 34 -53 82l368 268q61 -61 86 -135zM1323 1516l-95 -156q208 -158 208 -506q0 -259 -97 -461t-272.5 -314t-400.5 -112q-141 0 -253 52l-96 -156l-94 55l97 159q-101 80 -155 211t-54 304q0 254 97 453.5t271.5 310t397.5 110.5q145 0 257 -50
l95 155zM860 1358q-159 0 -284.5 -97.5t-195 -272t-69.5 -396.5q0 -234 99 -374l650 1081q-85 59 -200 59zM682 76q94 0 179 37.5t152.5 108t117.5 165.5t77 215.5t27 253.5q0 232 -95 364l-652 -1083q82 -61 194 -61z" />
    <glyph glyph-name="oslashacute" unicode="&#x1ff;" horiz-adv-x="1126" 
d="M920 1413l-402 -215q-34 34 -53 82l369 268q61 -61 86 -135zM979 1130l-85 -138q130 -104 130 -335q0 -196 -71.5 -352t-199.5 -243t-290 -87q-95 0 -167 30l-87 -142l-88 51l88 143q-131 109 -131 338q0 192 71.5 346t199.5 241t288 87q96 0 168 -27l86 140zM621 967
q-157 0 -255 -162.5t-98 -421.5q0 -107 32 -180l436 730q-48 34 -115 34zM479 78q101 0 182.5 76t127 211.5t45.5 304.5q0 106 -31 177l-437 -732q48 -37 113 -37z" />
    <glyph glyph-name="Scommaaccent" unicode="&#x218;" horiz-adv-x="1087" 
d="M643 1368q-114 0 -184 -74t-70 -194q0 -65 31.5 -117.5t81.5 -89t111 -70t121.5 -70.5t110.5 -81t81.5 -111t31.5 -151q0 -203 -132 -323t-355 -120q-283 0 -440 119q9 153 45 299l112 4q-4 -155 68.5 -239t210.5 -84q132 0 218.5 82.5t86.5 209.5q0 69 -31 125t-81 94.5
t-110 74t-120.5 72.5t-110.5 79.5t-81 106.5t-31 143q0 183 122 298t314 115q128 0 251 -25.5t165 -25.5l-53 -323l-107 -5q-9 146 -70.5 213.5t-185.5 67.5zM481 -82q41 0 64.5 -29.5t23.5 -81.5q0 -104 -59 -174t-170 -98q-19 17 -25 45q50 20 77 50.5t37 80.5
q-29 8 -46.5 34t-17.5 62q0 50 32 80.5t84 30.5z" />
    <glyph glyph-name="scommaaccent" unicode="&#x219;" horiz-adv-x="894" 
d="M485 985q-72 0 -119 -49.5t-47 -124.5q0 -48 24 -87.5t63 -66.5t85.5 -52.5t93.5 -54t86 -61.5t63 -83t24 -113q0 -149 -104.5 -233.5t-288.5 -84.5q-221 0 -338 97q6 110 34 225l101 6q15 -244 223 -244q85 0 140 53.5t55 135.5q0 48 -24 88t-62.5 68.5t-84.5 55.5
t-92.5 55.5t-85 62t-62.5 82t-24 108.5q0 138 97.5 219.5t261.5 81.5q82 0 177 -26.5t140 -26.5l-43 -250l-96 -6q-15 225 -197 225zM375 -82q41 0 64.5 -29.5t23.5 -81.5q0 -104 -59.5 -174t-170.5 -98q-18 16 -24 45q50 20 76.5 50t36.5 81q-29 8 -46.5 34t-17.5 62
q0 50 32.5 80.5t84.5 30.5z" />
    <glyph glyph-name="uni021A" unicode="&#x21a;" horiz-adv-x="1292" 
d="M195 1434h1138q0 -163 -35 -357l-122 -8q2 70 -1 113t-12 75t-29.5 47t-49.5 22t-76 7h-166l-158 -1116q-4 -34 -4 -44q0 -37 21 -53.5t81 -25.5l92 -14l-12 -80h-588l13 80l112 18q49 8 71 34t30 85l157 1116h-165q-112 0 -156.5 -48.5t-85.5 -215.5l-121 8
q17 194 66 357zM547 -82q41 0 64.5 -29.5t23.5 -81.5q0 -104 -59.5 -174t-170.5 -98q-18 16 -24 45q50 20 76.5 50t36.5 81q-29 8 -46.5 34t-17.5 62q0 50 32.5 80.5t84.5 30.5z" />
    <glyph glyph-name="uni021B" unicode="&#x21b;" horiz-adv-x="729" 
d="M429 940l-103 -690q-4 -28 -4 -39q0 -109 114 -109q82 0 168 64l33 -90q-134 -101 -295 -101q-107 0 -157.5 42.5t-50.5 133.5q0 36 5 66l109 723h-137l8 82q18 6 72 14t73 8q40 103 87 187q23 40 37 51.5t40 11.5q23 0 53 -6l-36 -244h317l-14 -104h-319zM332 -82
q41 0 64.5 -29.5t23.5 -81.5q0 -104 -59.5 -174t-170.5 -98q-18 16 -24 45q50 20 76.5 50t36.5 81q-29 8 -46.5 34t-17.5 62q0 50 32.5 80.5t84.5 30.5z" />
    <glyph glyph-name="dotlessj" unicode="&#x237;" horiz-adv-x="555" 
d="M119 924v75q50 30 117.5 50t119.5 20q53 0 68.5 -14t15.5 -60q0 -39 -14 -133l-80 -569q-34 -245 -80.5 -381t-126.5 -219q-50 -52 -126 -90.5t-160 -53.5q-27 30 -27 80q0 35 18.5 56.5t59.5 35.5q13 4 61.5 14.5t73.5 26.5q37 25 57 107t60 367l84 600q5 34 5 62
q0 24 -7 33t-25 9q-38 0 -94 -16z" />
    <glyph glyph-name="schwa" unicode="&#x259;" horiz-adv-x="1003" 
d="M539 1069q180 0 271 -107t91 -311q0 -194 -70.5 -348.5t-197 -241t-285.5 -86.5q-154 0 -234.5 61t-80.5 177q0 186 160 288.5t452 102.5q40 0 67 -4q1 14 1 41q0 157 -63 232t-173 75q-81 0 -142 -27t-132 -90l-45 97q93 76 178 108.5t203 32.5zM373 78q119 0 210 118
t119 302q-40 4 -57 4q-198 0 -314 -76.5t-116 -206.5q0 -69 40.5 -105t117.5 -36z" />
    <glyph glyph-name="circumflex" unicode="&#x2c6;" 
d="M547 1546l256 -252q-24 -43 -66 -77l-213 153l-250 -153q-36 33 -53 81z" />
    <glyph glyph-name="caron" unicode="&#x2c7;" 
d="M501 1385l238 153q37 -34 54 -82l-316 -248l-246 252q25 45 66 78z" />
    <glyph glyph-name="breve" unicode="&#x2d8;" 
d="M336 1489q30 -137 170 -137q63 0 107.5 32t82.5 105q22 0 50.5 -12.5t39.5 -26.5q-51 -112 -123.5 -165.5t-173.5 -53.5q-104 0 -168 56t-83 163q14 14 45.5 26.5t52.5 12.5z" />
    <glyph glyph-name="dotaccent" unicode="&#x2d9;" 
d="M391 1358q0 65 39 105t102 40q43 0 72 -30t29 -74q0 -65 -39 -105.5t-102 -40.5q-43 0 -72 30.5t-29 74.5z" />
    <glyph glyph-name="ring" unicode="&#x2da;" 
d="M317 1370q0 95 63 156t161 61q75 0 120.5 -46t45.5 -122q0 -95 -63 -156t-161 -61q-75 0 -120.5 46t-45.5 122zM528 1503q-49 0 -79.5 -33.5t-30.5 -87.5q0 -96 78 -96q49 0 79.5 33.5t30.5 87.5q0 96 -78 96z" />
    <glyph glyph-name="ogonek" unicode="&#x2db;" 
d="M549 8l166 -8q-124 -31 -189 -88t-65 -135q0 -50 22 -77.5t62 -27.5q60 0 112 49q22 -37 25 -71q-84 -72 -205 -72q-75 0 -121.5 45.5t-46.5 118.5q0 92 66 165t174 101z" />
    <glyph glyph-name="tilde" unicode="&#x2dc;" 
d="M647 1397q80 0 137 69l23 -75q-26 -50 -82 -83.5t-111 -33.5q-61 0 -129.5 30.5t-107.5 30.5q-80 0 -137 -69l-23 75q26 50 82 83.5t111 33.5q61 0 129.5 -30.5t107.5 -30.5z" />
    <glyph glyph-name="hungarumlaut" unicode="&#x2dd;" 
d="M229 1235l123 350q73 -12 133 -57l-166 -332q-49 11 -90 39zM514 1243l154 342q74 -19 127 -69l-195 -320q-45 12 -86 47z" />
    <glyph glyph-name="gravecomb" unicode="&#x300;" horiz-adv-x="0" 
d="M371 1548l368 -268q-19 -48 -53 -82l-401 215q25 74 86 135z" />
    <glyph glyph-name="acutecomb" unicode="&#x301;" horiz-adv-x="0" 
d="M285 1280l368 268q61 -61 86 -135l-401 -215q-34 34 -53 82z" />
    <glyph glyph-name="uni0302" unicode="&#x302;" horiz-adv-x="0" 
d="M547 1546l256 -252q-24 -43 -66 -77l-213 153l-250 -153q-36 33 -53 81z" />
    <glyph glyph-name="tildecomb" unicode="&#x303;" horiz-adv-x="0" 
d="M647 1397q80 0 137 69l23 -75q-26 -50 -82 -83.5t-111 -33.5q-61 0 -129.5 30.5t-107.5 30.5q-80 0 -137 -69l-23 75q26 50 82 83.5t111 33.5q61 0 129.5 -30.5t107.5 -30.5z" />
    <glyph glyph-name="uni0304" unicode="&#x304;" horiz-adv-x="0" 
d="M762 1307h-516l16 114h516z" />
    <glyph glyph-name="uni0306" unicode="&#x306;" horiz-adv-x="0" 
d="M336 1489q30 -137 170 -137q63 0 107.5 32t82.5 105q22 0 50.5 -12.5t39.5 -26.5q-51 -112 -123.5 -165.5t-173.5 -53.5q-104 0 -168 56t-83 163q14 14 45.5 26.5t52.5 12.5z" />
    <glyph glyph-name="uni0307" unicode="&#x307;" horiz-adv-x="0" 
d="M391 1358q0 65 39 105t102 40q43 0 72 -30t29 -74q0 -65 -39 -105.5t-102 -40.5q-43 0 -72 30.5t-29 74.5z" />
    <glyph glyph-name="uni0308" unicode="&#x308;" horiz-adv-x="0" 
d="M221 1358q0 56 35.5 91.5t91.5 35.5q40 0 65 -28t25 -71q0 -55 -35.5 -90.5t-91.5 -35.5q-40 0 -65 27.5t-25 70.5zM586 1358q0 56 36 91.5t91 35.5q40 0 65 -28t25 -71q0 -55 -35.5 -90.5t-91.5 -35.5q-40 0 -65 27.5t-25 70.5z" />
    <glyph glyph-name="uni030A" unicode="&#x30a;" horiz-adv-x="0" 
d="M317 1370q0 95 63 156t161 61q75 0 120.5 -46t45.5 -122q0 -95 -63 -156t-161 -61q-75 0 -120.5 46t-45.5 122zM528 1503q-49 0 -79.5 -33.5t-30.5 -87.5q0 -96 78 -96q49 0 79.5 33.5t30.5 87.5q0 96 -78 96z" />
    <glyph glyph-name="uni030B" unicode="&#x30b;" horiz-adv-x="0" 
d="M229 1235l123 350q73 -12 133 -57l-166 -332q-49 11 -90 39zM514 1243l154 342q74 -19 127 -69l-195 -320q-45 12 -86 47z" />
    <glyph glyph-name="uni030C" unicode="&#x30c;" horiz-adv-x="0" 
d="M501 1385l238 153q37 -34 54 -82l-316 -248l-246 252q25 45 66 78z" />
    <glyph glyph-name="uni0312" unicode="&#x312;" horiz-adv-x="0" 
d="M526 1416q29 -8 46.5 -34t17.5 -63q0 -50 -32.5 -80.5t-84.5 -30.5q-41 0 -64.5 29.5t-23.5 81.5q0 104 59 174t170 98q19 -17 25 -45q-50 -20 -76.5 -49.5t-36.5 -80.5z" />
    <glyph glyph-name="uni0326" unicode="&#x326;" horiz-adv-x="0" 
d="M551 -82q41 0 64.5 -29.5t23.5 -81.5q0 -104 -59 -174t-170 -98q-19 17 -25 45q50 20 76.5 50t36.5 81q-29 8 -46.5 34t-17.5 62q0 50 32.5 80.5t84.5 30.5z" />
    <glyph glyph-name="uni0327" unicode="&#x327;" horiz-adv-x="0" 
d="M623 20l-84 -133q75 0 118 -37t43 -102q0 -97 -61.5 -150t-171.5 -53q-86 0 -143 54q13 40 38 69q49 -43 111 -43q44 0 68 24t24 68q0 86 -116 86l-19 39l100 178h93z" />
    <glyph glyph-name="Delta" unicode="&#x394;" horiz-adv-x="1411" 
d="M1276 0h-1305l801 1440h109zM769 1168l-590 -1062h883z" />
    <glyph glyph-name="Omega" unicode="&#x3a9;" horiz-adv-x="1558" 
d="M914 119h159q106 0 154.5 39t79.5 149l102 -8q-3 -53 -20 -142.5t-37 -156.5h-580l19 133q124 38 224 154t156 286.5t56 362.5q0 205 -88.5 313.5t-255.5 108.5q-229 0 -364.5 -189.5t-135.5 -509.5q0 -213 67 -355t181 -171l-19 -133h-577q-1 66 7.5 155.5t20.5 143.5
l101 8q3 -112 40.5 -150t143.5 -38h155q-146 58 -232.5 213.5t-86.5 361.5q0 352 194 562t521 210q257 0 392.5 -137.5t135.5 -398.5q0 -288 -142 -511.5t-371 -299.5z" />
    <glyph glyph-name="mu" unicode="&#x3bc;" horiz-adv-x="1232" 
d="M1012 90q29 0 69 4l-4 -76q-100 -38 -176 -38q-73 0 -107 26.5t-34 85.5q0 102 88 379h-3q-35 -109 -78.5 -195.5t-99.5 -156t-128 -107t-154 -37.5q-45 0 -80 30q-17 -158 -33 -273l-18 -138l-186 -40l180 1282q6 39 6 61q0 24 -8 33.5t-27 9.5q-38 0 -94 -16v75
q50 30 117.5 50t119.5 20q53 0 68.5 -14t15.5 -60q0 -39 -14 -133l-76 -536q-12 -82 -12 -131q0 -55 16.5 -78t53.5 -23q54 0 120.5 50t129.5 137t115 221t75 286l39 256h180l-131 -833q-5 -35 -5 -54q0 -38 17 -52.5t58 -14.5z" />
    <glyph glyph-name="pi" unicode="&#x3c0;" horiz-adv-x="1243" 
d="M1019 940l-116 -729q-5 -37 -5 -54q0 -36 16.5 -48.5t58.5 -12.5q44 0 84 4l-4 -82q-100 -38 -191 -38q-82 0 -116.5 27t-34.5 96q0 30 8 81l120 756h-381l-149 -940h-180l149 940h-180l-20 29l26 96h1151l-20 -125h-216z" />
    <glyph glyph-name="Wgrave" unicode="&#x1e80;" horiz-adv-x="2029" 
d="M985 1886l369 -268q-19 -47 -54 -82l-401 215q25 74 86 135zM2144 1434l-12 -78l-59 -6q-62 -7 -98.5 -47t-92.5 -162l-524 -1147h-109l-166 1077l-489 -1077h-109l-184 1147q-20 124 -43 162t-84 47l-41 6l4 78h512l-12 -78l-59 -6q-60 -6 -83.5 -27.5t-23.5 -76.5
q0 -32 10 -105l124 -843l495 1136h104l165 -1136l368 843q49 112 49 150q0 31 -25.5 43t-89.5 18l-45 4l12 78h506z" />
    <glyph glyph-name="wgrave" unicode="&#x1e81;" horiz-adv-x="1654" 
d="M776 1548l369 -268q-19 -48 -53 -82l-402 215q25 74 86 135zM1493 1069q109 0 109 -123q0 -142 -131 -401t-353 -555q-49 3 -102 20l-100 551q-24 129 -32 191q-68 -202 -167 -401.5t-211 -360.5q-63 4 -113 20l-123 676q-21 116 -35 166t-31 69t-48 19q-40 0 -93 -16
l-8 75q46 29 109.5 49.5t107.5 20.5q49 0 74 -19.5t44 -77t40 -184.5l46 -274q31 -186 40 -296q99 191 187 414t137 406q78 17 145 17q30 -84 65 -285l45 -260q39 -227 44 -293q130 196 206 370.5t76 276.5q0 36 -15 56t-42 20t-80 -16l-8 75q46 29 109.5 49.5t107.5 20.5z
" />
    <glyph glyph-name="Wacute" unicode="&#x1e82;" horiz-adv-x="2029" 
d="M1434 1751l-402 -215q-34 34 -53 82l369 268q61 -61 86 -135zM2144 1434l-12 -78l-59 -6q-62 -7 -98.5 -47t-92.5 -162l-524 -1147h-109l-166 1077l-489 -1077h-109l-184 1147q-20 124 -43 162t-84 47l-41 6l4 78h512l-12 -78l-59 -6q-60 -6 -83.5 -27.5t-23.5 -76.5
q0 -32 10 -105l124 -843l495 1136h104l165 -1136l368 843q49 112 49 150q0 31 -25.5 43t-89.5 18l-45 4l12 78h506z" />
    <glyph glyph-name="wacute" unicode="&#x1e83;" horiz-adv-x="1654" 
d="M1165 1413l-401 -215q-34 34 -53 82l368 268q61 -61 86 -135zM1493 1069q109 0 109 -123q0 -142 -131 -401t-353 -555q-49 3 -102 20l-100 551q-24 129 -32 191q-68 -202 -167 -401.5t-211 -360.5q-63 4 -113 20l-123 676q-21 116 -35 166t-31 69t-48 19q-40 0 -93 -16
l-8 75q46 29 109.5 49.5t107.5 20.5q49 0 74 -19.5t44 -77t40 -184.5l46 -274q31 -186 40 -296q99 191 187 414t137 406q78 17 145 17q30 -84 65 -285l45 -260q39 -227 44 -293q130 196 206 370.5t76 276.5q0 36 -15 56t-42 20t-80 -16l-8 75q46 29 109.5 49.5t107.5 20.5z
" />
    <glyph glyph-name="Wdieresis" unicode="&#x1e84;" horiz-adv-x="2029" 
d="M991 1597q-40 0 -65 28t-25 71q0 56 35.5 91.5t91.5 35.5q40 0 65 -28t25 -71q0 -56 -36 -91.5t-91 -35.5zM1356 1597q-40 0 -65 28t-25 71q0 56 36 91.5t91 35.5q40 0 65 -28t25 -71q0 -56 -35.5 -91.5t-91.5 -35.5zM2144 1434l-12 -78l-59 -6q-62 -7 -98.5 -47
t-92.5 -162l-524 -1147h-109l-166 1077l-489 -1077h-109l-184 1147q-20 124 -43 162t-84 47l-41 6l4 78h512l-12 -78l-59 -6q-60 -6 -83.5 -27.5t-23.5 -76.5q0 -32 10 -105l124 -843l495 1136h104l165 -1136l368 843q49 112 49 150q0 31 -25.5 43t-89.5 18l-45 4l12 78h506
z" />
    <glyph glyph-name="wdieresis" unicode="&#x1e85;" horiz-adv-x="1654" 
d="M743 1260q-40 0 -65 27.5t-25 70.5q0 56 35.5 91.5t91.5 35.5q40 0 65 -28t25 -71q0 -55 -35.5 -90.5t-91.5 -35.5zM1108 1260q-40 0 -65 27.5t-25 70.5q0 56 36 91.5t91 35.5q40 0 65 -28t25 -71q0 -55 -35.5 -90.5t-91.5 -35.5zM1493 1069q109 0 109 -123
q0 -142 -131 -401t-353 -555q-49 3 -102 20l-100 551q-24 129 -32 191q-68 -202 -167 -401.5t-211 -360.5q-63 4 -113 20l-123 676q-21 116 -35 166t-31 69t-48 19q-40 0 -93 -16l-8 75q46 29 109.5 49.5t107.5 20.5q49 0 74 -19.5t44 -77t40 -184.5l46 -274
q31 -186 40 -296q99 191 187 414t137 406q78 17 145 17q30 -84 65 -285l45 -260q39 -227 44 -293q130 196 206 370.5t76 276.5q0 36 -15 56t-42 20t-80 -16l-8 75q46 29 109.5 49.5t107.5 20.5z" />
    <glyph glyph-name="Ygrave" unicode="&#x1ef2;" horiz-adv-x="1304" 
d="M621 1886l368 -268q-19 -48 -53 -82l-401 215q25 74 86 135zM1409 1434l-12 -78l-41 -4q-52 -5 -79.5 -19.5t-59 -52t-101.5 -139.5l-368 -539l-56 -385q-4 -34 -4 -44q0 -37 21.5 -53.5t81.5 -25.5l92 -14l-13 -80h-587l12 80l113 18q48 8 70 34.5t30 84.5l55 385
l-241 539q-29 64 -44 95t-29.5 57.5t-28 35.5t-26.5 14t-38 9l-27 4l4 78h518l-12 -78l-59 -6q-105 -10 -105 -75q0 -31 25 -89l201 -448l299 448q49 74 49 108q0 47 -93 56l-65 6l12 78h506z" />
    <glyph glyph-name="ygrave" unicode="&#x1ef3;" horiz-adv-x="1081" 
d="M426 1548l369 -268q-19 -47 -54 -82l-401 215q25 74 86 135zM909 1069q109 0 109 -123q0 -169 -98 -416t-284 -544q-149 -238 -277.5 -337.5t-288.5 -99.5q-34 0 -66 7q-14 28 -14 65q0 47 27.5 73.5t76.5 26.5q21 0 51 -7t48 -7q94 0 154.5 94.5t60.5 241.5
q0 91 -23.5 217.5t-88.5 390.5q-45 181 -71.5 235t-70.5 54q-40 0 -93 -16l-8 75q46 29 109.5 49.5t107.5 20.5q29 0 48.5 -8t37 -26t33.5 -60.5t32.5 -99t41.5 -154.5q94 -374 94 -600q0 -34 -2 -51q125 206 204 420.5t79 349.5q0 54 -13.5 77t-44.5 23q-27 0 -80 -16
l-8 75q46 29 109.5 49.5t107.5 20.5z" />
    <glyph glyph-name="enspace" unicode="&#x2002;" 
 />
    <glyph glyph-name="uni2003" unicode="&#x2003;" horiz-adv-x="2048" 
 />
    <glyph glyph-name="uni2004" unicode="&#x2004;" horiz-adv-x="681" 
 />
    <glyph glyph-name="uni2005" unicode="&#x2005;" horiz-adv-x="512" 
 />
    <glyph glyph-name="uni2006" unicode="&#x2006;" horiz-adv-x="339" 
 />
    <glyph glyph-name="uni2007" unicode="&#x2007;" horiz-adv-x="1155" 
 />
    <glyph glyph-name="uni2008" unicode="&#x2008;" horiz-adv-x="577" 
 />
    <glyph glyph-name="uni2009" unicode="&#x2009;" horiz-adv-x="256" 
 />
    <glyph glyph-name="uni200A" unicode="&#x200a;" horiz-adv-x="153" 
 />
    <glyph glyph-name="zerowidthspace" unicode="&#x200b;" horiz-adv-x="0" 
 />
    <glyph glyph-name="endash" unicode="&#x2013;" horiz-adv-x="1304" 
d="M1165 618l-18 -122h-1024l18 122h1024z" />
    <glyph glyph-name="emdash" unicode="&#x2014;" horiz-adv-x="2328" 
d="M2189 618l-18 -122h-2048l18 122h2048z" />
    <glyph glyph-name="quoteleft" unicode="&#x2018;" horiz-adv-x="483" 
d="M354 1299q37 -8 58.5 -38t21.5 -75q0 -66 -41.5 -108t-107.5 -42q-52 0 -79.5 36t-27.5 104q0 136 93.5 252t222.5 141q27 -17 30 -58q-73 -28 -113 -77.5t-57 -134.5z" />
    <glyph glyph-name="quoteright" unicode="&#x2019;" horiz-adv-x="489" 
d="M397 1544q107 0 107 -139q0 -136 -93.5 -252t-222.5 -141q-27 17 -30 57q73 28 113 77.5t57 134.5q-37 8 -58.5 38.5t-21.5 75.5q0 66 41.5 107.5t107.5 41.5z" />
    <glyph glyph-name="quotesinglbase" unicode="&#x201a;" horiz-adv-x="475" 
d="M186 242q52 0 79.5 -36t27.5 -104q0 -136 -93.5 -252t-222.5 -141q-27 17 -30 58q73 28 113 77.5t57 133.5q-37 8 -58.5 38.5t-21.5 75.5q0 66 41.5 108t107.5 42z" />
    <glyph glyph-name="quotedblleft" unicode="&#x201c;" horiz-adv-x="866" 
d="M524 1511q-73 -28 -113 -77.5t-57 -134.5q37 -8 58.5 -38t21.5 -75q0 -66 -41.5 -108t-107.5 -42q-52 0 -79.5 36t-27.5 104q0 136 93.5 252t222.5 141q27 -17 30 -58zM737 1299q37 -8 58.5 -38t21.5 -75q0 -66 -41.5 -108t-107.5 -42q-52 0 -79.5 36t-27.5 104
q0 136 93.5 252t222.5 141q27 -17 30 -58q-73 -28 -113 -77.5t-57 -134.5z" />
    <glyph glyph-name="quotedblright" unicode="&#x201d;" horiz-adv-x="872" 
d="M397 1544q107 0 107 -139q0 -136 -93.5 -252t-222.5 -141q-27 17 -30 57q73 28 113 77.5t57 134.5q-37 8 -58.5 38.5t-21.5 75.5q0 66 41.5 107.5t107.5 41.5zM780 1544q107 0 107 -139q0 -136 -93.5 -252t-222.5 -141q-27 17 -30 57q73 28 113 77.5t57 134.5
q-37 8 -58.5 38.5t-21.5 75.5q0 66 41.5 107.5t107.5 41.5z" />
    <glyph glyph-name="quotedblbase" unicode="&#x201e;" horiz-adv-x="858" 
d="M186 242q52 0 79.5 -36t27.5 -104q0 -136 -93.5 -252t-222.5 -141q-27 17 -30 58q73 28 113 77.5t57 133.5q-37 8 -58.5 38.5t-21.5 75.5q0 66 41.5 108t107.5 42zM569 242q52 0 79.5 -36t27.5 -104q0 -136 -93.5 -252t-222.5 -141q-27 17 -30 58q73 28 113 77.5
t57 133.5q-37 8 -58.5 38.5t-21.5 75.5q0 66 41.5 108t107.5 42z" />
    <glyph glyph-name="dagger" unicode="&#x2020;" horiz-adv-x="989" 
d="M981 965l-23 -158l-75 -4l-17 10q-28 18 -80 18h-187l-91 -647q-37 -271 -100 -542h-99q11 250 51 542l91 647h-187q-60 0 -88 -18l-16 -10l-76 4l22 158l76 4l17 -11q28 -18 80 -18h188l47 338q2 20 2 25q0 32 -24 45l-23 12l14 74h254l-6 -74l-26 -12q-20 -9 -29 -24
t-14 -46l-48 -338h187q60 0 88 18l16 11z" />
    <glyph glyph-name="daggerdbl" unicode="&#x2021;" horiz-adv-x="1105" 
d="M1042 965l-22 -158l-76 -4l-16 10q-28 18 -80 18h-188l-83 -587h187q60 0 88 18l16 10l76 -4l-22 -157l-76 -5l-17 11q-28 18 -79 18h-188l-48 -338q-2 -20 -2 -25q0 -31 25 -44l22 -13l-14 -73h-254l6 73l27 13q20 9 29.5 23.5t13.5 45.5l47 338h-187q-60 0 -88 -18
l-16 -11l-76 5l23 157l75 4l17 -10q28 -18 80 -18h188l83 587h-187q-60 0 -88 -18l-17 -10l-76 4l23 158l76 4l16 -11q28 -18 80 -18h188l47 338q0 4 1.5 12.5t1.5 12.5q0 32 -25 45l-23 12l15 74h254l-6 -74l-27 -12q-20 -9 -29 -24t-14 -46l-48 -338h187q60 0 88 18l17 11
z" />
    <glyph glyph-name="bullet" unicode="&#x2022;" horiz-adv-x="839" 
d="M154 643q0 136 91 227t228 91q103 0 166 -68t63 -180q0 -136 -91 -227t-228 -91q-103 0 -166 68t-63 180z" />
    <glyph glyph-name="ellipsis" unicode="&#x2026;" horiz-adv-x="1382" 
d="M37 92q0 66 41.5 108t107.5 42q50 0 79.5 -31.5t29.5 -85.5q0 -66 -42 -108t-108 -42q-50 0 -79 31.5t-29 85.5zM494 92q0 66 41.5 108t107.5 42q50 0 79.5 -31.5t29.5 -85.5q0 -66 -42 -108t-108 -42q-50 0 -79 31.5t-29 85.5zM950 92q0 66 42 108t108 42q50 0 79 -31.5
t29 -85.5q0 -66 -41.5 -108t-107.5 -42q-50 0 -79.5 31.5t-29.5 85.5z" />
    <glyph glyph-name="perthousand" unicode="&#x2030;" horiz-adv-x="2607" 
d="M338 -102h-145l1294 1638h145zM123 995q0 200 111 327.5t286 127.5q143 0 218 -76t75 -221q0 -204 -110.5 -331.5t-288.5 -127.5q-136 0 -213.5 80t-77.5 221zM508 1356q-100 0 -163.5 -102.5t-63.5 -262.5q0 -92 40 -147.5t107 -55.5q97 0 162 106.5t65 264.5
q0 94 -38.5 145.5t-108.5 51.5zM1012 285q0 200 111 327t286 127q143 0 218 -76t75 -221q0 -204 -110.5 -331t-288.5 -127q-136 0 -213.5 80t-77.5 221zM1825 285q0 200 111 327t286 127q143 0 218 -76t75 -221q0 -204 -110.5 -331t-288.5 -127q-136 0 -213.5 80t-77.5 221z
M1397 645q-100 0 -164 -102t-64 -262q0 -92 40.5 -147.5t107.5 -55.5q97 0 162 106.5t65 264.5q0 94 -38.5 145t-108.5 51zM2210 645q-100 0 -164 -102t-64 -262q0 -92 40.5 -147.5t107.5 -55.5q97 0 162 106.5t65 264.5q0 94 -38.5 145t-108.5 51z" />
    <glyph glyph-name="guilsinglleft" unicode="&#x2039;" horiz-adv-x="626" 
d="M569 870l-311 -345q127 -242 199 -361l-76 -60q-96 46 -315 418q320 365 432 418z" />
    <glyph glyph-name="guilsinglright" unicode="&#x203a;" horiz-adv-x="626" 
d="M145 881l76 59q46 -22 128.5 -130.5t187.5 -287.5q-319 -364 -433 -418l-71 70l311 346q-127 242 -199 361z" />
    <glyph glyph-name="fraction" unicode="&#x2044;" horiz-adv-x="409" 
d="M-354 -102h-146l1295 1638h145z" />
    <glyph glyph-name="Euro" unicode="&#x20ac;" horiz-adv-x="1417" 
d="M975 1358q-177 0 -308 -127t-187 -346h468l-12 -92h-475q-12 -72 -15 -152h467l-12 -92h-456q6 -225 97.5 -349t254.5 -124q156 0 237 73t123 246l107 -8l-45 -313q-225 -107 -439 -107q-255 0 -393 150t-143 432h-185l13 92h174q5 87 17 152h-169l12 92h178
q74 267 262.5 424t444.5 157q97 0 216 -23.5t190 -23.5q-12 -161 -49 -344l-111 -8q0 159 -58.5 225t-203.5 66z" />
    <glyph glyph-name="uni2113" unicode="&#x2113;" horiz-adv-x="782" 
d="M428 102q92 0 178 64l12 -90q-134 -101 -284 -101q-107 0 -156.5 42.5t-49.5 134.5q0 25 5 65l34 244q-39 -19 -81 -39l-25 94q61 32 124 70l61 436q37 264 121 374.5t249 110.5q199 0 199 -223q0 -201 -115 -381t-337 -328l-46 -325q-3 -21 -3 -40q0 -108 114 -108z
M438 1106l-53 -377q136 118 198 252t62 303q0 62 -15 88.5t-50 26.5q-56 0 -87.5 -65t-54.5 -228z" />
    <glyph glyph-name="uni2116" unicode="&#x2116;" horiz-adv-x="2281" 
d="M1890 729q-130 0 -201 72.5t-71 206.5q0 195 107.5 318.5t279.5 123.5q136 0 206 -69t70 -203q0 -199 -109 -324t-282 -125zM1077 1434h477l-12 -78l-94 -13q-48 -7 -68.5 -29t-27.5 -69l-176 -1245h-162l-418 899q-85 183 -128 322q-7 -109 -24 -236l-112 -797
q-3 -18 -3 -31q0 -32 21 -45t84 -24l60 -10l-13 -78h-471l13 78l79 14q49 9 69.5 29.5t27.5 66.5l149 1057q3 18 3 31q0 32 -21 46t-84 26l-43 8l4 78h338l418 -899q80 -171 121 -300q7 103 22 213l113 797q2 12 2 31q0 32 -21 46t-84 26l-43 8zM1993 1368
q-92 0 -152.5 -106.5t-60.5 -270.5q0 -86 33 -133t92 -47q91 0 153 110.5t62 272.5q0 85 -32.5 129.5t-94.5 44.5zM1581 590h594l-12 -90h-594z" />
    <glyph glyph-name="uni2117" unicode="&#x2117;" horiz-adv-x="1755" 
d="M893 1487q220 0 396 -99t275 -275t99 -396q0 -218 -103.5 -395.5t-279.5 -276t-387 -98.5t-387 98.5t-279.5 276t-103.5 395.5t103.5 395.5t279.5 276t387 98.5zM893 61q133 0 251.5 49.5t204.5 136t136.5 209t50.5 261.5q0 186 -86 336.5t-233 234.5t-324 84t-324 -84
t-233 -234.5t-86 -336.5q0 -139 50.5 -261.5t136.5 -209t204.5 -136t251.5 -49.5zM909 1065q149 0 220 -53t71 -164q0 -101 -81 -159t-222 -58q-26 0 -66 3v-140q0 -31 9 -41t41 -15l53 -8l-2 -57h-330l2 57l33 6q24 5 31.5 14t7.5 33v467q0 26 -8.5 34.5t-40.5 14.5l-23 5
l-2 57h68q46 0 122 2t117 2zM897 704q68 0 104.5 37.5t36.5 106.5q0 75 -32.5 110t-100.5 35q-30 0 -74 -4v-281q54 -4 66 -4z" />
    <glyph glyph-name="trademark" unicode="&#x2122;" horiz-adv-x="1843" 
d="M811 1245l-90 -4q2 80 -12 101.5t-66 21.5h-57l-70 -498q-2 -20 -2 -24q0 -17 9 -24t34 -11l41 -6l-8 -56h-326l8 56l47 8q25 4 34.5 16t13.5 41l69 498h-57q-53 0 -72.5 -22t-40.5 -101l-88 4q5 69 35 189h616q0 -98 -18 -189zM1802 1434l-8 -56l-39 -4
q-23 -2 -33.5 -13t-11.5 -36l-29 -471v-13q0 -19 8 -25.5t35 -10.5l27 -4l-8 -56h-293l8 56l35 6q23 4 31.5 13.5t9.5 33.5l19 242q7 88 18 189q-40 -95 -106 -218l-173 -322h-112l-70 322q-25 120 -38 218q-18 -113 -37 -189l-58 -242q-3 -12 -3 -20q0 -13 9 -19t33 -10
l26 -4l-8 -56h-237l8 56l33 6q23 5 31 13t14 34l108 471q3 12 3 19q0 12 -10 18.5t-36 11.5l-20 4l4 56h248l103 -519l263 519h256z" />
    <glyph glyph-name="Ohm" unicode="&#x2126;" horiz-adv-x="1558" 
d="M914 119h159q106 0 154.5 39t79.5 149l102 -8q-3 -53 -20 -142.5t-37 -156.5h-580l19 133q124 38 224 154t156 286.5t56 362.5q0 205 -88.5 313.5t-255.5 108.5q-229 0 -364.5 -189.5t-135.5 -509.5q0 -213 67 -355t181 -171l-19 -133h-577q-1 66 7.5 155.5t20.5 143.5
l101 8q3 -112 40.5 -150t143.5 -38h155q-146 58 -232.5 213.5t-86.5 361.5q0 352 194 562t521 210q257 0 392.5 -137.5t135.5 -398.5q0 -288 -142 -511.5t-371 -299.5z" />
    <glyph glyph-name="estimated" unicode="&#x212e;" horiz-adv-x="1595" 
d="M414 653v-327q73 -113 183 -173.5t230 -60.5q85 0 159 22.5t127 61t90 82.5t61 94h186q-35 -74 -89.5 -139.5t-130.5 -122t-180 -90t-223 -33.5q-155 0 -287.5 59t-223.5 160.5t-142 239t-51 291.5q0 160 55 300t149.5 238t224 154.5t275.5 56.5q166 0 300 -56t222 -156
t135.5 -237t47.5 -300q0 -44 -2 -64h-1116zM827 1341q-128 0 -235.5 -54.5t-177.5 -161.5v-334h835v321q-70 114 -180 171.5t-242 57.5z" />
    <glyph glyph-name="uni2153" unicode="&#x2153;" horiz-adv-x="1665" 
d="M1495 1536l-1294 -1638h-146l1295 1638h145zM512 582h-438l8 65l76 10q41 5 60.5 18.5t23.5 41.5l83 585q-64 -24 -133 -36l-32 -6l-2 65l247 117h95l-105 -725q-1 -7 -1 -18q0 -21 14.5 -29.5t58.5 -14.5l55 -8zM1376 453q80 -16 122 -63t42 -120q0 -132 -94.5 -208
t-257.5 -76q-140 0 -236 57q-2 12 -2 25q0 38 19 58.5t53 20.5q26 0 45.5 -12.5t32 -28t39 -28t63.5 -12.5q79 0 126.5 53.5t47.5 142.5q0 139 -213 139q-21 0 -53 -4l6 88q151 0 222 43.5t71 135.5q0 112 -129 112q-90 0 -182 -74l-23 93q101 75 256 75q116 0 179 -46.5
t63 -133.5q0 -92 -52 -154t-145 -83z" />
    <glyph glyph-name="uni2154" unicode="&#x2154;" horiz-adv-x="1781" 
d="M1612 1536l-1295 -1638h-145l1294 1638h146zM598 582h-535l13 88q239 187 334.5 307t95.5 235q0 66 -32.5 101t-94.5 35q-89 0 -184 -86l-23 104q106 86 268 86q114 0 172 -53t58 -156q0 -145 -101.5 -278t-324.5 -279q77 8 176 8h192zM1493 453q80 -16 122 -63t42 -120
q0 -132 -94.5 -208t-257.5 -76q-140 0 -236 57q-2 12 -2 25q0 38 19 58.5t53 20.5q26 0 45.5 -12.5t32 -28t39 -28t63.5 -12.5q79 0 126.5 53.5t47.5 142.5q0 139 -213 139q-21 0 -53 -4l6 88q151 0 222 43.5t71 135.5q0 112 -129 112q-91 0 -183 -74l-22 93q101 75 256 75
q116 0 179 -46.5t63 -133.5q0 -92 -52 -154t-145 -83z" />
    <glyph glyph-name="uni2155" unicode="&#x2155;" horiz-adv-x="1667" 
d="M1495 1536l-1294 -1638h-146l1295 1638h145zM512 582h-438l8 65l76 10q41 5 60.5 18.5t23.5 41.5l83 585q-64 -24 -133 -36l-32 -6l-2 65l247 117h95l-105 -725q-1 -7 -1 -18q0 -21 14.5 -29.5t58.5 -14.5l55 -8zM1221 731l-69 -265q67 58 171 58q103 0 163 -61t60 -164
q0 -148 -93 -230.5t-257 -82.5q-139 0 -235 57q-3 18 -3 25q0 38 19 58.5t53 20.5q26 0 45.5 -12.5t32 -28t39 -28t63.5 -12.5q75 0 124.5 60t49.5 155q0 69 -34.5 105t-100.5 36q-70 0 -143 -64l-84 27l119 467h467l-17 -121h-370z" />
    <glyph glyph-name="uni2156" unicode="&#x2156;" horiz-adv-x="1783" 
d="M1612 1536l-1295 -1638h-145l1294 1638h146zM598 582h-535l13 88q239 187 334.5 307t95.5 235q0 66 -32.5 101t-94.5 35q-89 0 -184 -86l-23 104q106 86 268 86q114 0 172 -53t58 -156q0 -145 -101.5 -278t-324.5 -279q77 8 176 8h192zM1337 731l-69 -265q67 58 172 58
q103 0 163 -61t60 -164q0 -148 -93 -230.5t-257 -82.5q-140 0 -236 57q-2 12 -2 25q0 38 19 58.5t53 20.5q26 0 45.5 -12.5t32 -28t39 -28t63.5 -12.5q75 0 124.5 60t49.5 155q0 69 -34.5 105t-100.5 36q-70 0 -143 -64l-84 27l118 467h467l-16 -121h-371z" />
    <glyph glyph-name="uni2157" unicode="&#x2157;" horiz-adv-x="1812" 
d="M1640 1536l-1294 -1638h-145l1294 1638h145zM657 852q0 -132 -94.5 -208.5t-257.5 -76.5q-137 0 -235 58q-2 12 -2 24q0 38 18.5 59t52.5 21q26 0 45.5 -13t32 -28t39 -28t63.5 -13q79 0 127 54t48 143q0 139 -213 139q-22 0 -54 -4l6 88q151 0 222 43t71 135
q0 113 -129 113q-90 0 -182 -74l-22 92q102 76 256 76q116 0 178.5 -46.5t62.5 -133.5q0 -92 -51.5 -154t-144.5 -84q80 -16 121.5 -62.5t41.5 -119.5zM1366 731l-69 -265q67 58 171 58q103 0 163.5 -61t60.5 -164q0 -148 -93.5 -230.5t-257.5 -82.5q-139 0 -235 57
q-2 12 -2 25q0 38 19 58.5t53 20.5q26 0 45.5 -12.5t32 -28t39 -28t63.5 -12.5q75 0 124.5 60t49.5 155q0 69 -34.5 105t-100.5 36q-71 0 -144 -64l-84 27l119 467h467l-16 -121h-371z" />
    <glyph glyph-name="uni2158" unicode="&#x2158;" horiz-adv-x="1853" 
d="M1681 1536l-1294 -1638h-145l1294 1638h145zM460 801h-390l10 67l473 568h141l-75 -535h104l-14 -100h-105l-31 -219h-143zM481 901l50 360l-308 -360h258zM1407 731l-69 -265q67 58 171 58q103 0 163.5 -61t60.5 -164q0 -148 -93.5 -230.5t-257.5 -82.5q-139 0 -235 57
q-2 12 -2 25q0 38 19 58.5t53 20.5q26 0 45.5 -12.5t32 -28t39 -28t63.5 -12.5q75 0 124.5 60t49.5 155q0 69 -34.5 105t-100.5 36q-71 0 -144 -64l-84 27l119 467h467l-16 -121h-371z" />
    <glyph glyph-name="uni2159" unicode="&#x2159;" horiz-adv-x="1705" 
d="M1495 1536l-1294 -1638h-146l1295 1638h145zM512 582h-438l8 65l76 10q41 5 60.5 18.5t23.5 41.5l83 585q-64 -24 -133 -36l-32 -6l-2 65l247 117h95l-105 -725q-1 -7 -1 -18q0 -21 14.5 -29.5t58.5 -14.5l55 -8zM1466 778q-251 0 -312 -367q66 126 232 126
q98 0 151.5 -57.5t53.5 -162.5q0 -151 -92 -241t-246 -90q-249 0 -249 290q0 276 122.5 435t335.5 159q107 0 180 -30l-24 -95q-78 33 -152 33zM1329 438q-74 0 -123 -64t-49 -161q0 -66 29.5 -103.5t81.5 -37.5q72 0 119 66t47 167q0 65 -27 99t-78 34z" />
    <glyph glyph-name="uni215A" unicode="&#x215a;" horiz-adv-x="1853" 
d="M1642 1536l-1294 -1638h-145l1294 1638h145zM664 881q0 -148 -93.5 -231t-257.5 -83q-137 0 -235 58q-2 12 -2 24q0 38 18.5 59t52.5 21q26 0 46 -13t32 -28t39 -28t64 -13q75 0 124.5 60t49.5 155q0 69 -34.5 105.5t-100.5 36.5q-71 0 -144 -64l-84 27l119 467h467
l-16 -121h-371l-69 -265q67 58 171 58q103 0 163.5 -61t60.5 -164zM1614 778q-251 0 -312 -367q66 126 232 126q98 0 151.5 -57.5t53.5 -162.5q0 -151 -92 -241t-246 -90q-250 0 -250 290q0 276 123 435t336 159q106 0 180 -30l-25 -95q-78 33 -151 33zM1477 438
q-74 0 -123 -64t-49 -161q0 -66 29 -103.5t81 -37.5q72 0 119 66t47 167q0 65 -26.5 99t-77.5 34z" />
    <glyph glyph-name="oneeighth" unicode="&#x215b;" horiz-adv-x="1697" 
d="M1495 1536l-1294 -1638h-146l1295 1638h145zM512 582h-438l8 65l76 10q41 5 60.5 18.5t23.5 41.5l83 585q-64 -24 -133 -36l-32 -6l-2 65l247 117h95l-105 -725q-1 -7 -1 -18q0 -21 14.5 -29.5t58.5 -14.5l55 -8zM1405 472q39 -22 63.5 -38.5t51.5 -42.5t40 -58t13 -71
q0 -123 -92.5 -199.5t-241.5 -76.5q-123 0 -190.5 52t-67.5 148q0 193 212 257q-59 37 -91.5 78t-32.5 102q0 115 81.5 181t221.5 66q109 0 170.5 -46t61.5 -130q0 -165 -199 -222zM1362 793q-60 0 -98.5 -38t-38.5 -98q0 -46 28 -79.5t80 -64.5q133 53 133 177q0 49 -27 76
t-77 27zM1249 63q75 0 121.5 43.5t46.5 114.5q0 59 -38.5 98.5t-111.5 80.5q-72 -29 -110.5 -81.5t-38.5 -121.5q0 -61 35.5 -97.5t95.5 -36.5z" />
    <glyph glyph-name="threeeighths" unicode="&#x215c;" horiz-adv-x="1843" 
d="M1640 1536l-1294 -1638h-145l1294 1638h145zM657 852q0 -132 -94.5 -208.5t-257.5 -76.5q-137 0 -235 58q-2 12 -2 24q0 38 18.5 59t52.5 21q26 0 45.5 -13t32 -28t39 -28t63.5 -13q79 0 127 54t48 143q0 139 -213 139q-22 0 -54 -4l6 88q151 0 222 43t71 135
q0 113 -129 113q-90 0 -182 -74l-22 92q102 76 256 76q116 0 178.5 -46.5t62.5 -133.5q0 -92 -51.5 -154t-144.5 -84q80 -16 121.5 -62.5t41.5 -119.5zM1550 472q39 -22 63.5 -38.5t51.5 -42.5t40 -58t13 -71q0 -123 -92.5 -199.5t-241.5 -76.5q-123 0 -190.5 52t-67.5 148
q0 193 213 257q-60 37 -92.5 78.5t-32.5 101.5q0 115 82 181t222 66q109 0 170 -46t61 -130q0 -165 -199 -222zM1507 793q-60 0 -98.5 -38t-38.5 -98q0 -46 28 -79.5t80 -64.5q134 53 134 177q0 49 -27.5 76t-77.5 27zM1395 63q75 0 121.5 43.5t46.5 114.5q0 59 -39 98.5
t-112 80.5q-71 -29 -109.5 -81.5t-38.5 -121.5q0 -61 35.5 -97.5t95.5 -36.5z" />
    <glyph glyph-name="fiveeighths" unicode="&#x215d;" horiz-adv-x="1845" 
d="M1642 1536l-1294 -1638h-145l1294 1638h145zM664 881q0 -148 -93.5 -231t-257.5 -83q-137 0 -235 58q-2 12 -2 24q0 38 18.5 59t52.5 21q26 0 46 -13t32 -28t39 -28t64 -13q75 0 124.5 60t49.5 155q0 69 -34.5 105.5t-100.5 36.5q-71 0 -144 -64l-84 27l119 467h467
l-16 -121h-371l-69 -265q67 58 171 58q103 0 163.5 -61t60.5 -164zM1552 472q39 -22 63.5 -38.5t51.5 -42.5t40 -58t13 -71q0 -123 -92.5 -199.5t-241.5 -76.5q-123 0 -190.5 52t-67.5 148q0 193 213 257q-60 37 -92.5 78.5t-32.5 101.5q0 115 82 181t222 66q109 0 170 -46
t61 -130q0 -165 -199 -222zM1509 793q-60 0 -98.5 -38t-38.5 -98q0 -46 28 -79.5t80 -64.5q134 53 134 177q0 49 -27.5 76t-77.5 27zM1397 63q75 0 121.5 43.5t46.5 114.5q0 59 -39 98.5t-112 80.5q-71 -29 -109.5 -81.5t-38.5 -121.5q0 -61 35.5 -97.5t95.5 -36.5z" />
    <glyph glyph-name="seveneighths" unicode="&#x215e;" horiz-adv-x="1732" 
d="M1530 1536l-1294 -1638h-146l1294 1638h146zM254 881q117 210 306 432h-413l17 121h553l-6 -76l-99 -150q-168 -252 -268 -495q-31 -74 -51 -138q-24 -6 -55 -6q-44 0 -63 16t-19 54t21 90t77 152zM1440 472q39 -22 63.5 -38.5t51.5 -42.5t40 -58t13 -71
q0 -123 -92.5 -199.5t-241.5 -76.5q-123 0 -190.5 52t-67.5 148q0 193 212 257q-59 37 -91.5 78t-32.5 102q0 115 81.5 181t221.5 66q109 0 170 -46t61 -130q0 -165 -198 -222zM1397 793q-60 0 -98.5 -38t-38.5 -98q0 -46 28 -79.5t80 -64.5q133 53 133 177q0 49 -27 76
t-77 27zM1284 63q75 0 121.5 43.5t46.5 114.5q0 59 -38.5 98.5t-111.5 80.5q-72 -29 -110.5 -81.5t-38.5 -121.5q0 -61 35.5 -97.5t95.5 -36.5z" />
    <glyph glyph-name="onefraction" unicode="&#x215f;" horiz-adv-x="964" 
d="M1495 1536l-1294 -1638h-146l1295 1638h145zM512 582h-438l8 65l76 10q41 5 60.5 18.5t23.5 41.5l83 585q-64 -24 -133 -36l-32 -6l-2 65l247 117h95l-105 -725q-1 -7 -1 -18q0 -21 14.5 -29.5t58.5 -14.5l55 -8z" />
    <glyph glyph-name="arrowleft" unicode="&#x2190;" horiz-adv-x="1646" 
d="M1548 465h-1018q-108 0 -191 7q69 -62 173 -191l266 -332l-82 -47l-630 630l630 631l82 -47l-266 -332q-104 -129 -173 -191q83 7 191 7h1018v-135z" />
    <glyph glyph-name="arrowup" unicode="&#x2191;" horiz-adv-x="1646" 
d="M1468 674l-47 -82l-331 266q-129 104 -192 174q7 -83 7 -192v-1018h-135v1018q0 98 8 192q-63 -70 -192 -174l-332 -266l-47 82l631 631z" />
    <glyph glyph-name="arrowright" unicode="&#x2192;" horiz-adv-x="1646" 
d="M1610 532l-631 -630l-82 47l266 332q101 126 174 191q-83 -7 -192 -7h-1018v135h1018q109 0 192 -7q-73 65 -174 191l-266 332l82 47z" />
    <glyph glyph-name="arrowdown" unicode="&#x2193;" horiz-adv-x="1646" 
d="M1468 391l-630 -631l-631 631l47 82l332 -266q129 -104 192 -174q-8 94 -8 192v1018h135v-1018q0 -109 -7 -192q63 70 192 174l331 266z" />
    <glyph glyph-name="uni2196" unicode="&#x2196;" horiz-adv-x="1646" 
d="M1387 79l-96 -96l-719 720q-77 77 -131 141q2 -38 2 -55q0 -71 -15 -204l-46 -422l-91 24v892h892l24 -91l-422 -46q-134 -15 -204 -15q-17 0 -55 2q64 -54 141 -131z" />
    <glyph glyph-name="uni2197" unicode="&#x2197;" horiz-adv-x="1646" 
d="M1384 1079v-892l-91 -24l-46 422q-15 134 -15 204q0 17 2 55q-60 -71 -130 -141l-720 -720l-96 96l720 719q77 77 141 131q-38 -2 -55 -2q-70 0 -203 15l-423 46l24 91h892z" />
    <glyph glyph-name="uni2198" unicode="&#x2198;" horiz-adv-x="1646" 
d="M1384 878v-892h-892l-24 91l423 46q133 15 203 15q17 0 55 -2q-64 54 -141 131l-720 719l96 96l720 -720q70 -70 130 -141q-2 38 -2 55q0 70 15 203l46 423z" />
    <glyph glyph-name="uni2199" unicode="&#x2199;" horiz-adv-x="1646" 
d="M581 138q71 0 204 -15l423 -46l-25 -91h-892v892l91 24l46 -423q15 -133 15 -203q0 -17 -2 -55q54 64 131 141l719 720l96 -96l-720 -719q-77 -77 -141 -131q38 2 55 2z" />
    <glyph glyph-name="partialdiff" unicode="&#x2202;" horiz-adv-x="1128" 
d="M535 1448q255 0 385.5 -135t130.5 -398q0 -257 -83 -472.5t-227.5 -340.5t-316.5 -125q-184 0 -282.5 94t-98.5 269q0 256 139 423t353 167q310 0 317 -352h3q40 154 40 288q0 212 -100.5 335.5t-272.5 123.5q-70 0 -125 -12l2 123q53 12 136 12zM426 98
q137 0 229.5 125.5t92.5 311.5q0 139 -52.5 212.5t-150.5 73.5q-136 0 -224 -132t-88 -335q0 -123 50.5 -189.5t142.5 -66.5z" />
    <glyph glyph-name="increment" unicode="&#x2206;" horiz-adv-x="1411" 
d="M1276 0h-1305l801 1440h109zM769 1168l-590 -1062h883z" />
    <glyph glyph-name="product" unicode="&#x220f;" horiz-adv-x="1492" 
d="M1520 1356l-95 -13q-48 -7 -68.5 -29t-27.5 -69l-199 -1415q-2 -12 -2 -31q0 -32 21 -45t84 -24l59 -11l-12 -77h-522l12 77l80 15q49 9 69 29.5t27 66.5l211 1497h-625l-208 -1497q-3 -18 -3 -31q0 -32 21 -45t84 -24l59 -11l-12 -77h-522l12 77l80 15q49 9 69 29.5
t27 66.5l199 1415q3 18 3 31q0 32 -21 46t-84 26l-43 8l4 78h1335z" />
    <glyph glyph-name="summation" unicode="&#x2211;" horiz-adv-x="1230" 
d="M188 1434h1031q0 -163 -35 -357l-123 -8q2 70 -1 113t-12 75t-29.5 47t-49.5 22t-76 7h-518l354 -778l-579 -772h526q59 0 94 9.5t63 40.5t46 79t39 135l120 -8q-26 -245 -71 -397h-1030l4 86l600 800l-373 820z" />
    <glyph glyph-name="minus" unicode="&#x2212;" horiz-adv-x="1171" 
d="M1012 500h-887l16 114h887z" />
    <glyph glyph-name="radical" unicode="&#x221a;" horiz-adv-x="1185" 
d="M1286 1495l-743 -1501h-131l-162 837q-13 66 -33 92.5t-63 34.5l-60 11l4 75h297l144 -792l604 1243h143z" />
    <glyph glyph-name="infinity" unicode="&#x221e;" horiz-adv-x="1882" 
d="M1491 946q140 0 220.5 -68t80.5 -186q0 -160 -131 -270.5t-320 -110.5q-109 0 -186 40t-240 185q-321 -225 -516 -225q-140 0 -220.5 68t-80.5 186q0 160 131 270.5t320 110.5q110 0 186.5 -40t239.5 -184q320 224 516 224zM1401 438q101 0 169 67t68 165q0 78 -48.5 122
t-135.5 44q-66 0 -156.5 -44.5t-234.5 -147.5q137 -121 207.5 -163.5t130.5 -42.5zM252 588q0 -78 48.5 -122t135.5 -44q66 0 156.5 44.5t234.5 147.5q-137 120 -207 162.5t-131 42.5q-101 0 -169 -66.5t-68 -164.5z" />
    <glyph glyph-name="integral" unicode="&#x222b;" horiz-adv-x="702" 
d="M252 651q0 417 84 612t264 195q90 0 166 -49q4 -12 4 -35q0 -40 -22 -63t-60 -23q-28 0 -48 12.5t-28.5 27.5t-22 27.5t-30.5 12.5q-58 0 -94.5 -197t-36.5 -514q0 -43 1 -116.5t1 -116.5q0 -417 -84 -612t-264 -195q-90 0 -166 49q-4 12 -4 35q0 40 22 63t60 23
q28 0 48 -12.5t28.5 -27.5t22 -27.5t30.5 -12.5q58 0 94.5 197t36.5 514q0 43 -1 116.5t-1 116.5z" />
    <glyph glyph-name="approxequal" unicode="&#x2248;" horiz-adv-x="1198" 
d="M840 729q67 0 114.5 23t100.5 82l28 -89q-59 -68 -123 -100.5t-145 -32.5q-72 0 -134.5 13.5t-100 29.5t-89 29.5t-102.5 13.5q-68 0 -115.5 -23t-99.5 -81l-29 88q115 133 269 133q72 0 134.5 -13.5t100 -29.5t89 -29.5t102.5 -13.5zM799 440q67 0 114.5 23t100.5 82
l28 -88q-59 -68 -123 -100.5t-145 -32.5q-72 0 -134.5 13.5t-100 29.5t-89 29.5t-102.5 13.5q-67 0 -114.5 -23t-100.5 -82l-29 88q115 133 269 133q72 0 134.5 -13.5t100 -29.5t89 -29.5t102.5 -13.5z" />
    <glyph glyph-name="notequal" unicode="&#x2260;" horiz-adv-x="1153" 
d="M675 653l-91 -180h438l-16 -115h-479l-134 -264l-92 49l109 215h-332l16 115h373l91 180h-439l16 115h481l134 264l92 -49l-109 -215h330l-16 -115h-372z" />
    <glyph glyph-name="lessequal" unicode="&#x2264;" horiz-adv-x="983" 
d="M901 971l-583 -267l507 -266l-18 -137l-680 369l10 75l785 369zM57 170h731l-16 -115h-731z" />
    <glyph glyph-name="greaterequal" unicode="&#x2265;" horiz-adv-x="983" 
d="M887 745l-10 -75l-785 -369l21 143l583 267l-508 266l19 137zM74 170h731l-17 -115h-731z" />
    <glyph glyph-name="filledbox" unicode="&#x25a0;" horiz-adv-x="1843" 
d="M1653 0h-1434v1434h1434v-1434z" />
    <glyph glyph-name="whiteSquare" unicode="&#x25a1;" horiz-adv-x="1843" 
d="M1653 0h-1434v1434h1434v-1434zM1509 143v1147h-1147v-1147h1147z" />
    <glyph glyph-name="triagup" unicode="&#x25b2;" horiz-adv-x="1372" 
d="M1243 236h-1085l542 1095z" />
    <glyph glyph-name="whiteuppointingtriangle" unicode="&#x25b3;" horiz-adv-x="1372" 
d="M1243 236h-1085l542 1095zM700 1024l-313 -649h627z" />
    <glyph glyph-name="blackuppointingsmalltriangle" unicode="&#x25b4;" horiz-adv-x="958" 
d="M901 369h-815l408 821z" />
    <glyph glyph-name="whiteuppointingsmalltriangle" unicode="&#x25b5;" horiz-adv-x="958" 
d="M901 369h-815l408 821zM684 498l-190 393l-191 -393h381z" />
    <glyph glyph-name="blackrightpointingtriangle" unicode="&#x25b6;" horiz-adv-x="1372" 
d="M219 174v1086l1096 -543z" />
    <glyph glyph-name="whiterightpointingtriangle" unicode="&#x25b7;" horiz-adv-x="1372" 
d="M219 174v1086l1096 -543zM1008 717l-650 313v-627z" />
    <glyph glyph-name="uni25B8" unicode="&#x25b8;" horiz-adv-x="958" 
d="M117 309v815l821 -407z" />
    <glyph glyph-name="whiterightpointingsmalltriangle" unicode="&#x25b9;" horiz-adv-x="958" 
d="M117 309v815l821 -407zM246 526l393 191l-393 190v-381z" />
    <glyph glyph-name="triagdn" unicode="&#x25bc;" horiz-adv-x="1372" 
d="M158 1208h1085l-543 -1095z" />
    <glyph glyph-name="whitedownpointingtriangle" unicode="&#x25bd;" horiz-adv-x="1372" 
d="M158 1208h1085l-543 -1095zM700 420l314 649h-627z" />
    <glyph glyph-name="uni25BE" unicode="&#x25be;" horiz-adv-x="958" 
d="M86 1075h815l-407 -821z" />
    <glyph glyph-name="whitedownpointingsmalltriangle" unicode="&#x25bf;" horiz-adv-x="958" 
d="M86 1075h815l-407 -821zM303 946l191 -393l190 393h-381z" />
    <glyph glyph-name="blackleftpointingtriangle" unicode="&#x25c0;" horiz-adv-x="1372" 
d="M1182 1260v-1086l-1096 543z" />
    <glyph glyph-name="whiteleftpointingtriangle" unicode="&#x25c1;" horiz-adv-x="1372" 
d="M1182 1260v-1086l-1096 543zM393 717l649 -314v627z" />
    <glyph glyph-name="uni25C2" unicode="&#x25c2;" horiz-adv-x="958" 
d="M870 1124v-815l-821 408z" />
    <glyph glyph-name="whiteleftpointingsmalltriangle" unicode="&#x25c3;" horiz-adv-x="958" 
d="M870 1124v-815l-821 408zM741 907l-393 -190l393 -191v381z" />
    <glyph glyph-name="blackDiamond" unicode="&#x25c6;" horiz-adv-x="1114" 
d="M1077 717l-506 -506l-505 506l505 506z" />
    <glyph glyph-name="whiteDiamond" unicode="&#x25c7;" horiz-adv-x="1114" 
d="M1077 717l-506 -506l-505 506l505 506zM891 717l-320 319l-319 -319l319 -320z" />
    <glyph glyph-name="whitediamondcontainingblacksmalldiamond" unicode="&#x25c8;" horiz-adv-x="1114" 
d="M1077 717l-506 -506l-505 506l505 506zM891 717l-320 319l-319 -319l319 -320zM571 836l119 -119l-119 -119l-118 119z" />
    <glyph glyph-name="lozenge" unicode="&#x25ca;" horiz-adv-x="1148" 
d="M1104 717l-569 -723h-117l-344 723l569 723h117zM919 718l-249 525l-411 -527l249 -525z" />
    <glyph glyph-name="whitecircle" unicode="&#x25cb;" horiz-adv-x="1843" 
d="M117 717q0 167 65 318.5t174.5 261t261 174.5t318.5 65t318.5 -65t261 -174.5t174.5 -261t65 -318.5t-65 -318.5t-174.5 -261t-261 -174.5t-318.5 -65t-318.5 65t-261 174.5t-174.5 261t-65 318.5zM260 717q0 -137 53.5 -262.5t144 -216t216 -144t262.5 -53.5t262.5 53.5
t216 144t144 216t53.5 262.5t-53.5 262.5t-144 216t-216 144t-262.5 53.5t-262.5 -53.5t-216 -144t-144 -216t-53.5 -262.5z" />
    <glyph glyph-name="blackcircle" unicode="&#x25cf;" horiz-adv-x="1843" 
d="M117 717q0 167 65 318.5t174.5 261t261 174.5t318.5 65t318.5 -65t261 -174.5t174.5 -261t65 -318.5t-65 -318.5t-174.5 -261t-261 -174.5t-318.5 -65t-318.5 65t-261 174.5t-174.5 261t-65 318.5z" />
    <glyph glyph-name="uni25FB" unicode="&#x25fb;" horiz-adv-x="1314" 
d="M1145 244h-946v946h946v-946zM1006 383v668h-668v-668h668z" />
    <glyph glyph-name="uni25FC" unicode="&#x25fc;" horiz-adv-x="1314" 
d="M1145 244h-946v946h946v-946z" />
    <glyph glyph-name="uni25FD" unicode="&#x25fd;" horiz-adv-x="958" 
d="M852 358h-717v717h717v-717zM719 492v450h-451v-450h451z" />
    </font>
</defs>
</svg>
