<?xml version="1.0" standalone="no"?>
<!DOCTYPE svg PUBLIC "-//W3C//DTD SVG 1.1//EN" "http://www.w3.org/Graphics/SVG/1.1/DTD/svg11.dtd" >
<svg xmlns="http://www.w3.org/2000/svg" xmlns:xlink="http://www.w3.org/1999/xlink" version="1.1">
<metadata>
Created by FontForge 20170731 at Thu Oct  8 12:50:49 2020
 By Aleksey,,,
Copyright (c) Stefan Willerstorfer 2009-2014. All rights reserved.
</metadata>
<defs>
<font id="Sindelar-RegularA" horiz-adv-x="1024" >
  <font-face 
    font-family="Sindelar"
    font-weight="400"
    font-stretch="normal"
    units-per-em="2048"
    panose-1="2 4 5 3 4 4 6 2 2 4"
    ascent="1556"
    descent="-492"
    x-height="1044"
    cap-height="1434"
    bbox="-395 -721 2613 1929"
    underline-thickness="118"
    underline-position="-380"
    unicode-range="U+0020-FB04"
  />
<missing-glyph horiz-adv-x="1189" 
d="M1016 1434v-1434h-842v1434h842zM854 1331h-518l259 -524zM276 162l275 555l-275 555v-1110zM913 1272l-274 -555l274 -555v1110zM336 102h518l-259 525z" />
    <glyph glyph-name="f_f" unicode="ff" horiz-adv-x="1417" 
d="M1485 1481q6 -18 6 -43q0 -43 -24.5 -69t-65.5 -26q-50 0 -118.5 38t-125.5 38q-53 0 -74.5 -38t-21.5 -132v-205h311v-108h-311v-741q0 -57 17 -73t89 -26l103 -14l-4 -82h-529l4 78l58 12q46 10 59.5 27.5t13.5 66.5v752h-456v-752q0 -57 17 -72.5t89 -25.5l62 -8
l-4 -78h-488l4 78l58 12q46 10 59.5 27.5t13.5 66.5v752h-141l-4 86l145 22v78q0 189 102 282t289 93q175 0 321 -73q96 94 273 94q158 0 273 -37zM416 1044h456v99q0 100 8 149q-38 2 -76.5 19t-66.5 36.5t-74.5 35.5t-99.5 16q-73 0 -110 -46.5t-37 -164.5v-144z" />
    <glyph glyph-name="fi" unicode="fi" horiz-adv-x="1261" 
d="M1229 78l-4 -78h-488l4 78l58 12q46 10 59.5 27.5t13.5 66.5v643q0 60 -24 84.5t-84 24.5h-348v-752q0 -57 17 -72.5t89 -25.5l62 -8l-4 -78h-488l4 78l58 12q46 10 59.5 27.5t13.5 66.5v752h-141l-4 86l145 22v99q0 189 102 282t289 93q119 0 227.5 -24t158.5 -64
q6 -18 6 -44q0 -46 -26 -72t-75 -26q-44 0 -86 20.5t-72 45t-80 45t-108 20.5q-73 0 -110 -46.5t-37 -164.5v-164h509l136 17v-877q0 -57 17 -72.5t89 -25.5z" />
    <glyph glyph-name="fl" unicode="fl" horiz-adv-x="1284" 
d="M1239 78l-4 -78h-488l5 78l57 12q46 10 60 27.5t14 66.5v1130q-37 4 -75.5 21.5t-67 36t-76 33t-101.5 14.5q-73 0 -110 -46.5t-37 -164.5v-164h291v-108h-291v-752q0 -57 17 -72.5t89 -25.5l62 -8l-4 -78h-488l4 78l58 12q46 10 59.5 27.5t13.5 66.5v752h-141l-4 86
l145 22v99q0 189 102 282t289 93q174 0 314 -46l139 25v-1313q0 -57 17.5 -72.5t89.5 -25.5z" />
    <glyph glyph-name="f_f_i" unicode="ffi" horiz-adv-x="1906" 
d="M1874 78l-4 -78h-488l4 78l58 12q46 10 60 27.5t14 66.5v643q0 60 -24.5 84.5t-84.5 24.5h-348v-752q0 -57 17 -72.5t89 -25.5l62 -8l-4 -78h-488l4 78l58 12q46 10 59.5 27.5t13.5 66.5v752h-456v-752q0 -57 17 -72.5t89 -25.5l62 -8l-4 -78h-488l4 78l58 12
q46 10 59.5 27.5t13.5 66.5v752h-141l-4 86l145 22v78q0 189 102 282t289 93q175 0 321 -73q99 94 325 94q119 0 227 -24t158 -64q6 -18 6 -44q0 -46 -26 -72t-75 -26q-44 0 -86 20.5t-72 45t-80 45t-108 20.5q-73 0 -110 -46.5t-37 -164.5v-164h509l136 17v-877
q0 -57 17 -72.5t89 -25.5zM416 1044h456v99q0 100 8 149q-38 2 -76.5 19t-66.5 36.5t-74.5 35.5t-99.5 16q-73 0 -110 -46.5t-37 -164.5v-144z" />
    <glyph glyph-name="f_f_l" unicode="ffl" horiz-adv-x="1929" 
d="M1884 78l-4 -78h-487l4 78l57 12q46 10 60 27.5t14 66.5v1130q-37 4 -75.5 21.5t-67 36t-76 33t-101.5 14.5q-73 0 -110 -46.5t-37 -164.5v-164h291v-108h-291v-752q0 -57 17 -72.5t89 -25.5l62 -8l-4 -78h-488l4 78l58 12q46 10 59.5 27.5t13.5 66.5v752h-456v-752
q0 -57 17 -72.5t89 -25.5l62 -8l-4 -78h-488l4 78l58 12q46 10 59.5 27.5t13.5 66.5v752h-141l-4 86l145 22v78q0 189 102 282t289 93q175 0 321 -73q99 94 325 94q173 0 313 -46l139 25v-1313q0 -57 17.5 -72.5t89.5 -25.5zM416 1044h456v99q0 100 8 149q-38 2 -76.5 19
t-66.5 36.5t-74.5 35.5t-99.5 16q-73 0 -110 -46.5t-37 -164.5v-144z" />
    <glyph glyph-name="f_b.liga" unicode="fb" horiz-adv-x="1888" 
d="M1362 1069q201 0 312.5 -143t111.5 -404q0 -245 -130.5 -396t-342.5 -151q-162 0 -262 98l-107 -98l-72 25v1316q-34 5 -71 23t-65 35t-74 31t-99 14q-73 0 -110 -46.5t-37 -164.5v-164h280v-108h-280v-741q0 -57 17 -73t89 -26l103 -14l-4 -82h-529l4 78l58 12
q46 10 59.5 27.5t13.5 66.5v752h-141l-4 86l145 22v99q0 189 102 282t289 93q176 0 310 -44l133 23v-350q0 -104 -4 -248q108 170 305 170zM1284 88q148 0 224.5 111t76.5 323q0 203 -71 313.5t-201 110.5q-165 0 -252 -165v-573q91 -120 223 -120z" />
    <glyph glyph-name="f_h.liga" unicode="fh" horiz-adv-x="1906" 
d="M1884 78l-4 -78h-487l4 78l57 12q46 10 60 27.5t14 66.5v521q0 241 -195 241q-170 0 -262 -167v-595q0 -57 17.5 -72.5t89.5 -25.5l61 -8l-4 -78h-488l5 78l57 12q46 10 60 27.5t14 66.5v1130q-37 4 -75.5 21.5t-67 36t-76 33t-101.5 14.5q-73 0 -110 -46.5t-37 -164.5
v-164h291v-108h-291v-752q0 -57 17 -72.5t89 -25.5l62 -8l-4 -78h-488l4 78l58 12q46 10 59.5 27.5t13.5 66.5v752h-141l-4 86l145 22v99q0 189 102 282t289 93q174 0 314 -46l139 25v-350q0 -155 -4 -251q54 83 135 128t180 45q164 0 249 -90t85 -262v-533
q0 -57 17.5 -72.5t89.5 -25.5z" />
    <glyph glyph-name="f_j.liga" unicode="fj" horiz-adv-x="1226" 
d="M1061 1061v-760q0 -449 -158 -618q-99 -107 -260 -134q-37 29 -37 91q0 63 66 86q13 5 64 15.5t77 27.5q37 25 47 111t10 368v579q0 60 -24 84.5t-84 24.5h-346v-741q0 -57 17 -73t89 -26l103 -14l-4 -82h-529l4 78l58 12q46 10 59.5 27.5t13.5 66.5v752h-141l-4 86
l145 22v99q0 189 102 282t289 93q119 0 227.5 -24t158.5 -64q6 -18 6 -44q0 -46 -26 -72t-75 -26q-44 0 -86 20.5t-72 45t-80 45t-108 20.5q-73 0 -110 -46.5t-37 -164.5v-164h509z" />
    <glyph glyph-name="f_k.liga" unicode="fk" horiz-adv-x="1783" 
d="M1071 1497v-1313q0 -57 17.5 -73.5t89.5 -26.5l47 -6l-4 -78h-474l5 78l57 12q46 10 60 27.5t14 66.5v1130q-37 4 -75.5 21.5t-67 36t-76 33t-101.5 14.5q-73 0 -110 -46.5t-37 -164.5v-164h291v-108h-291v-752q0 -57 17 -72.5t89 -25.5l62 -8l-4 -78h-488l4 78l58 12
q46 10 59.5 27.5t13.5 66.5v752h-141l-4 86l145 22v99q0 189 102 282t289 93q174 0 314 -46zM1366 510l190 -260q65 -89 116 -129.5t104 -46.5l-4 -68q-56 -18 -115 -18q-88 0 -140 36.5t-143 161.5l-153 213q-74 103 -142 176l257 254q65 65 65 96q0 29 -49 36l-41 6l-4 77
h415l-4 -77l-26 -6q-65 -15 -101 -37t-98 -84l-218 -218q31 -31 91 -112z" />
    <glyph glyph-name="f_f_b.liga" unicode="ffb" horiz-adv-x="2533" 
d="M2007 1069q201 0 312.5 -143t111.5 -404q0 -245 -130.5 -396t-342.5 -151q-161 0 -261 98l-108 -98l-71 25v1316q-34 5 -71.5 23t-65.5 35t-74 31t-99 14q-73 0 -110 -46.5t-37 -164.5v-164h280v-108h-280v-741q0 -57 17 -73t89 -26l103 -14l-4 -82h-529l4 78l58 12
q46 10 59.5 27.5t13.5 66.5v752h-456v-752q0 -57 17 -72.5t89 -25.5l62 -8l-4 -78h-488l4 78l58 12q46 10 59.5 27.5t13.5 66.5v752h-141l-4 86l145 22v78q0 189 102 282t289 93q175 0 321 -73q99 94 325 94q176 0 310 -44l132 23v-350q0 -104 -4 -248q108 170 305 170z
M416 1044h456v99q0 101 8 150q-38 2 -76.5 19t-66.5 36t-74.5 35t-99.5 16q-73 0 -110 -46.5t-37 -164.5v-144zM1929 88q148 0 224.5 111t76.5 323q0 203 -71 313.5t-201 110.5q-165 0 -252 -165v-573q91 -120 223 -120z" />
    <glyph glyph-name="f_f_h.liga" unicode="ffh" horiz-adv-x="2551" 
d="M2529 78l-4 -78h-487l4 78l57 12q46 10 60 27.5t14 66.5v521q0 241 -195 241q-170 0 -262 -167v-595q0 -57 17.5 -72.5t89.5 -25.5l61 -8l-4 -78h-487l4 78l57 12q46 10 60 27.5t14 66.5v1130q-37 4 -75.5 21.5t-67 36t-76 33t-101.5 14.5q-73 0 -110 -46.5t-37 -164.5
v-164h291v-108h-291v-752q0 -57 17 -72.5t89 -25.5l62 -8l-4 -78h-488l4 78l58 12q46 10 59.5 27.5t13.5 66.5v752h-456v-752q0 -57 17 -72.5t89 -25.5l62 -8l-4 -78h-488l4 78l58 12q46 10 59.5 27.5t13.5 66.5v752h-141l-4 86l145 22v78q0 189 102 282t289 93
q175 0 321 -73q99 94 325 94q173 0 313 -46l139 25v-350q0 -155 -4 -251q54 83 135.5 128t180.5 45q164 0 248.5 -90t84.5 -262v-533q0 -57 17.5 -72.5t89.5 -25.5zM416 1044h456v99q0 100 8 149q-38 2 -76.5 19t-66.5 36.5t-74.5 35.5t-99.5 16q-73 0 -110 -46.5
t-37 -164.5v-144z" />
    <glyph glyph-name="f_f_j.liga" unicode="ffj" horiz-adv-x="1871" 
d="M1706 1061v-760q0 -449 -158 -618q-99 -107 -260 -134q-37 29 -37 91q0 63 66 86q13 5 64 15.5t77 27.5q37 25 47.5 111.5t10.5 367.5v579q0 60 -24.5 84.5t-84.5 24.5h-346v-741q0 -57 17 -73t89 -26l103 -14l-4 -82h-529l4 78l58 12q46 10 59.5 27.5t13.5 66.5v752
h-456v-752q0 -57 17 -72.5t89 -25.5l62 -8l-4 -78h-488l4 78l58 12q46 10 59.5 27.5t13.5 66.5v752h-141l-4 86l145 22v78q0 189 102 282t289 93q175 0 321 -73q99 94 325 94q119 0 227 -24t158 -64q6 -18 6 -44q0 -46 -26 -72t-75 -26q-44 0 -86 20.5t-72 45t-80 45
t-108 20.5q-73 0 -110 -46.5t-37 -164.5v-164h509zM416 1044h456v99q0 100 8 149q-38 2 -76.5 19t-66.5 36.5t-74.5 35.5t-99.5 16q-73 0 -110 -46.5t-37 -164.5v-144z" />
    <glyph glyph-name="f_f_k.liga" unicode="ffk" horiz-adv-x="2428" 
d="M1716 1497v-1313q0 -57 17.5 -73.5t89.5 -26.5l47 -6l-4 -78h-473l4 78l57 12q46 10 60 27.5t14 66.5v1130q-37 4 -75.5 21.5t-67 36t-76 33t-101.5 14.5q-73 0 -110 -46.5t-37 -164.5v-164h291v-108h-291v-752q0 -57 17 -72.5t89 -25.5l62 -8l-4 -78h-488l4 78l58 12
q46 10 59.5 27.5t13.5 66.5v752h-456v-752q0 -57 17 -72.5t89 -25.5l62 -8l-4 -78h-488l4 78l58 12q46 10 59.5 27.5t13.5 66.5v752h-141l-4 86l145 22v78q0 189 102 282t289 93q175 0 321 -73q99 94 325 94q173 0 313 -46zM416 1044h456v99q0 100 8 149q-38 2 -76.5 19
t-66.5 36.5t-74.5 35.5t-99.5 16q-73 0 -110 -46.5t-37 -164.5v-144zM2011 510l191 -260q65 -89 115.5 -129.5t103.5 -46.5l-4 -68q-56 -18 -115 -18q-88 0 -140 36.5t-143 161.5l-153 213q-73 101 -142 177l257 253q65 65 65 96q0 29 -49 36l-41 6l-4 77h415l-4 -77l-26 -6
q-65 -15 -101 -37t-98 -84l-218 -218q31 -31 91 -112z" />
    <glyph glyph-name=".notdef" horiz-adv-x="1189" 
d="M1016 1434v-1434h-842v1434h842zM854 1331h-518l259 -524zM276 162l275 555l-275 555v-1110zM913 1272l-274 -555l274 -555v1110zM336 102h518l-259 525z" />
    <glyph glyph-name=".null" horiz-adv-x="0" 
 />
    <glyph glyph-name="nonmarkingreturn" horiz-adv-x="682" 
 />
    <glyph glyph-name="space" unicode=" " horiz-adv-x="507" 
 />
    <glyph glyph-name="exclam" unicode="!" horiz-adv-x="516" 
d="M197 436l-52 1037l228 12l-54 -1049h-122zM125 109q0 59 37.5 96t95.5 37t95.5 -37t37.5 -96t-37.5 -96.5t-95.5 -37.5t-95.5 37.5t-37.5 96.5z" />
    <glyph glyph-name="quotedbl" unicode="&#x22;" horiz-adv-x="753" 
d="M129 1516h168q0 -151 -16 -498h-136q-16 347 -16 498zM457 1516h168q0 -129 -17 -498h-135q-16 347 -16 498z" />
    <glyph glyph-name="numbersign" unicode="#" horiz-adv-x="1306" 
d="M996 891l-61 -348h218v-111h-237l-76 -432h-144l76 432h-338l-76 -432h-143l76 432h-223v111h242l62 348h-218v110h237l76 433h143l-76 -433h338l76 433h144l-76 -433h223v-110h-243zM853 891h-338l-61 -348h338z" />
    <glyph glyph-name="dollar" unicode="$" horiz-adv-x="1091" 
d="M1010 369q0 -156 -108.5 -264t-285.5 -132v-198h-100v192q-250 2 -414 119q-10 81 -10 165q0 63 4 134l115 4q19 -151 99 -233.5t208 -85.5v585q-150 65 -208 102q-150 96 -175 254q-6 35 -6 74q0 149 110 256t277 123v195h100v-194q91 -4 192 -27t148 -23v-323l-108 -5
q-26 126 -83 193t-151 80v-539q153 -64 219 -108q159 -108 175 -296q2 -23 2 -48zM313 1120q0 -50 15 -90t45 -70.5t63.5 -52.5t81.5 -44v498q-93 -13 -149 -78t-56 -163zM614 612v-532q93 24 150 93.5t57 162.5q0 100 -53.5 163t-153.5 113z" />
    <glyph glyph-name="percent" unicode="%" horiz-adv-x="1832" 
d="M455 -102h-140l1063 1638h140zM63 1073q0 178 99.5 277.5t253.5 99.5q171 0 261.5 -96.5t90.5 -280.5q0 -177 -97.5 -278t-254.5 -101q-165 0 -259 100t-94 279zM229 1073q0 -132 51 -207t136 -75q84 0 135 75t51 207q0 137 -48.5 209t-137.5 72t-138 -72t-49 -209z
M1065 362q0 178 99 277.5t253 99.5q171 0 261.5 -96.5t90.5 -280.5q0 -176 -97.5 -277t-254.5 -101q-165 0 -258.5 99.5t-93.5 278.5zM1231 362q0 -132 51 -207t135 -75q85 0 136 75t51 207q0 137 -49 209t-138 72t-137.5 -72t-48.5 -209z" />
    <glyph glyph-name="ampersand" unicode="&#x26;" horiz-adv-x="1542" 
d="M1206 258q123 -98 195.5 -136.5t142.5 -45.5l-4 -72q-56 -16 -121 -16q-143 0 -332 135q-181 -156 -428 -156q-255 0 -397.5 114t-142.5 318q0 142 75.5 251t212.5 165q-100 157 -100 309t93.5 247t242.5 95q143 0 222 -73.5t79 -208.5q0 -127 -78 -227.5t-226 -164.5
q69 -95 190 -213.5t268 -235.5q28 72 28 161q0 21 -4 62.5t-4 60.5q0 121 111 121q54 0 88 -27q6 -15 6 -59q0 -225 -117 -404zM641 1372q-72 0 -113 -60.5t-41 -162.5q0 -140 93 -274q103 46 149.5 120t46.5 191q0 89 -36 137.5t-99 48.5zM317 442q0 -175 95 -269.5
t272 -94.5q180 0 302 120q-167 129 -310 274t-210 254q-149 -84 -149 -284z" />
    <glyph glyph-name="quotesingle" unicode="'" horiz-adv-x="425" 
d="M129 1516h168q0 -151 -16 -498h-136q-16 347 -16 498z" />
    <glyph glyph-name="parenleft" unicode="(" horiz-adv-x="606" 
d="M559 -410h-115q-183 253 -261.5 479t-78.5 498q0 264 80 493.5t260 483.5h115q-270 -493 -270 -977q0 -237 69 -487.5t201 -489.5z" />
    <glyph glyph-name="parenright" unicode=")" horiz-adv-x="606" 
d="M47 1544h115q183 -253 261.5 -479t78.5 -498q0 -264 -80 -493.5t-260 -483.5h-115q270 493 270 977q0 237 -69 487.5t-201 489.5z" />
    <glyph glyph-name="asterisk" unicode="*" horiz-adv-x="1007" 
d="M577 1087q126 -113 230 -258q-55 -52 -129 -94q-100 137 -174 298q-74 -161 -174 -298q-74 42 -129 94q104 145 230 258q-181 22 -339 72q15 79 51 150q162 -51 313 -136q-34 170 -34 343q34 6 82 6t82 -6q0 -168 -35 -343q151 85 313 136q36 -71 51 -150
q-159 -50 -338 -72z" />
    <glyph glyph-name="plus" unicode="+" horiz-adv-x="1101" 
d="M1030 498h-412v-441h-135v441h-411v118h411v441h135v-441h412v-118z" />
    <glyph glyph-name="comma" unicode="," horiz-adv-x="489" 
d="M242 242q65 0 99 -44.5t34 -129.5q0 -128 -76 -231t-188 -128q-29 16 -39 58q70 29 103.5 79.5t37.5 131.5q-47 9 -75.5 44.5t-28.5 86.5q0 59 37.5 96t95.5 37z" />
    <glyph glyph-name="hyphen" unicode="-" horiz-adv-x="806" 
d="M664 489h-521v136h521v-136z" />
    <glyph glyph-name="period" unicode="." horiz-adv-x="483" 
d="M109 109q0 59 37.5 96t95.5 37t95.5 -37t37.5 -96t-37.5 -96.5t-95.5 -37.5t-95.5 37.5t-37.5 96.5z" />
    <glyph glyph-name="slash" unicode="/" horiz-adv-x="776" 
d="M213 -377h-147l497 1856h148z" />
    <glyph glyph-name="zero" unicode="0" horiz-adv-x="1208" 
d="M104 532q0 131 40 238t109 176t159 106.5t192 37.5q235 0 367.5 -145.5t132.5 -412.5q0 -255 -142 -406t-358 -151q-228 0 -364 149t-136 408zM303 532q0 -198 84.5 -318t216.5 -120t216.5 120t84.5 318q0 207 -81 323t-220 116t-220 -116t-81 -323z" />
    <glyph glyph-name="one" unicode="1" horiz-adv-x="802" 
d="M760 82l-4 -82h-643l4 82l131 18q55 8 74.5 27t19.5 68v691q-86 -43 -184 -65l-56 -12l-18 84l334 184h112v-882q0 -55 22 -71t105 -28z" />
    <glyph glyph-name="two" unicode="2" horiz-adv-x="1019" 
d="M932 137v-137h-836v115q296 186 437 342t141 299q0 211 -217 211q-157 0 -303 -131l-54 120q146 134 383 134q192 0 291.5 -81.5t99.5 -238.5q0 -174 -143.5 -342.5t-400.5 -296.5q84 6 231 6h371z" />
    <glyph glyph-name="three" unicode="3" horiz-adv-x="1050" 
d="M633 412q151 -25 235 -118t84 -237q0 -193 -134 -305t-363 -112q-220 0 -379 104q-4 16 -4 39q0 46 22.5 71t65.5 25q35 0 68 -21t58 -45.5t74 -45.5t111 -21q126 0 203.5 86.5t77.5 224.5q0 149 -101 218t-319 69q-40 0 -72 -4l-8 117q234 0 342 66.5t108 211.5
q0 114 -60.5 173t-176.5 59q-157 0 -303 -131l-53 120q146 134 383 134q200 0 305.5 -87t105.5 -253q0 -119 -75.5 -212t-194.5 -126z" />
    <glyph glyph-name="four" unicode="4" horiz-adv-x="1122" 
d="M1053 160v-131h-172v-365h-185v365h-655v82l672 958h168v-909h172zM698 160v663l-464 -663h464z" />
    <glyph glyph-name="five" unicode="5" horiz-adv-x="1067" 
d="M553 524q185 0 302.5 -122t117.5 -314q0 -214 -133 -331t-365 -117q-220 0 -379 104q-4 16 -4 39q0 46 22.5 71t65.5 25q35 0 68 -21t58.5 -45.5t74.5 -45.5t111 -21q127 0 203.5 91t76.5 251q0 140 -79.5 221.5t-215.5 81.5q-69 0 -133.5 -31t-110.5 -86l-114 39l92 752
h733v-158h-610l-60 -478q45 44 120 69.5t159 25.5z" />
    <glyph glyph-name="six" unicode="6" horiz-adv-x="1144" 
d="M641 879q189 0 298.5 -119.5t109.5 -325.5t-128.5 -332.5t-340.5 -126.5q-467 0 -467 641q0 379 165 594t457 215q162 0 279 -43l-29 -129q-121 50 -242 50q-206 0 -323.5 -170t-127.5 -479q43 107 133.5 166t215.5 59zM584 88q118 0 191 93t73 241q0 151 -64 242.5
t-180 91.5q-119 0 -197.5 -93.5t-78.5 -240.5q0 -149 69.5 -241.5t186.5 -92.5z" />
    <glyph glyph-name="seven" unicode="7" horiz-adv-x="931" 
d="M907 981l-168 -356q-124 -263 -186 -421.5t-121 -367.5q-28 -100 -43 -186q-27 -6 -59 -6q-63 0 -90 25t-27 83q0 70 68 256q84 230 203.5 469t246.5 430h-682v158h852z" />
    <glyph glyph-name="eight" unicode="8" horiz-adv-x="1148" 
d="M714 766q58 -27 99.5 -49.5t88.5 -59t75.5 -76t47.5 -96t19 -123.5q0 -167 -134.5 -277t-338.5 -110q-214 0 -339.5 103t-125.5 278q0 126 78 223t220 150q-118 63 -184 143.5t-66 204.5q0 154 116.5 251t302.5 97q189 0 300.5 -87.5t111.5 -233.5q0 -112 -71 -200.5
t-200 -137.5zM573 1319q-106 0 -166.5 -60.5t-60.5 -164.5q0 -52 18.5 -93.5t56.5 -74.5t77.5 -56t97.5 -50q109 43 158 108t49 166q0 107 -60.5 166t-169.5 59zM571 82q133 0 207 67t74 189q0 37 -10 70t-24 58t-41.5 50.5t-49.5 42.5t-61.5 39t-64.5 34t-71 34
q-11 5 -17 8q-109 -41 -166.5 -120t-57.5 -189q0 -129 76.5 -206t205.5 -77z" />
    <glyph glyph-name="nine" unicode="9" horiz-adv-x="1128" 
d="M557 1090q467 0 467 -641q0 -379 -165.5 -594t-457.5 -215q-161 0 -278 43l29 129q121 -50 241 -50q206 0 324 170t128 479q-42 -107 -133 -166t-216 -59q-189 0 -298.5 119.5t-109.5 325.5t128.5 332.5t340.5 126.5zM532 309q119 0 198 93.5t79 240.5q0 149 -69.5 241.5
t-186.5 92.5q-118 0 -191 -93t-73 -241q0 -151 63.5 -242.5t179.5 -91.5z" />
    <glyph glyph-name="colon" unicode=":" horiz-adv-x="552" 
d="M143 793q0 59 37.5 96t95.5 37q59 0 96.5 -37.5t37.5 -95.5q0 -59 -38 -96.5t-96 -37.5t-95.5 37.5t-37.5 96.5zM143 109q0 59 37.5 96t95.5 37q59 0 96.5 -37.5t37.5 -95.5q0 -59 -38 -96.5t-96 -37.5t-95.5 37.5t-37.5 96.5z" />
    <glyph glyph-name="semicolon" unicode=";" horiz-adv-x="561" 
d="M283 659q-58 0 -95.5 37.5t-37.5 96.5t37 96t96 37t96 -37t37 -96t-37.5 -96.5t-95.5 -37.5zM283 242q65 0 99 -44.5t34 -129.5q0 -128 -76 -231t-188 -128q-29 16 -39 58q70 29 103.5 79.5t37.5 131.5q-47 9 -75.5 44.5t-28.5 86.5q0 59 37 96t96 37z" />
    <glyph glyph-name="less" unicode="&#x3c;" horiz-adv-x="956" 
d="M829 901l-574 -302l574 -302v-150l-763 410v76l763 409v-141z" />
    <glyph glyph-name="equal" unicode="=" horiz-adv-x="1245" 
d="M1102 651h-959v119h959v-119zM1102 356h-959v119h959v-119z" />
    <glyph glyph-name="greater" unicode="&#x3e;" horiz-adv-x="956" 
d="M891 633v-76l-764 -410v142l574 302l-574 302v149z" />
    <glyph glyph-name="question" unicode="?" horiz-adv-x="968" 
d="M506 1501q180 0 287.5 -90t107.5 -242q0 -74 -23.5 -135t-61.5 -101.5t-84 -75t-92 -65t-84 -63t-61.5 -76.5t-23.5 -98q0 -63 14 -109l-139 -18q-29 63 -29 145q0 63 21.5 114t55.5 86t75.5 65.5t83 61.5t75.5 66t55.5 87t21.5 116q0 104 -56 165t-151 61
q-94 0 -149.5 -48.5t-76.5 -154.5q-14 -69 -40.5 -98t-77.5 -29q-31 0 -57 15.5t-36 41.5q23 177 141 278t304 101zM307 109q0 59 37.5 96t95.5 37t95.5 -37t37.5 -96t-37.5 -96.5t-95.5 -37.5t-95.5 37.5t-37.5 96.5z" />
    <glyph glyph-name="at" unicode="@" horiz-adv-x="1875" 
d="M1067 141q0 65 56 248h-2q-128 -409 -365 -409q-113 0 -165 71.5t-52 224.5q0 160 58.5 299.5t156.5 221.5t211 82q127 0 194 -93l6 17q17 43 35 59.5t49 16.5q32 0 74 -23l-80 -508q-22 -141 -22 -182q0 -107 92 -107q120 0 201 140t81 344q0 274 -155.5 427.5
t-433.5 153.5q-212 0 -375.5 -98t-253.5 -276.5t-90 -409.5q0 -319 167 -488t484 -169q213 0 365 47l22 -84q-198 -70 -412 -70q-384 0 -597.5 201.5t-213.5 562.5q0 261 114.5 464t320.5 315t469 112q222 0 396 -83.5t270.5 -233.5t96.5 -341q0 -163 -62.5 -301
t-170.5 -217.5t-236 -79.5q-233 0 -233 166zM788 90q38 0 87.5 40t98 109t89 175t57.5 225l7 47q-21 43 -55.5 68.5t-72.5 25.5q-74 0 -139 -70.5t-104 -189t-39 -252.5q0 -94 16 -136t55 -42z" />
    <glyph glyph-name="A" unicode="A" horiz-adv-x="1409" 
d="M858 80l57 8q52 8 74.5 25t22.5 54q0 41 -29 126l-47 141h-522l-49 -141q-32 -91 -32 -127q0 -38 28 -54.5t98 -25.5l47 -6l-4 -80h-506l4 80l57 8q60 8 87.5 43.5t74.5 161.5l424 1149h143l394 -1149q43 -126 68.5 -159.5t86.5 -45.5l43 -8l4 -80h-528zM900 543
l-219 653l-229 -653h448z" />
    <glyph glyph-name="B" unicode="B" horiz-adv-x="1271" 
d="M847 773q156 -21 242.5 -118t86.5 -252q0 -189 -142.5 -300t-386.5 -111q-69 0 -216 4t-232 4h-101l4 80l78 14q49 9 66.5 28.5t17.5 65.5v1057q0 52 -20 69.5t-97 31.5l-45 8l-4 80h101q85 0 232 4t216 4q481 0 481 -336q0 -123 -78.5 -214.5t-202.5 -118.5zM928 1079
q0 133 -71 196.5t-218 63.5q-111 0 -182 -12v-503q80 -7 159 -7q147 0 229.5 69.5t82.5 192.5zM616 94q357 0 357 309q0 146 -88.5 228t-245.5 82q-101 0 -182 -7v-507q0 -60 34 -82.5t125 -22.5z" />
    <glyph glyph-name="C" unicode="C" horiz-adv-x="1331" 
d="M778 1466q104 0 241 -23.5t206 -23.5q4 -60 4 -170t-4 -174l-113 -8q-17 149 -97 218t-237 69q-215 0 -339 -170.5t-124 -466.5q0 -287 122.5 -462t340.5 -175q167 0 250 74.5t100 240.5l109 -8v-313q-209 -107 -459 -107q-321 0 -497.5 199t-176.5 551q0 170 53 312.5
t144 237t214 147t263 52.5z" />
    <glyph glyph-name="D" unicode="D" horiz-adv-x="1480" 
d="M647 1442q355 0 542 -186t187 -539q0 -322 -202.5 -523.5t-526.5 -201.5q-69 0 -216 4t-232 4h-101l4 80l78 14q49 9 66.5 28.5t17.5 65.5v1057q0 52 -20 69.5t-97 31.5l-45 8l-4 80h101q85 0 232 4t216 4zM616 94q259 0 404 164.5t145 458.5q0 297 -137.5 459.5
t-388.5 162.5q-111 0 -182 -12v-1128q0 -60 34 -82.5t125 -22.5z" />
    <glyph glyph-name="E" unicode="E" horiz-adv-x="1271" 
d="M98 1434h1014q27 -187 27 -353l-123 -8q-17 159 -57.5 207.5t-157.5 48.5h-344v-545h284q54 0 73.5 21.5t33.5 95.5l8 45l107 4v-450l-107 4l-12 90q-6 44 -30.5 64t-72.5 20h-284v-483q0 -57 29.5 -74t127.5 -17h230q117 0 157.5 48.5t57.5 207.5l123 -8
q0 -165 -27 -352h-1057l4 80l78 14q49 9 66.5 28.5t17.5 65.5v1057q0 52 -20 69.5t-97 31.5l-45 8z" />
    <glyph glyph-name="F" unicode="F" horiz-adv-x="1210" 
d="M98 1434h1014q27 -187 27 -353l-123 -8q-17 159 -57.5 207.5t-157.5 48.5h-344v-579h315q54 0 74 21.5t33 94.5l8 45l106 4v-450l-106 4l-13 90q-6 44 -30.5 64t-71.5 20h-315v-426q0 -65 20 -85.5t96 -31.5l115 -16l-4 -84h-586l4 80l78 14q49 9 66.5 28.5t17.5 65.5
v1057q0 52 -20 69.5t-97 31.5l-45 8z" />
    <glyph glyph-name="G" unicode="G" horiz-adv-x="1476" 
d="M1430 696l-5 -80l-69 -12q-49 -9 -66.5 -29.5t-17.5 -66.5v-455q-222 -86 -494 -86q-321 0 -497.5 199t-176.5 551q0 171 53 313t145.5 236.5t217.5 147t268 52.5q111 0 255 -23.5t212 -23.5q5 -75 5 -170q0 -94 -5 -174l-112 -8q-17 149 -103.5 218t-251.5 69
q-222 0 -347.5 -170t-125.5 -467q0 -285 122.5 -459t340.5 -174q177 0 305 67v357q0 52 -19.5 69t-96.5 31l-45 8l-4 80h512z" />
    <glyph glyph-name="H" unicode="H" horiz-adv-x="1550" 
d="M1284 1245v-1057q0 -52 20 -68.5t97 -29.5l61 -10l-4 -80h-532l4 80l78 14q49 9 66.5 28.5t17.5 65.5v492h-635v-492q0 -52 19.5 -68.5t96.5 -29.5l62 -10l-4 -80h-533l4 80l78 14q49 9 66.5 28.5t17.5 65.5v1057q0 52 -20 69.5t-97 31.5l-45 8l-4 80h537l-4 -80l-90 -13
q-48 -7 -66 -28t-18 -68v-454h635v454q0 53 -20.5 70.5t-96.5 30.5l-49 8l4 80h532l-4 -80l-90 -13q-48 -7 -66 -28t-18 -68z" />
    <glyph glyph-name="I" unicode="I" horiz-adv-x="722" 
d="M631 1354l-90 -13q-48 -7 -66 -28t-18 -68v-1057q0 -52 19.5 -68.5t96.5 -29.5l62 -10l-4 -80h-533l4 80l78 14q49 9 66.5 28.5t17.5 65.5v1057q0 52 -20 69.5t-97 31.5l-45 8l-4 80h537z" />
    <glyph glyph-name="J" unicode="J" horiz-adv-x="692" 
d="M442 1245v-919q0 -222 -38 -365.5t-121 -232.5q-98 -106 -263 -134q-36 28 -36 91q0 67 65 90q13 5 64 15.5t77 27.5q37 25 47.5 110t10.5 365v952q0 52 -20 69.5t-95 31.5l-45 8l-4 80h537l-5 -80l-90 -13q-48 -7 -66 -28t-18 -68z" />
    <glyph glyph-name="K" unicode="K" horiz-adv-x="1304" 
d="M457 1245v-1057q0 -52 19.5 -68.5t96.5 -29.5l62 -10l-4 -80h-533l4 80l78 14q49 9 66.5 28.5t17.5 65.5v1057q0 52 -20 69.5t-97 31.5l-45 8l-4 80h537l-4 -80l-90 -13q-48 -7 -66 -28t-18 -68zM772 659l324 -434q95 -127 213 -145l-4 -78q-54 -14 -107 -14
q-81 0 -128.5 17t-94 64t-121.5 154l-186 264q-70 99 -108 146t-95 106l409 455q71 79 71 112q0 35 -71 44l-30 4l-4 80h438l-4 -80q-90 -24 -136 -57t-153 -152l-318 -353q41 -46 105 -133z" />
    <glyph glyph-name="L" unicode="L" horiz-adv-x="1214" 
d="M631 1354l-90 -13q-48 -7 -66 -28t-18 -68v-1050q0 -57 29.5 -74t127.5 -17h205q111 0 154 66.5t61 235.5l123 -9q0 -210 -27 -397h-1032l4 80l78 14q49 9 66.5 28.5t17.5 65.5v1057q0 52 -20 69.5t-97 31.5l-45 8l-4 80h537z" />
    <glyph glyph-name="M" unicode="M" horiz-adv-x="1961" 
d="M1905 80l-4 -80h-529l4 80l78 14q51 10 69 30t15 64l-43 592q-18 252 -18 350q0 53 1 83q-61 -166 -202 -511l-287 -702h-102l-264 702q-127 340 -184 511q1 -27 1 -74q0 -87 -22 -359l-47 -592q-4 -50 16.5 -67.5t99.5 -30.5l62 -10l-4 -80h-479l4 80l77 14
q47 9 63.5 27.5t20.5 66.5l84 1057q4 51 -16.5 69t-99.5 32l-45 8l-4 80h391l427 -1135l464 1135h397l-4 -80l-90 -13q-49 -7 -68 -28.5t-16 -67.5l75 -1057q4 -54 23 -69.5t94 -28.5z" />
    <glyph glyph-name="N" unicode="N" horiz-adv-x="1546" 
d="M1475 1434l-5 -80l-90 -13q-48 -7 -66 -28t-18 -68v-1245h-170l-567 899q-113 180 -165 311q7 -102 7 -225v-797q0 -52 20 -68.5t97 -29.5l62 -10l-5 -80h-477l4 80l78 14q49 9 66.5 28.5t17.5 65.5v1057q0 52 -20 69.5t-97 31.5l-45 8l-4 80h344l567 -899
q108 -171 156 -287q-6 99 -6 201v796q0 52 -20 69.5t-97 31.5l-45 8l-4 80h482z" />
    <glyph glyph-name="O" unicode="O" horiz-adv-x="1556" 
d="M104 717q0 228 86.5 399t239 260.5t348.5 89.5q314 0 494 -200t180 -549q0 -220 -85 -390.5t-238.5 -265t-350.5 -94.5q-203 0 -356.5 94.5t-235.5 264.5t-82 391zM315 717q0 -282 128.5 -459.5t334.5 -177.5t334.5 177.5t128.5 459.5q0 296 -124 466.5t-339 170.5
t-339 -170.5t-124 -466.5z" />
    <glyph glyph-name="P" unicode="P" horiz-adv-x="1232" 
d="M616 547q-91 0 -159 6v-336q0 -65 20 -85.5t96 -31.5l115 -16l-4 -84h-586l4 80l78 14q49 9 66.5 28.5t17.5 65.5v1057q0 52 -20 69.5t-97 31.5l-45 8l-4 80h101q85 0 232 4t216 4q252 0 384 -114.5t132 -332.5q0 -204 -149 -326t-398 -122zM961 995q0 168 -82.5 256
t-239.5 88q-111 0 -182 -12v-667q80 -7 159 -7q162 0 253.5 90.5t91.5 251.5z" />
    <glyph glyph-name="Q" unicode="Q" horiz-adv-x="1556" 
d="M1464 -33q49 0 72 -26t23 -82q0 -22 -5 -47q-77 -41 -184 -41q-128 0 -240.5 58t-183.5 158q-82 -20 -168 -20q-203 0 -356.5 94.5t-235.5 264.5t-82 391q0 228 86.5 399t239 260.5t348.5 89.5q314 0 494 -200t180 -549q0 -245 -104.5 -427t-287.5 -265q94 -86 230 -86
q39 0 92 14t82 14zM315 717q0 -282 128.5 -459.5t334.5 -177.5t334.5 177.5t128.5 459.5q0 296 -124 466.5t-339 170.5t-339 -170.5t-124 -466.5z" />
    <glyph glyph-name="R" unicode="R" horiz-adv-x="1312" 
d="M1303 82l-5 -78q-50 -16 -122 -16q-106 0 -154.5 38t-112.5 171l-141 295q-42 87 -92 119t-144 32q-43 0 -75 -4v-451q0 -52 19.5 -68.5t96.5 -29.5l62 -10l-4 -80h-533l4 80l78 14q49 9 66.5 28.5t17.5 65.5v1057q0 52 -20 69.5t-97 31.5l-45 8l-4 80h101q85 0 232 4
t216 4q490 0 490 -379q0 -144 -91 -241.5t-248 -126.5q45 -14 79.5 -47.5t74.5 -100.5q27 -45 97 -191.5t111 -203.5q25 -34 51 -49t67 -19zM457 1327v-569q68 -6 159 -6q148 0 234 79.5t86 215.5q0 292 -297 292q-111 0 -182 -12z" />
    <glyph glyph-name="S" unicode="S" horiz-adv-x="1114" 
d="M575 1466q115 0 230 -25.5t160 -25.5v-323l-109 -5q-29 143 -98 210t-189 67q-110 0 -178.5 -67.5t-68.5 -176.5q0 -61 24 -108.5t64 -79t92.5 -58t110 -50t115 -48.5t110 -60.5t92.5 -80.5t64 -113t24 -153q0 -177 -136 -289.5t-350 -112.5q-122 0 -232 31t-189 88
q-11 90 -11 165q0 63 4 134l115 4q20 -154 102 -236.5t214 -82.5q128 0 211 75.5t83 190.5q0 64 -23.5 114.5t-63.5 84.5t-92 62t-109.5 52t-115 49.5t-109.5 59.5t-92 76.5t-63.5 106.5t-23.5 144q0 161 126 271t312 110z" />
    <glyph glyph-name="T" unicode="T" horiz-adv-x="1323" 
d="M84 1434h1155q27 -187 27 -357l-123 -8q-17 160 -58 210t-157 50h-170v-1112q0 -66 20 -87.5t96 -33.5l95 -14l-4 -82h-598l4 82l110 18q48 8 66 33t18 84v1112h-170q-116 0 -157 -50t-58 -210l-123 8q0 170 27 357z" />
    <glyph glyph-name="U" unicode="U" horiz-adv-x="1497" 
d="M604 1354l-90 -13q-48 -7 -66 -28t-18 -68v-735q0 -218 86.5 -325t263.5 -107q164 0 249 106t85 312v749q0 53 -20.5 70.5t-96.5 30.5l-49 8l4 80h490l-4 -80l-90 -13q-48 -7 -66 -28t-18 -68v-770q0 -240 -132.5 -374t-369.5 -134q-524 0 -524 525v753q0 52 -20 69.5
t-97 31.5l-45 8l-4 80h536z" />
    <glyph glyph-name="V" unicode="V" horiz-adv-x="1404" 
d="M1411 1434l-4 -80l-57 -6q-58 -6 -85 -41t-77 -166l-434 -1147h-123l-404 1147q-47 132 -72 165.5t-83 41.5l-43 6l-4 80h528l-4 -80l-57 -6q-51 -5 -74.5 -23.5t-23.5 -56.5q0 -39 30 -127l301 -874l317 874q33 90 33 129q0 40 -29 57t-98 23l-47 4l4 80h506z" />
    <glyph glyph-name="W" unicode="W" horiz-adv-x="2095" 
d="M2099 1434l-4 -80l-57 -6q-61 -7 -91 -45t-71 -162l-381 -1147h-123l-318 1073l-352 -1073h-122l-349 1147q-38 123 -66 160.5t-89 46.5l-43 6l-4 80h524l-4 -80l-57 -6q-53 -6 -74.5 -20.5t-21.5 -51.5q0 -39 28 -135l245 -856l359 1149h107l326 -1149l270 856
q31 98 31 136t-27.5 52.5t-98.5 20.5l-47 4l4 80h506z" />
    <glyph glyph-name="X" unicode="X" horiz-adv-x="1263" 
d="M1245 80l-4 -80h-506l4 80l39 6q48 8 70.5 22t22.5 40q0 32 -35 94l-218 376l-221 -376q-36 -62 -36 -94q0 -26 24 -40t76 -20l67 -8l-4 -80h-506l5 80l38 6q73 11 102 37.5t101 146.5l256 427l-278 466q-74 125 -101 152t-86 35l-28 4l-4 80h509l-4 -80l-39 -4
q-93 -10 -93 -62q0 -34 36 -96l214 -369l216 369q37 63 37 95q0 52 -100 61l-68 6l4 80h506l-4 -80l-39 -4q-70 -7 -98.5 -34t-104.5 -153l-251 -420l282 -473q72 -119 99 -146t87 -38z" />
    <glyph glyph-name="Y" unicode="Y" horiz-adv-x="1335" 
d="M1335 1434l-4 -80l-39 -4q-31 -3 -46.5 -8t-32 -13t-35.5 -35t-38.5 -56.5t-58.5 -96.5l-319 -539v-385q0 -66 20.5 -87.5t96.5 -33.5l94 -14l-4 -82h-598l4 82l110 18q48 8 66 33t18 84v385l-317 539q-48 82 -68 114t-43.5 57t-37.5 29t-46 9l-28 4l-4 80h530l-4 -80
l-57 -6q-94 -10 -94 -65q0 -35 36 -97l265 -448l260 448q36 63 36 97q0 56 -104 65l-68 6l4 80h506z" />
    <glyph glyph-name="Z" unicode="Z" horiz-adv-x="1234" 
d="M1022 369l123 -9q0 -173 -27 -360h-1036l-4 86l823 1243h-457q-116 0 -157 -50t-58 -210l-123 8q0 170 27 357h997l5 -86l-824 -1244h496q112 0 154.5 57.5t60.5 207.5z" />
    <glyph glyph-name="bracketleft" unicode="[" horiz-adv-x="577" 
d="M506 1544v-110h-182v-1733h182v-111h-352v1954h352z" />
    <glyph glyph-name="backslash" unicode="\" horiz-adv-x="778" 
d="M713 -377h-150l-497 1856h149z" />
    <glyph glyph-name="bracketright" unicode="]" horiz-adv-x="577" 
d="M72 -410v111h182v1733h-182v110h352v-1954h-352z" />
    <glyph glyph-name="asciicircum" unicode="^" horiz-adv-x="1099" 
d="M862 614l-310 675l-323 -675h-155l409 840h144l399 -840h-164z" />
    <glyph glyph-name="underscore" unicode="_" 
d="M1024 -324h-1024v123h1024v-123z" />
    <glyph glyph-name="grave" unicode="`" 
d="M379 1552l360 -274q-21 -50 -59 -82l-395 223q34 76 94 133z" />
    <glyph glyph-name="a" unicode="a" horiz-adv-x="1064" 
d="M1030 129l23 -70q-82 -79 -197 -79q-79 0 -117.5 41.5t-40.5 130.5q-54 -83 -134 -130t-169 -47q-141 0 -226 81t-85 216q0 154 125.5 245t337.5 91q69 0 141 -11v124q0 133 -41 195.5t-129 62.5q-44 0 -81 -16t-61.5 -38.5t-47 -45t-49 -38.5t-56.5 -16q-40 0 -64 26
t-24 67q0 19 6 43q78 51 179 79.5t202 28.5q189 0 270.5 -86.5t81.5 -284.5v-415q0 -104 16.5 -140.5t63.5 -36.5q35 0 76 23zM444 98q154 0 244 171v236q-63 7 -127 7q-138 0 -210 -56t-72 -163q0 -92 43.5 -143.5t121.5 -51.5z" />
    <glyph glyph-name="b" unicode="b" horiz-adv-x="1187" 
d="M662 1069q201 0 312 -143t111 -404q0 -245 -130.5 -396t-342.5 -151q-163 0 -261 98l-107 -98l-72 25v1276q0 59 -13 79t-57 29l-61 13l-4 73l323 48v-371q0 -104 -4 -248q52 81 130 125.5t176 44.5zM584 88q148 0 224.5 111t76.5 323q0 203 -71.5 313.5t-201.5 110.5
q-165 0 -252 -165v-573q91 -120 224 -120z" />
    <glyph glyph-name="c" unicode="c" horiz-adv-x="989" 
d="M549 -25q-210 0 -329.5 146.5t-119.5 400.5q0 127 38.5 231.5t105.5 173t155.5 105.5t190.5 37q180 0 319 -84q11 -26 11 -53q0 -43 -27.5 -68.5t-71.5 -25.5q-33 0 -57.5 13t-42.5 31t-37 36.5t-50.5 31.5t-74.5 13q-123 0 -190.5 -115t-67.5 -326q0 -200 78 -311
t211 -111q153 0 280 113l54 -96q-87 -75 -174.5 -108.5t-200.5 -33.5z" />
    <glyph glyph-name="d" unicode="d" horiz-adv-x="1218" 
d="M1167 92l-4 -82l-301 -30q-16 65 -21 172q-53 -84 -134 -130.5t-181 -46.5q-201 0 -312.5 143t-111.5 404q0 245 130.5 396t342.5 151q161 0 257 -102q-5 180 -5 247v62q0 60 -12.5 79.5t-56.5 28.5l-62 13l-4 73l324 48v-1303q0 -60 18 -84t72 -31zM575 98
q164 0 252 166v573q-90 119 -223 119q-148 0 -224.5 -111t-76.5 -323q0 -203 71 -313.5t201 -110.5z" />
    <glyph glyph-name="e" unicode="e" horiz-adv-x="1069" 
d="M610 100q91 0 160.5 27t136.5 86l54 -96q-87 -76 -177 -109t-215 -33q-224 0 -346.5 145.5t-122.5 401.5q0 127 38.5 231.5t105.5 173t155.5 105.5t190.5 37q175 0 279 -112.5t104 -301.5q0 -70 -11.5 -92t-48.5 -22h-612v-19q0 -209 85.5 -315.5t223.5 -106.5zM559 963
q-104 0 -168.5 -83t-82.5 -237h421q32 0 43.5 15t11.5 55q0 112 -62.5 181t-162.5 69z" />
    <glyph glyph-name="f" unicode="f" horiz-adv-x="772" 
d="M840 1481q6 -18 6 -43q0 -43 -24.5 -69t-65.5 -26q-50 0 -118.5 38t-125.5 38q-53 0 -74.5 -38t-21.5 -132v-205h311v-108h-311v-741q0 -57 17 -73t89 -26l103 -14l-4 -82h-529l4 78l58 12q46 10 59.5 27.5t13.5 66.5v752h-141l-4 86l145 22v140q0 163 87 248.5t253 85.5
q158 0 273 -37z" />
    <glyph glyph-name="g" unicode="g" horiz-adv-x="1107" 
d="M1077 983q0 -78 -92 -78q-50 0 -172 35q53 -32 85 -95.5t32 -139.5q0 -154 -115.5 -249.5t-288.5 -95.5q-93 0 -178 32q-49 -39 -49 -91q0 -45 36.5 -69.5t121.5 -36.5l214 -31q202 -29 289 -89.5t87 -174.5q0 -155 -140 -253t-364 -98q-221 0 -348 76t-127 207
q0 87 63.5 152.5t173.5 94.5q-67 17 -110 63t-43 104q0 117 131 177q-77 47 -119.5 122.5t-42.5 169.5q0 111 55.5 192.5t146.5 121.5t203 40q123 0 216 -45q125 1 321 27q14 -35 14 -68zM526 459q97 0 157 70.5t60 185.5q0 123 -56.5 189.5t-160.5 66.5t-160.5 -66.5
t-56.5 -189.5q0 -115 60 -185.5t157 -70.5zM864 -139q0 63 -38 98t-134 58t-292 44q-73 -31 -112.5 -84.5t-39.5 -121.5q0 -98 80.5 -156.5t214.5 -58.5q143 0 232 61.5t89 159.5z" />
    <glyph glyph-name="h" unicode="h" horiz-adv-x="1228" 
d="M1206 78l-4 -78h-487l4 78l57 12q46 10 60 27.5t14 66.5v521q0 241 -195 241q-170 0 -262 -167v-595q0 -57 17.5 -72.5t89.5 -25.5l61 -8l-4 -78h-487l4 78l57 12q46 10 60 27.5t14 66.5v1092q0 59 -13 79t-57 29l-61 13l-4 73l323 48v-371q0 -155 -4 -251
q54 83 135.5 128t180.5 45q164 0 248.5 -90t84.5 -262v-533q0 -57 17.5 -72.5t89.5 -25.5z" />
    <glyph glyph-name="i" unicode="i" horiz-adv-x="628" 
d="M176 1378q0 56 36 91.5t91 35.5t91 -35.5t36 -91.5t-36 -91.5t-91 -35.5t-91 35.5t-36 91.5zM418 1069v-885q0 -57 17 -72.5t89 -25.5l62 -8l-4 -78h-488l4 78l58 12q46 10 59.5 27.5t13.5 66.5v643q0 60 -12.5 80t-56.5 29l-62 12l-4 74z" />
    <glyph glyph-name="j" unicode="j" horiz-adv-x="569" 
d="M156 1378q0 56 36 91.5t91 35.5t91 -35.5t36 -91.5t-36 -91.5t-91 -35.5t-91 35.5t-36 91.5zM397 1069v-768q0 -450 -157 -618q-99 -107 -260 -134q-37 29 -37 91q0 63 65 86q13 5 64.5 15.5t77.5 27.5q37 25 47 111t10 368v579q0 59 -13 80t-55 29l-61 12l-4 74z" />
    <glyph glyph-name="k" unicode="k" horiz-adv-x="1105" 
d="M393 1518v-1334q0 -57 17.5 -73.5t89.5 -26.5l47 -6l-4 -78h-473l4 78l57 12q46 10 60 27.5t14 66.5v1092q0 59 -13 79t-57 29l-61 13l-4 73zM688 510l191 -260q65 -89 115.5 -129.5t103.5 -46.5l-4 -68q-56 -18 -115 -18q-88 0 -140 36.5t-143 161.5l-153 213
q-74 103 -142 176l257 254q65 65 65 96q0 29 -49 36l-41 6l-4 77h415l-4 -77l-26 -6q-65 -15 -101 -37t-98 -84l-218 -218q31 -31 91 -112z" />
    <glyph glyph-name="l" unicode="l" horiz-adv-x="612" 
d="M399 1518v-1334q0 -57 17.5 -72.5t89.5 -25.5l61 -8l-4 -78h-487l4 78l57 12q46 10 60 27.5t14 66.5v1092q0 59 -13 79t-57 29l-61 13l-4 73z" />
    <glyph glyph-name="m" unicode="m" horiz-adv-x="1871" 
d="M1849 78l-4 -78h-487l4 78l57 12q46 10 60 27.5t14 66.5v521q0 122 -46 181.5t-144 59.5q-170 0 -259 -171q3 -29 3 -58v-533q0 -57 17 -72.5t89 -25.5l61 -8l-4 -78h-487l4 78l57 12q46 10 60 27.5t14 66.5v521q0 122 -46 181.5t-144 59.5q-167 0 -256 -166v-596
q0 -57 17 -72.5t89 -25.5l62 -8l-5 -78h-487l4 78l58 12q46 10 59.5 27.5t13.5 66.5v643q0 60 -12.5 80t-56.5 29l-62 12l-4 74l289 47q16 -64 21 -177q54 84 136.5 130.5t182.5 46.5q231 0 301 -177q55 84 141.5 130.5t192.5 46.5q163 0 246 -89.5t83 -262.5v-533
q0 -57 17.5 -72.5t89.5 -25.5z" />
    <glyph glyph-name="n" unicode="n" horiz-adv-x="1247" 
d="M1225 78l-4 -78h-488l4 78l58 12q46 10 59.5 27.5t13.5 66.5v521q0 241 -194 241q-170 0 -262 -167v-595q0 -57 17 -72.5t89 -25.5l62 -8l-5 -78h-487l4 78l58 12q46 10 59.5 27.5t13.5 66.5v643q0 60 -12.5 80t-56.5 29l-62 12l-4 74l289 47q16 -59 21 -178
q54 85 139 131.5t186 46.5q164 0 249 -90t85 -262v-533q0 -57 17 -72.5t89 -25.5z" />
    <glyph glyph-name="o" unicode="o" horiz-adv-x="1179" 
d="M100 522q0 127 38.5 231.5t105.5 173t155.5 105.5t190.5 37q233 0 361 -143t128 -404q0 -249 -137 -398t-352 -149q-226 0 -358 147t-132 400zM301 522q0 -202 79 -321t210 -119t210 119t79 321q0 211 -75.5 326t-213.5 115t-213.5 -115t-75.5 -326z" />
    <glyph glyph-name="p" unicode="p" horiz-adv-x="1218" 
d="M692 1069q201 0 312.5 -143t111.5 -404q0 -245 -130.5 -396t-342.5 -151q-160 0 -256 102q4 -144 4 -247v-66q0 -57 17.5 -72.5t89.5 -25.5l102 -14l-4 -82h-528l4 78l57 12q46 10 60 27.5t14 66.5v1073q0 60 -13 80t-57 29l-61 12l-4 74l288 47q17 -69 22 -176
q53 84 133.5 130t180.5 46zM614 88q148 0 224.5 111t76.5 323q0 203 -71 313.5t-201 110.5q-165 0 -252 -165v-573q91 -120 223 -120z" />
    <glyph glyph-name="q" unicode="q" horiz-adv-x="1187" 
d="M1184 -352l-4 -78h-488l4 78l58 12q46 10 59.5 27.5t13.5 66.5v144q0 67 5 247q-52 -81 -130 -125.5t-176 -44.5q-201 0 -312.5 143t-111.5 404q0 245 130.5 396t342.5 151q162 0 262 -98l107 98l72 -25v-1290q0 -57 17 -72.5t89 -25.5zM575 98q164 0 252 166v573
q-90 119 -223 119q-148 0 -224.5 -111t-76.5 -323q0 -203 71 -313.5t201 -110.5z" />
    <glyph glyph-name="r" unicode="r" horiz-adv-x="864" 
d="M821 1026q10 -27 10 -61q0 -47 -26 -75t-72 -28q-28 0 -74 21.5t-90 21.5q-57 0 -97 -60t-60 -173v-477q0 -57 17 -73t89 -26l103 -14l-5 -82h-528l4 78l58 12q46 10 59.5 27.5t13.5 66.5v643q0 60 -13 80.5t-56 28.5l-62 12l-4 74l289 47q20 -80 22 -259
q29 116 99.5 187.5t160.5 71.5q88 0 162 -43z" />
    <glyph glyph-name="s" unicode="s" horiz-adv-x="933" 
d="M795 766l-99 -6q-25 106 -82.5 163.5t-140.5 57.5q-78 0 -126 -44t-48 -116q0 -53 30 -93t77.5 -65.5t105 -48.5t115.5 -50t105.5 -61.5t77.5 -91t30 -130.5q0 -144 -106 -225t-294 -81q-96 0 -185 26t-146 71q-9 68 -9 116q0 52 4 109l103 6q25 -111 92.5 -175.5
t159.5 -64.5q89 0 144.5 48.5t55.5 126.5q0 53 -29.5 94t-77 68t-104.5 51.5t-114 52t-104.5 61.5t-77 88.5t-29.5 124.5q0 134 98.5 212.5t267.5 78.5q69 0 164 -26.5t142 -26.5v-250z" />
    <glyph glyph-name="t" unicode="t" horiz-adv-x="774" 
d="M717 166l37 -90q-133 -101 -289 -101q-130 0 -193 59.5t-63 182.5l2 719h-137l-4 86l141 22q27 109 64 191q16 37 29.5 48t39.5 11q20 0 55 -6v-244h342v-108h-342v-686q0 -144 144 -144q88 0 174 60z" />
    <glyph glyph-name="u" unicode="u" horiz-adv-x="1241" 
d="M1184 92l-4 -82l-301 -30q-17 63 -22 173q-54 -85 -138 -131.5t-184 -46.5q-164 0 -248 90.5t-84 262.5v499q0 60 -13 80t-57 29l-61 12l-4 74l323 47v-729q0 -242 193 -242q170 0 260 167v562q0 60 -15 79t-69 30l-62 12l-4 74l338 47v-854q0 -60 18 -84t72 -31z" />
    <glyph glyph-name="v" unicode="v" horiz-adv-x="1128" 
d="M1126 1044l-4 -77l-26 -6q-53 -12 -74.5 -34t-50.5 -93l-346 -838h-131l-330 838q-31 79 -48.5 100t-56.5 27l-41 6l-4 77h475l-4 -77l-55 -9q-47 -7 -68 -21.5t-21 -41.5q0 -23 15 -61l237 -610l241 610q18 45 18 69q0 26 -22.5 39t-75.5 19l-52 6l5 77h419z" />
    <glyph glyph-name="w" unicode="w" horiz-adv-x="1675" 
d="M1671 1044l-4 -77l-27 -6q-54 -13 -76.5 -36t-47.5 -91l-306 -838h-129l-238 744l-268 -744h-129l-276 838q-25 75 -43.5 98t-60.5 29l-41 6l-5 77h467l-4 -77l-55 -9q-48 -7 -67.5 -19.5t-19.5 -40.5q0 -25 13 -64l190 -595l273 805h107l254 -805l200 595q19 59 19 75
q0 25 -21 35t-78 17l-51 6l4 77h420z" />
    <glyph glyph-name="x" unicode="x" horiz-adv-x="1075" 
d="M1038 78l-4 -78h-432l4 78l35 6q47 9 47 43q0 24 -20 55l-155 252l-159 -252q-23 -36 -23 -60q0 -30 48 -38l41 -6l-4 -78h-379l4 78l27 6q59 14 81 29.5t58 68.5l220 326l-218 354q-36 59 -56.5 75t-70.5 24l-37 6l-4 77h436l-4 -77l-35 -6q-47 -9 -47 -43q0 -23 21 -56
l150 -245l155 245q23 36 23 60q0 30 -48 38l-41 7l4 77h379l-4 -77l-26 -7q-59 -14 -81.5 -29.5t-58.5 -68.5l-216 -319l222 -361q36 -59 56.5 -75t70.5 -23z" />
    <glyph glyph-name="y" unicode="y" horiz-adv-x="1130" 
d="M1126 1044l-4 -77l-26 -7q-53 -12 -74.5 -33.5t-50.5 -92.5l-357 -863q-102 -246 -197.5 -334t-266.5 -88q-22 0 -54 7q-24 40 -24 79q0 41 25.5 66t68.5 25q20 0 52.5 -7.5t49.5 -7.5q67 0 108.5 44.5t94.5 176.5l28 69q-25 41 -53 114l-282 719q-31 79 -48.5 100
t-56.5 27l-41 6l-4 77h475l-4 -77l-55 -9q-47 -7 -68 -21.5t-21 -41.5q0 -23 15 -61l237 -610l241 610q18 45 18 69q0 26 -22.5 39t-75.5 19l-52 6l5 77h419z" />
    <glyph glyph-name="z" unicode="z" horiz-adv-x="1034" 
d="M829 299l115 -8q0 -137 -22 -291h-838l-6 80l641 872h-340q-75 0 -111 -45t-49 -159l-115 8q0 127 23 288h805l6 -79l-641 -873h373q73 0 109 49t50 158z" />
    <glyph glyph-name="braceleft" unicode="{" horiz-adv-x="665" 
d="M420 1272v-322q0 -146 -51 -243t-142 -130q91 -37 142 -141.5t51 -251.5v-321q0 -91 31.5 -128.5t109.5 -37.5h35v-107h-131q-112 0 -165.5 66.5t-53.5 220.5v348q0 285 -191 285v115q191 0 191 284v348q0 287 219 287h131v-106h-35q-78 0 -109.5 -37.5t-31.5 -128.5z
" />
    <glyph glyph-name="bar" unicode="|" horiz-adv-x="448" 
d="M295 -430h-141v1989h141v-1989z" />
    <glyph glyph-name="braceright" unicode="}" horiz-adv-x="665" 
d="M420 1257v-348q0 -284 190 -284v-115q-190 0 -190 -285v-348q0 -287 -219 -287h-131v107h34q78 0 110 37.5t32 128.5v321q0 146 50.5 243.5t141.5 130.5q-91 37 -141.5 141t-50.5 251v322q0 91 -32 128.5t-110 37.5h-34v106h131q112 0 165.5 -66.5t53.5 -220.5z" />
    <glyph glyph-name="asciitilde" unicode="~" horiz-adv-x="1239" 
d="M852 580q70 0 117 22.5t92 79.5l39 -90q-101 -135 -273 -135q-93 0 -171 21.5t-142 43t-125 21.5q-69 0 -116 -23t-93 -80l-39 90q102 136 273 136q93 0 171 -21.5t142 -43t125 -21.5z" />
    <glyph glyph-name="uni00A0" unicode="&#xa0;" horiz-adv-x="507" 
 />
    <glyph glyph-name="exclamdown" unicode="&#xa1;" horiz-adv-x="495" 
d="M115 936q0 58 37.5 95.5t95.5 37.5t95.5 -37.5t37.5 -95.5t-37.5 -95.5t-95.5 -37.5t-95.5 37.5t-37.5 95.5zM309 608l51 -1036l-227 -12l53 1048h123z" />
    <glyph glyph-name="cent" unicode="&#xa2;" horiz-adv-x="1009" 
d="M868 213l54 -96q-132 -116 -287 -136v-206h-100v201q-204 4 -320.5 150t-116.5 396q0 236 123 380.5t314 163.5v204h100v-203q155 -11 272 -82q11 -26 11 -53q0 -43 -27.5 -68.5t-71.5 -25.5q-41 0 -69.5 20t-57 49.5t-59.5 41.5v-846q127 13 235 110zM299 522
q0 -179 63.5 -287.5t174.5 -129.5v857q-114 -10 -176 -124.5t-62 -315.5z" />
    <glyph glyph-name="sterling" unicode="&#xa3;" horiz-adv-x="1236" 
d="M1018 406l123 -9q0 -210 -27 -397h-1048l4 90q78 5 122 65t64 188t20 351h-174v111h174v203q0 214 116.5 336t320.5 122q102 0 201.5 -25.5t146.5 -25.5v-323l-109 -5q-30 145 -86.5 211t-158.5 66q-126 0 -185 -92t-59 -289v-178h416v-111h-417q-5 -244 -35.5 -383
t-94.5 -207q102 9 205 9h266q112 0 154.5 63t60.5 230z" />
    <glyph glyph-name="currency" unicode="&#xa4;" horiz-adv-x="1167" 
d="M1028 549q0 -193 -117 -310l146 -169l-97 -80l-144 179q-103 -54 -232 -54q-135 0 -235 50l-142 -175l-96 80l142 165q-114 116 -114 314q0 190 118 308l-146 169l96 80l145 -179q102 54 232 54q140 0 237 -48l140 173l96 -80l-140 -161q111 -113 111 -316zM584 223
q112 0 182 87.5t70 238.5q0 156 -66.5 239.5t-185.5 83.5t-185.5 -83.5t-66.5 -239.5q0 -151 70 -238.5t182 -87.5z" />
    <glyph glyph-name="yen" unicode="&#xa5;" horiz-adv-x="1427" 
d="M1370 1434l-4 -80l-39 -4q-31 -3 -46.5 -8t-32 -13t-35.5 -35t-38.5 -56.5t-58.5 -96.5l-205 -346h269v-97h-326l-57 -96v-51h383v-96h-383v-238q0 -66 20 -87.5t96 -33.5l95 -14l-4 -82h-599l5 82l110 18q48 8 66 33t18 84v238h-383v96h383v51l-57 96h-326v97h270
l-204 346q-48 82 -68 114t-43.5 57t-37.5 29t-46 9l-29 4l-4 80h531l-4 -80l-58 -6q-94 -10 -94 -65q0 -34 37 -97l265 -448l259 448q37 65 37 97q0 56 -104 65l-68 6l4 80h506z" />
    <glyph glyph-name="brokenbar" unicode="&#xa6;" horiz-adv-x="481" 
d="M311 862h-141v697h141v-697zM311 -430h-141v696h141v-696z" />
    <glyph glyph-name="section" unicode="&#xa7;" horiz-adv-x="1017" 
d="M675 245q86 -59 133.5 -130.5t47.5 -171.5q0 -144 -105.5 -224.5t-293.5 -80.5q-97 0 -186 26t-146 70q-8 61 -8 116q0 52 4 109l102 6q25 -110 92.5 -174.5t159.5 -64.5q89 0 145 48t56 126q0 59 -31.5 109t-81.5 87t-110 72.5t-120.5 73.5t-110.5 81.5t-81.5 105.5
t-31.5 136q0 111 70.5 189t195.5 107q-94 62 -146.5 133.5t-52.5 172.5q0 134 99 212.5t268 78.5q69 0 163.5 -26.5t141.5 -26.5v-250l-98 -6q-25 106 -83 163.5t-141 57.5q-78 0 -126 -44t-48 -116q0 -59 31.5 -108t82 -85t111.5 -70t122 -71.5t111.5 -81t82 -107.5
t31.5 -142q0 -110 -65.5 -187.5t-183.5 -112.5zM281 608q0 -24 4.5 -46t16.5 -43t22 -36.5t32.5 -34.5t35.5 -30t43.5 -30t43.5 -27t49 -28t48 -27q78 18 124.5 70t46.5 126q0 26 -5 49.5t-18.5 45.5t-25 39t-35.5 37.5t-39 32.5t-47 32.5t-47 29.5t-52 30
q-88 -7 -142.5 -58.5t-54.5 -131.5z" />
    <glyph glyph-name="dieresis" unicode="&#xa8;" 
d="M213 1372q0 47 33 80t80 33t79.5 -33t32.5 -80t-32.5 -79.5t-79.5 -32.5t-80 32.5t-33 79.5zM586 1372q0 47 32.5 80t79.5 33t80 -33t33 -80t-33 -79.5t-80 -32.5t-79.5 32.5t-32.5 79.5z" />
    <glyph glyph-name="copyright" unicode="&#xa9;" horiz-adv-x="1740" 
d="M100 717q0 218 103.5 395.5t279.5 276t387 98.5q220 0 396 -99t275 -275t99 -396q0 -218 -103.5 -395.5t-279.5 -276t-387 -98.5t-387 98.5t-279.5 276t-103.5 395.5zM227 717q0 -139 50.5 -261.5t136.5 -209t204.5 -136t251.5 -49.5t251.5 49.5t204.5 136t136.5 209
t50.5 261.5q0 186 -86 336.5t-233 234.5t-324 84t-324 -84t-233 -234.5t-86 -336.5zM903 1077q63 0 133.5 -13t102.5 -13q2 -42 2 -93q0 -54 -2 -86l-86 -6q-7 69 -42.5 101t-103.5 32q-92 0 -142 -71.5t-50 -210.5q0 -136 48.5 -209.5t143.5 -73.5q72 0 110.5 35.5
t45.5 108.5l84 -7v-165q-106 -50 -244 -50q-176 0 -267 94.5t-91 266.5q0 167 100.5 263.5t257.5 96.5z" />
    <glyph glyph-name="ordfeminine" unicode="&#xaa;" horiz-adv-x="847" 
d="M414 1149q39 0 90 -7v83q0 80 -24.5 116.5t-78.5 36.5q-35 0 -63 -17t-44 -37t-40.5 -37t-52.5 -17q-32 0 -51 19.5t-19 51.5q0 17 6 35q120 74 271 74q136 0 196 -56.5t60 -185.5v-270q0 -65 10 -88t39 -23q24 0 47 13l14 -56q-62 -53 -147 -53q-57 0 -84 28.5t-29 88.5
q-34 -56 -89 -87.5t-118 -31.5q-95 0 -152 54t-57 145q0 103 85 162t231 59zM360 829q88 0 144 102v141q-33 3 -76 3q-166 0 -166 -129q0 -55 25.5 -86t72.5 -31zM127 590h610v-92h-610v92z" />
    <glyph glyph-name="guillemotleft" unicode="&#xab;" horiz-adv-x="1052" 
d="M539 881l-258 -349q146 -216 258 -368l-74 -60q-109 54 -385 418q276 364 385 418zM948 881l-257 -349q156 -232 257 -368l-74 -60q-109 54 -385 418q276 364 385 418z" />
    <glyph glyph-name="logicalnot" unicode="&#xac;" horiz-adv-x="1083" 
d="M932 182h-135v338h-654v117h789v-455z" />
    <glyph glyph-name="registered" unicode="&#xae;" horiz-adv-x="1740" 
d="M870 1487q220 0 396 -99t275 -275t99 -396q0 -218 -103.5 -395.5t-279.5 -276t-387 -98.5t-387 98.5t-279.5 276t-103.5 395.5t103.5 395.5t279.5 276t387 98.5zM870 61q133 0 251.5 49.5t204.5 136t136.5 209t50.5 261.5q0 186 -86 336.5t-233 234.5t-324 84t-324 -84
t-233 -234.5t-86 -336.5q0 -139 50.5 -261.5t136.5 -209t204.5 -136t251.5 -49.5zM1150 475q15 -23 26 -31.5t28 -11.5l13 -2l-3 -53q-42 -10 -92 -10q-62 0 -88 20t-63 96l-57 117q-20 41 -40.5 55.5t-58.5 14.5q-4 0 -31 -3v-184q0 -27 8 -36t37 -13l29 -4l-2 -57h-299
l2 57l33 6q24 5 31.5 14t7.5 33v467q0 26 -8.5 34.5t-40.5 14.5l-23 5l-2 57h68q47 0 122.5 2t116.5 2q141 0 209 -44t68 -136q0 -65 -43 -109.5t-119 -61.5q51 -15 85 -75q12 -21 42.5 -82.5t43.5 -81.5zM850 743q62 0 96.5 32.5t34.5 92.5q0 125 -123 125q-30 0 -74 -4
v-242q44 -4 66 -4z" />
    <glyph glyph-name="macron" unicode="&#xaf;" 
d="M782 1305h-540v118h540v-118z" />
    <glyph glyph-name="degree" unicode="&#xb0;" horiz-adv-x="724" 
d="M92 1280q0 116 81 193t189 77q132 0 201.5 -73t69.5 -197q0 -112 -79 -191t-192 -79q-124 0 -197 77t-73 193zM219 1280q0 -70 41 -116t102 -46t102.5 46t41.5 116q0 73 -39.5 117.5t-104.5 44.5t-104 -44.5t-39 -117.5z" />
    <glyph glyph-name="plusminus" unicode="&#xb1;" horiz-adv-x="1146" 
d="M1022 719v-119h-381v-348h-135v348h-381v119h381v348h135v-348h381zM125 162h897v-119h-897v119z" />
    <glyph glyph-name="twosuperior" unicode="&#xb2;" horiz-adv-x="686" 
d="M616 860v-115h-550v89q360 296 360 520q0 82 -33.5 118.5t-107.5 36.5q-48 0 -99 -23t-88 -61l-30 105q44 40 115 63t149 23q130 0 197 -62t67 -184q0 -266 -358 -517q66 7 174 7h204z" />
    <glyph glyph-name="threesuperior" unicode="&#xb3;" horiz-adv-x="718" 
d="M440 1199q100 -17 152.5 -71.5t52.5 -142.5q0 -119 -88.5 -186.5t-243.5 -67.5q-145 0 -250 57q-4 16 -4 33q0 74 66 74q25 0 46.5 -13t35.5 -28t43 -28t67 -13q70 0 114 47.5t44 124.5q0 82 -59.5 121t-184.5 39q-29 0 -57 -4l-6 90q141 0 208.5 38.5t67.5 119.5
q0 131 -143 131q-96 0 -184 -72l-31 92q98 76 258 76q131 0 200.5 -54t69.5 -155q0 -76 -46.5 -131.5t-127.5 -76.5z" />
    <glyph glyph-name="acute" unicode="&#xb4;" 
d="M285 1278l360 274q60 -57 94 -133l-395 -223q-38 32 -59 82z" />
    <glyph glyph-name="uni00B5" unicode="&#xb5;" horiz-adv-x="1267" 
d="M1190 92l-4 -82l-301 -30q-17 63 -22 173q-54 -85 -138 -131.5t-184 -46.5q-89 0 -150 41q6 -82 6 -159v-263l-188 -40v1273q0 60 -13 80t-57 29l-61 12l-4 74l323 47v-729q0 -242 193 -242q170 0 260 167v562q0 60 -15 79t-69 30l-61 12l-5 74l338 47v-854q0 -60 18 -84
t72 -31z" />
    <glyph glyph-name="paragraph" unicode="&#xb6;" horiz-adv-x="1183" 
d="M59 1001q0 189 127.5 311t325.5 122h129v-1792h-129v927q-202 0 -327.5 116t-125.5 316zM1110 1434l-4 -80l-90 -13q-48 -7 -66 -28t-18 -68v-1603h-129v1792h307z" />
    <glyph glyph-name="periodcentered" unicode="&#xb7;" horiz-adv-x="512" 
d="M123 586q0 58 37.5 95.5t95.5 37.5t95.5 -37.5t37.5 -95.5t-37.5 -95.5t-95.5 -37.5t-95.5 37.5t-37.5 95.5z" />
    <glyph glyph-name="cedilla" unicode="&#xb8;" 
d="M575 20l-65 -131q88 0 140 -42t52 -113q0 -86 -61.5 -137.5t-165.5 -51.5q-90 0 -153 54q7 44 32 69q52 -41 115 -41q44 0 69 23t25 63q0 88 -137 88l-25 41l80 178h94z" />
    <glyph glyph-name="onesuperior" unicode="&#xb9;" horiz-adv-x="563" 
d="M524 813l-2 -68h-444l2 68l72 10q42 6 58.5 18t16.5 40v586q-58 -24 -127 -37l-32 -7l-13 66l236 117h96v-725q0 -32 15 -42.5t65 -17.5z" />
    <glyph glyph-name="ordmasculine" unicode="&#xba;" horiz-adv-x="839" 
d="M76 1090q0 169 97 264.5t247 95.5q167 0 255.5 -92.5t88.5 -267.5q0 -166 -95.5 -263.5t-248.5 -97.5q-161 0 -252.5 96t-91.5 265zM248 1090q0 -130 46 -203.5t126 -73.5t126 73.5t46 203.5q0 276 -172 276t-172 -276zM729 498h-618v92h618v-92z" />
    <glyph glyph-name="guillemotright" unicode="&#xbb;" horiz-adv-x="1052" 
d="M104 881l74 59q109 -54 385 -418q-276 -364 -385 -418l-74 60l258 349q-146 216 -258 368zM514 881l74 59q109 -54 385 -418q-276 -364 -385 -418l-74 60l258 349q-146 216 -258 368z" />
    <glyph glyph-name="onequarter" unicode="&#xbc;" horiz-adv-x="1654" 
d="M1370 1536l-1063 -1638h-139l1063 1638h139zM80 649l72 10q42 6 58.5 18t16.5 40v586q-58 -24 -127 -37l-32 -6l-13 65l236 117h96v-725q0 -32 15 -42.5t65 -17.5l57 -8l-2 -67h-444zM1593 322v-103h-102v-219h-154v219h-401v68l410 567h145v-532h102zM1343 322v358
l-264 -358h264z" />
    <glyph glyph-name="onehalf" unicode="&#xbd;" horiz-adv-x="1660" 
d="M1370 1536l-1063 -1638h-139l1063 1638h139zM80 649l72 10q42 6 58.5 18t16.5 40v586q-58 -24 -127 -37l-32 -6l-13 65l236 117h96v-725q0 -32 15 -42.5t65 -17.5l57 -8l-2 -67h-444zM1591 115v-115h-551v88q361 297 361 520q0 82 -33.5 119t-107.5 37q-48 0 -99 -23
t-88 -61l-31 104q44 40 115.5 63t149.5 23q264 0 264 -245q0 -267 -358 -518q75 8 173 8h205z" />
    <glyph glyph-name="threequarters" unicode="&#xbe;" horiz-adv-x="1810" 
d="M1526 1536l-1063 -1638h-139l1062 1638h140zM645 821q0 -119 -88.5 -186.5t-243.5 -67.5q-143 0 -250 58q-4 16 -4 32q0 74 66 74q25 0 46.5 -13t35.5 -28t43 -28t67 -13q70 0 114 47.5t44 124.5q0 82 -59.5 121t-184.5 39q-29 0 -57 -4l-6 90q141 0 208.5 38.5
t67.5 119.5q0 131 -143 131q-96 0 -184 -72l-31 92q98 76 258 76q131 0 200.5 -54t69.5 -155q0 -76 -46.5 -131.5t-127.5 -76.5q100 -17 152.5 -71.5t52.5 -142.5zM1749 322v-103h-102v-219h-154v219h-401v68l409 567h146v-532h102zM1499 322v358l-265 -358h265z" />
    <glyph glyph-name="questiondown" unicode="&#xbf;" horiz-adv-x="956" 
d="M389 936q0 58 37.5 95.5t95.5 37.5t95.5 -37.5t37.5 -95.5t-37.5 -95.5t-95.5 -37.5t-95.5 37.5t-37.5 95.5zM457 -457q-180 0 -288 90t-108 242q0 74 24 135t62 101.5t84 75t91.5 65t83.5 63t62 76.5t24 98q0 59 -15 109l139 18q29 -63 29 -145q0 -63 -21.5 -114
t-55.5 -86t-75 -65.5t-82.5 -61.5t-75.5 -66t-55.5 -87t-21.5 -116q0 -104 56 -164.5t151 -60.5q94 0 149 48.5t76 154.5q13 69 40.5 98t78.5 29q31 0 56.5 -16t35.5 -42q-23 -177 -140.5 -278t-303.5 -101z" />
    <glyph glyph-name="Agrave" unicode="&#xc0;" horiz-adv-x="1409" 
d="M557 1890l361 -274q-21 -48 -60 -82l-395 223q34 76 94 133zM858 80l57 8q52 8 74.5 25t22.5 54q0 41 -29 126l-47 141h-522l-49 -141q-32 -91 -32 -127q0 -38 28 -54.5t98 -25.5l47 -6l-4 -80h-506l4 80l57 8q60 8 87.5 43.5t74.5 161.5l424 1149h143l394 -1149
q43 -126 68.5 -159.5t86.5 -45.5l43 -8l4 -80h-528zM900 543l-219 653l-229 -653h448z" />
    <glyph glyph-name="Aacute" unicode="&#xc1;" horiz-adv-x="1409" 
d="M977 1757l-395 -223q-39 34 -60 82l361 274q60 -57 94 -133zM858 80l57 8q52 8 74.5 25t22.5 54q0 41 -29 126l-47 141h-522l-49 -141q-32 -91 -32 -127q0 -38 28 -54.5t98 -25.5l47 -6l-4 -80h-506l4 80l57 8q60 8 87.5 43.5t74.5 161.5l424 1149h143l394 -1149
q43 -126 68.5 -159.5t86.5 -45.5l43 -8l4 -80h-528zM900 543l-219 653l-229 -653h448z" />
    <glyph glyph-name="Acircumflex" unicode="&#xc2;" horiz-adv-x="1409" 
d="M709 1709l-236 -155q-35 28 -57 80l299 250l299 -250q-19 -47 -62 -80zM858 80l57 8q52 8 74.5 25t22.5 54q0 41 -29 126l-47 141h-522l-49 -141q-32 -91 -32 -127q0 -38 28 -54.5t98 -25.5l47 -6l-4 -80h-506l4 80l57 8q60 8 87.5 43.5t74.5 161.5l424 1149h143
l394 -1149q43 -126 68.5 -159.5t86.5 -45.5l43 -8l4 -80h-528zM900 543l-219 653l-229 -653h448z" />
    <glyph glyph-name="Atilde" unicode="&#xc3;" horiz-adv-x="1409" 
d="M580 1671q-81 0 -136 -67l-30 75q26 51 80 85t108 34q65 0 135 -30.5t113 -30.5q80 0 135 67l31 -75q-26 -51 -80.5 -85t-108.5 -34q-65 0 -134.5 30.5t-112.5 30.5zM858 80l57 8q52 8 74.5 25t22.5 54q0 41 -29 126l-47 141h-522l-49 -141q-32 -91 -32 -127
q0 -38 28 -54.5t98 -25.5l47 -6l-4 -80h-506l4 80l57 8q60 8 87.5 43.5t74.5 161.5l424 1149h143l394 -1149q43 -126 68.5 -159.5t86.5 -45.5l43 -8l4 -80h-528zM900 543l-219 653l-229 -653h448z" />
    <glyph glyph-name="Adieresis" unicode="&#xc4;" horiz-adv-x="1409" 
d="M528 1597q-47 0 -79.5 33t-32.5 80t32.5 80t79.5 33t80 -33t33 -80t-33 -80t-80 -33zM901 1597q-47 0 -80 33t-33 80t33 80t80 33t80 -33t33 -80t-33 -80t-80 -33zM858 80l57 8q52 8 74.5 25t22.5 54q0 41 -29 126l-47 141h-522l-49 -141q-32 -91 -32 -127
q0 -38 28 -54.5t98 -25.5l47 -6l-4 -80h-506l4 80l57 8q60 8 87.5 43.5t74.5 161.5l424 1149h143l394 -1149q43 -126 68.5 -159.5t86.5 -45.5l43 -8l4 -80h-528zM900 543l-219 653l-229 -653h448z" />
    <glyph glyph-name="Aring" unicode="&#xc5;" horiz-adv-x="1409" 
d="M715 1536q-86 0 -141.5 54t-55.5 143q0 83 58.5 139.5t138.5 56.5q86 0 141 -53.5t55 -142.5q0 -83 -58.5 -140t-137.5 -57zM715 1837q-42 0 -71.5 -29t-29.5 -75t29.5 -75.5t71.5 -29.5t71 29.5t29 75.5t-29 75t-71 29zM858 80l57 8q52 8 74.5 25t22.5 54q0 41 -29 126
l-47 141h-522l-49 -141q-32 -91 -32 -127q0 -38 28 -54.5t98 -25.5l47 -6l-4 -80h-506l4 80l57 8q60 8 87.5 43.5t74.5 161.5l424 1149h143l394 -1149q43 -126 68.5 -159.5t86.5 -45.5l43 -8l4 -80h-528zM900 543l-219 653l-229 -653h448z" />
    <glyph glyph-name="AE" unicode="&#xc6;" horiz-adv-x="1945" 
d="M1733 360l122 -8q0 -172 -26 -352h-1057l4 80l78 14q49 9 66.5 28.5t17.5 65.5v277h-445l-102 -199q-48 -93 -48 -125q0 -25 22 -37t73 -18l47 -6l-4 -80h-491l4 80l57 8q60 8 91.5 35.5t74.5 107.5l528 996q27 52 27 72q0 19 -17.5 28.5t-60.5 15.5l-73 11l-5 80h1170
q26 -180 26 -353l-122 -8q-17 159 -57.5 207.5t-157.5 48.5h-345v-545h285q54 0 73.5 21.5t33.5 95.5l8 45l106 4v-450l-106 4l-12 90q-6 44 -30.5 64t-72.5 20h-285v-483q0 -57 30 -74t128 -17h230q117 0 157.5 48.5t57.5 207.5zM938 573v757l-389 -757h389z" />
    <glyph glyph-name="Ccedilla" unicode="&#xc7;" horiz-adv-x="1331" 
d="M1237 387v-313q-187 -95 -413 -106l-40 -79q88 0 140.5 -42.5t52.5 -112.5q0 -86 -61.5 -137.5t-165.5 -51.5q-91 0 -154 54q7 43 33 69q29 -23 54 -32t60 -9q44 0 69.5 23t25.5 63q0 88 -138 88l-24 41l56 126q-300 15 -464 213t-164 536q0 170 53 312.5t144 237
t214 147t263 52.5q104 0 241 -23.5t206 -23.5q4 -60 4 -170t-4 -174l-113 -8q-17 149 -97 218t-237 69q-215 0 -339 -170.5t-124 -466.5q0 -287 122.5 -462t340.5 -175q167 0 250 74.5t100 240.5z" />
    <glyph glyph-name="Egrave" unicode="&#xc8;" horiz-adv-x="1271" 
d="M489 1890l361 -274q-21 -50 -59 -82l-396 223q34 76 94 133zM98 1434h1014q27 -187 27 -353l-123 -8q-17 159 -57.5 207.5t-157.5 48.5h-344v-545h284q54 0 73.5 21.5t33.5 95.5l8 45l107 4v-450l-107 4l-12 90q-6 44 -30.5 64t-72.5 20h-284v-483q0 -57 29.5 -74
t127.5 -17h230q117 0 157.5 48.5t57.5 207.5l123 -8q0 -165 -27 -352h-1057l4 80l78 14q49 9 66.5 28.5t17.5 65.5v1057q0 52 -20 69.5t-97 31.5l-45 8z" />
    <glyph glyph-name="Eacute" unicode="&#xc9;" horiz-adv-x="1271" 
d="M477 1616l361 274q60 -57 94 -133l-395 -223q-39 34 -60 82zM98 1434h1014q27 -187 27 -353l-123 -8q-17 159 -57.5 207.5t-157.5 48.5h-344v-545h284q54 0 73.5 21.5t33.5 95.5l8 45l107 4v-450l-107 4l-12 90q-6 44 -30.5 64t-72.5 20h-284v-483q0 -57 29.5 -74
t127.5 -17h230q117 0 157.5 48.5t57.5 207.5l123 -8q0 -165 -27 -352h-1057l4 80l78 14q49 9 66.5 28.5t17.5 65.5v1057q0 52 -20 69.5t-97 31.5l-45 8z" />
    <glyph glyph-name="Ecircumflex" unicode="&#xca;" horiz-adv-x="1271" 
d="M650 1709l-236 -155q-37 29 -58 80l299 250l299 -250q-20 -48 -61 -80zM1059 360l123 -8q0 -165 -27 -352h-1057l4 80l78 14q49 9 66.5 28.5t17.5 65.5v1057q0 52 -20 69.5t-97 31.5l-45 8l-4 80h1014q27 -187 27 -353l-123 -8q-17 159 -57.5 207.5t-157.5 48.5h-344
v-545h284q54 0 73.5 21.5t33.5 95.5l8 45l107 4v-450l-107 4l-12 90q-6 44 -30.5 64t-72.5 20h-284v-483q0 -57 29.5 -74t127.5 -17h230q117 0 157.5 48.5t57.5 207.5z" />
    <glyph glyph-name="Edieresis" unicode="&#xcb;" horiz-adv-x="1271" 
d="M356 1710q0 47 33 80t80 33t80 -33t33 -80t-33 -80t-80 -33t-80 33t-33 80zM729 1710q0 47 33 80t80 33t79.5 -33t32.5 -80t-32.5 -80t-79.5 -33t-80 33t-33 80zM98 1434h1014q27 -187 27 -353l-123 -8q-17 159 -57.5 207.5t-157.5 48.5h-344v-545h284q54 0 73.5 21.5
t33.5 95.5l8 45l107 4v-450l-107 4l-12 90q-6 44 -30.5 64t-72.5 20h-284v-483q0 -57 29.5 -74t127.5 -17h230q117 0 157.5 48.5t57.5 207.5l123 -8q0 -165 -27 -352h-1057l4 80l78 14q49 9 66.5 28.5t17.5 65.5v1057q0 52 -20 69.5t-97 31.5l-45 8z" />
    <glyph glyph-name="Igrave" unicode="&#xcc;" horiz-adv-x="722" 
d="M227 1890l361 -274q-21 -48 -60 -82l-395 223q34 76 94 133zM631 1354l-90 -13q-48 -7 -66 -28t-18 -68v-1057q0 -52 19.5 -68.5t96.5 -29.5l62 -10l-4 -80h-533l4 80l78 14q49 9 66.5 28.5t17.5 65.5v1057q0 52 -20 69.5t-97 31.5l-45 8l-4 80h537z" />
    <glyph glyph-name="Iacute" unicode="&#xcd;" horiz-adv-x="722" 
d="M154 1616l360 274q60 -57 94 -133l-395 -223q-38 32 -59 82zM631 1354l-90 -13q-48 -7 -66 -28t-18 -68v-1057q0 -52 19.5 -68.5t96.5 -29.5l62 -10l-4 -80h-533l4 80l78 14q49 9 66.5 28.5t17.5 65.5v1057q0 52 -20 69.5t-97 31.5l-45 8l-4 80h537z" />
    <glyph glyph-name="Icircumflex" unicode="&#xce;" horiz-adv-x="722" 
d="M355 1709l-236 -155q-37 29 -58 80l299 250l299 -250q-20 -48 -61 -80zM631 1354l-90 -13q-48 -7 -66 -28t-18 -68v-1057q0 -52 19.5 -68.5t96.5 -29.5l62 -10l-4 -80h-533l4 80l78 14q49 9 66.5 28.5t17.5 65.5v1057q0 52 -20 69.5t-97 31.5l-45 8l-4 80h537z" />
    <glyph glyph-name="Idieresis" unicode="&#xcf;" horiz-adv-x="722" 
d="M61 1710q0 47 33 80t80 33t80 -33t33 -80t-33 -80t-80 -33t-80 33t-33 80zM434 1710q0 47 33 80t80 33t79.5 -33t32.5 -80t-32.5 -80t-79.5 -33t-80 33t-33 80zM631 1354l-90 -13q-48 -7 -66 -28t-18 -68v-1057q0 -52 19.5 -68.5t96.5 -29.5l62 -10l-4 -80h-533l4 80
l78 14q49 9 66.5 28.5t17.5 65.5v1057q0 52 -20 69.5t-97 31.5l-45 8l-4 80h537z" />
    <glyph glyph-name="Eth" unicode="&#xd0;" horiz-adv-x="1480" 
d="M647 1442q355 0 542 -186t187 -539q0 -322 -202.5 -523.5t-526.5 -201.5q-69 0 -216 4t-232 4h-101l4 80l78 14q49 9 66.5 28.5t17.5 65.5v496h-149v104h149v457q0 52 -20 69.5t-97 31.5l-45 8l-4 80h101q85 0 232 4t216 4zM616 94q259 0 404 164.5t145 458.5
q0 297 -137.5 459.5t-388.5 162.5q-111 0 -182 -12v-539h293v-104h-293v-485q0 -60 34 -82.5t125 -22.5z" />
    <glyph glyph-name="Ntilde" unicode="&#xd1;" horiz-adv-x="1546" 
d="M645 1671q-80 0 -135 -67l-31 75q26 51 80.5 85t108.5 34q65 0 134.5 -30.5t112.5 -30.5q81 0 136 67l30 -75q-26 -51 -80 -85t-108 -34q-65 0 -135 30.5t-113 30.5zM1475 1434l-5 -80l-90 -13q-48 -7 -66 -28t-18 -68v-1245h-170l-567 899q-113 180 -165 311
q7 -102 7 -225v-797q0 -52 20 -68.5t97 -29.5l62 -10l-5 -80h-477l4 80l78 14q49 9 66.5 28.5t17.5 65.5v1057q0 52 -20 69.5t-97 31.5l-45 8l-4 80h344l567 -899q108 -171 156 -287q-6 99 -6 201v796q0 52 -20 69.5t-97 31.5l-45 8l-4 80h482z" />
    <glyph glyph-name="Ograve" unicode="&#xd2;" horiz-adv-x="1556" 
d="M614 1890l361 -274q-21 -48 -60 -82l-395 223q34 76 94 133zM104 717q0 228 86.5 399t239 260.5t348.5 89.5q314 0 494 -200t180 -549q0 -220 -85 -390.5t-238.5 -265t-350.5 -94.5q-203 0 -356.5 94.5t-235.5 264.5t-82 391zM315 717q0 -282 128.5 -459.5t334.5 -177.5
t334.5 177.5t128.5 459.5q0 296 -124 466.5t-339 170.5t-339 -170.5t-124 -466.5z" />
    <glyph glyph-name="Oacute" unicode="&#xd3;" horiz-adv-x="1556" 
d="M582 1616l360 274q60 -57 94 -133l-395 -223q-38 32 -59 82zM104 717q0 228 86.5 399t239 260.5t348.5 89.5q314 0 494 -200t180 -549q0 -220 -85 -390.5t-238.5 -265t-350.5 -94.5q-203 0 -356.5 94.5t-235.5 264.5t-82 391zM315 717q0 -282 128.5 -459.5t334.5 -177.5
t334.5 177.5t128.5 459.5q0 296 -124 466.5t-339 170.5t-339 -170.5t-124 -466.5z" />
    <glyph glyph-name="Ocircumflex" unicode="&#xd4;" horiz-adv-x="1556" 
d="M773 1709l-236 -155q-37 29 -58 80l299 250l299 -250q-20 -48 -61 -80zM778 1466q314 0 494 -200t180 -549q0 -220 -85 -390.5t-238.5 -265t-350.5 -94.5q-203 0 -356.5 94.5t-235.5 264.5t-82 391q0 228 86.5 399t239 260.5t348.5 89.5zM778 80q206 0 334.5 177.5
t128.5 459.5q0 296 -124 466.5t-339 170.5t-339 -170.5t-124 -466.5q0 -282 128.5 -459.5t334.5 -177.5z" />
    <glyph glyph-name="Otilde" unicode="&#xd5;" horiz-adv-x="1556" 
d="M913 1737q81 0 136 67l30 -75q-26 -51 -80 -85t-108 -34q-65 0 -135 30.5t-113 30.5q-80 0 -135 -67l-31 75q26 51 80.5 85t108.5 34q65 0 134.5 -30.5t112.5 -30.5zM104 717q0 228 86.5 399t239 260.5t348.5 89.5q314 0 494 -200t180 -549q0 -220 -85 -390.5
t-238.5 -265t-350.5 -94.5q-203 0 -356.5 94.5t-235.5 264.5t-82 391zM315 717q0 -282 128.5 -459.5t334.5 -177.5t334.5 177.5t128.5 459.5q0 296 -124 466.5t-339 170.5t-339 -170.5t-124 -466.5z" />
    <glyph glyph-name="Odieresis" unicode="&#xd6;" horiz-adv-x="1556" 
d="M479 1710q0 47 33 80t80 33t80 -33t33 -80t-33 -80t-80 -33t-80 33t-33 80zM852 1710q0 47 33 80t80 33t79.5 -33t32.5 -80t-32.5 -80t-79.5 -33t-80 33t-33 80zM104 717q0 228 86.5 399t239 260.5t348.5 89.5q314 0 494 -200t180 -549q0 -220 -85 -390.5t-238.5 -265
t-350.5 -94.5q-203 0 -356.5 94.5t-235.5 264.5t-82 391zM315 717q0 -282 128.5 -459.5t334.5 -177.5t334.5 177.5t128.5 459.5q0 296 -124 466.5t-339 170.5t-339 -170.5t-124 -466.5z" />
    <glyph glyph-name="multiply" unicode="&#xd7;" horiz-adv-x="1036" 
d="M607 560l319 -318l-92 -92l-319 318l-318 -318l-86 86l318 318l-318 318l92 93l318 -319l319 319l86 -86z" />
    <glyph glyph-name="Oslash" unicode="&#xd8;" horiz-adv-x="1556" 
d="M1217 1522l-71 -151q147 -91 226.5 -258.5t79.5 -395.5q0 -220 -85 -390.5t-238.5 -265t-350.5 -94.5q-142 0 -263 48l-71 -152l-104 49l73 156q-147 94 -228 262.5t-81 386.5q0 228 86.5 399t239 260.5t348.5 89.5q147 0 264 -45l70 150zM778 1354q-215 0 -339 -170.5
t-124 -466.5q0 -159 43.5 -289.5t123.5 -216.5l502 1092q-93 51 -206 51zM778 80q206 0 334.5 177.5t128.5 459.5q0 344 -163 513l-504 -1095q92 -55 204 -55z" />
    <glyph glyph-name="Ugrave" unicode="&#xd9;" horiz-adv-x="1497" 
d="M608 1890l361 -274q-21 -48 -60 -82l-395 223q34 76 94 133zM604 1354l-90 -13q-48 -7 -66 -28t-18 -68v-735q0 -218 86.5 -325t263.5 -107q164 0 249 106t85 312v749q0 53 -20.5 70.5t-96.5 30.5l-49 8l4 80h490l-4 -80l-90 -13q-48 -7 -66 -28t-18 -68v-770
q0 -240 -132.5 -374t-369.5 -134q-524 0 -524 525v753q0 52 -20 69.5t-97 31.5l-45 8l-4 80h536z" />
    <glyph glyph-name="Uacute" unicode="&#xda;" horiz-adv-x="1497" 
d="M598 1616l360 274q62 -58 95 -133l-396 -223q-38 32 -59 82zM604 1354l-90 -13q-48 -7 -66 -28t-18 -68v-735q0 -218 86.5 -325t263.5 -107q164 0 249 106t85 312v749q0 53 -20.5 70.5t-96.5 30.5l-49 8l4 80h490l-4 -80l-90 -13q-48 -7 -66 -28t-18 -68v-770
q0 -240 -132.5 -374t-369.5 -134q-524 0 -524 525v753q0 52 -20 69.5t-97 31.5l-45 8l-4 80h536z" />
    <glyph glyph-name="Ucircumflex" unicode="&#xdb;" horiz-adv-x="1497" 
d="M773 1709l-236 -155q-37 29 -58 80l299 250l299 -250q-20 -48 -61 -80zM1442 1434l-4 -80l-90 -13q-48 -7 -66 -28t-18 -68v-770q0 -240 -132.5 -374t-369.5 -134q-524 0 -524 525v753q0 52 -20 69.5t-97 31.5l-45 8l-4 80h536l-4 -80l-90 -13q-48 -7 -66 -28t-18 -68
v-735q0 -218 86.5 -325t263.5 -107q164 0 249 106t85 312v749q0 53 -20.5 70.5t-96.5 30.5l-49 8l4 80h490z" />
    <glyph glyph-name="Udieresis" unicode="&#xdc;" horiz-adv-x="1497" 
d="M479 1710q0 47 33 80t80 33t80 -33t33 -80t-33 -80t-80 -33t-80 33t-33 80zM852 1710q0 47 33 80t80 33t79.5 -33t32.5 -80t-32.5 -80t-79.5 -33t-80 33t-33 80zM604 1354l-90 -13q-48 -7 -66 -28t-18 -68v-735q0 -218 86.5 -325t263.5 -107q164 0 249 106t85 312v749
q0 53 -20.5 70.5t-96.5 30.5l-49 8l4 80h490l-4 -80l-90 -13q-48 -7 -66 -28t-18 -68v-770q0 -240 -132.5 -374t-369.5 -134q-524 0 -524 525v753q0 52 -20 69.5t-97 31.5l-45 8l-4 80h536z" />
    <glyph glyph-name="Yacute" unicode="&#xdd;" horiz-adv-x="1335" 
d="M989 1757l-395 -223q-38 32 -59 82l360 274q60 -57 94 -133zM1335 1434l-4 -80l-39 -4q-31 -3 -46.5 -8t-32 -13t-35.5 -35t-38.5 -56.5t-58.5 -96.5l-319 -539v-385q0 -66 20.5 -87.5t96.5 -33.5l94 -14l-4 -82h-598l4 82l110 18q48 8 66 33t18 84v385l-317 539
q-48 82 -68 114t-43.5 57t-37.5 29t-46 9l-28 4l-4 80h530l-4 -80l-57 -6q-94 -10 -94 -65q0 -35 36 -97l265 -448l260 448q36 63 36 97q0 56 -104 65l-68 6l4 80h506z" />
    <glyph glyph-name="Thorn" unicode="&#xde;" horiz-adv-x="1234" 
d="M616 301q-91 0 -159 6v-90q0 -66 20 -87.5t96 -33.5l95 -14l-4 -82h-566l4 80l78 14q49 9 66.5 28.5t17.5 65.5v1057q0 52 -20 69.5t-97 31.5l-45 8l-4 80h537l-4 -80l-90 -13q-48 -7 -66 -28t-18 -68v-93q96 3 190 3q253 0 384.5 -108t131.5 -318q0 -196 -148.5 -312
t-398.5 -116zM639 1053q-105 0 -182 -13v-626q68 -6 159 -6q162 0 253 84t91 237q0 161 -82 242.5t-239 81.5z" />
    <glyph glyph-name="germandbls" unicode="&#xdf;" horiz-adv-x="1234" 
d="M819 811q0 -40 18.5 -74.5t48 -61.5t65.5 -53.5t72 -57.5t65.5 -66t48 -86t18.5 -111q0 -145 -97.5 -235.5t-254.5 -90.5q-167 0 -285 76q-8 63 -8 118q0 15 2 71l98 6q49 -183 187 -183q84 0 131 52t47 143q0 45 -18.5 84t-47.5 68t-64.5 56t-71 56t-64.5 61t-47.5 77.5
t-18.5 99.5q0 60 17.5 113t42.5 92.5l50 79t42.5 91.5t17.5 111q0 77 -46.5 121.5t-127.5 44.5q-124 0 -175.5 -115.5t-51.5 -394.5v-903h-324l4 78l58 12q46 10 59.5 27.5t13.5 66.5v752h-131l-4 96l144 12q14 242 118.5 358t306.5 116q154 0 245 -71t91 -192
q0 -58 -18 -108.5t-43.5 -88t-51 -73.5t-43.5 -80.5t-18 -93.5z" />
    <glyph glyph-name="agrave" unicode="&#xe0;" horiz-adv-x="1064" 
d="M328 1552l360 -274q-21 -50 -59 -82l-396 223q33 75 95 133zM1030 129l23 -70q-82 -79 -197 -79q-79 0 -117.5 41.5t-40.5 130.5q-54 -83 -134 -130t-169 -47q-141 0 -226 81t-85 216q0 154 125.5 245t337.5 91q69 0 141 -11v124q0 133 -41 195.5t-129 62.5
q-44 0 -81 -16t-61.5 -38.5t-47 -45t-49 -38.5t-56.5 -16q-40 0 -64 26t-24 67q0 19 6 43q78 51 179 79.5t202 28.5q189 0 270.5 -86.5t81.5 -284.5v-415q0 -104 16.5 -140.5t63.5 -36.5q35 0 76 23zM444 98q154 0 244 171v236q-63 7 -127 7q-138 0 -210 -56t-72 -163
q0 -92 43.5 -143.5t121.5 -51.5z" />
    <glyph glyph-name="aacute" unicode="&#xe1;" horiz-adv-x="1064" 
d="M797 1419l-396 -223q-38 32 -59 82l360 274q62 -58 95 -133zM1030 129l23 -70q-82 -79 -197 -79q-79 0 -117.5 41.5t-40.5 130.5q-54 -83 -134 -130t-169 -47q-141 0 -226 81t-85 216q0 154 125.5 245t337.5 91q69 0 141 -11v124q0 133 -41 195.5t-129 62.5
q-44 0 -81 -16t-61.5 -38.5t-47 -45t-49 -38.5t-56.5 -16q-40 0 -64 26t-24 67q0 19 6 43q78 51 179 79.5t202 28.5q189 0 270.5 -86.5t81.5 -284.5v-415q0 -104 16.5 -140.5t63.5 -36.5q35 0 76 23zM444 98q154 0 244 171v236q-63 7 -127 7q-138 0 -210 -56t-72 -163
q0 -92 43.5 -143.5t121.5 -51.5z" />
    <glyph glyph-name="acircumflex" unicode="&#xe2;" horiz-adv-x="1064" 
d="M500 1371l-236 -154q-36 28 -57 79l299 250l299 -250q-19 -45 -62 -79zM1030 129l23 -70q-82 -79 -197 -79q-79 0 -117.5 41.5t-40.5 130.5q-54 -83 -134 -130t-169 -47q-141 0 -226 81t-85 216q0 154 125.5 245t337.5 91q69 0 141 -11v124q0 133 -41 195.5t-129 62.5
q-44 0 -81 -16t-61.5 -38.5t-47 -45t-49 -38.5t-56.5 -16q-40 0 -64 26t-24 67q0 19 6 43q78 51 179 79.5t202 28.5q189 0 270.5 -86.5t81.5 -284.5v-415q0 -104 16.5 -140.5t63.5 -36.5q35 0 76 23zM444 98q154 0 244 171v236q-63 7 -127 7q-138 0 -210 -56t-72 -163
q0 -92 43.5 -143.5t121.5 -51.5z" />
    <glyph glyph-name="atilde" unicode="&#xe3;" horiz-adv-x="1064" 
d="M371 1333q-80 0 -135 -67l-31 75q26 51 80 85t108 34q65 0 135 -30.5t113 -30.5q80 0 135 67l31 -75q-26 -51 -80.5 -85t-108.5 -34q-65 0 -134.5 30.5t-112.5 30.5zM1030 129l23 -70q-82 -79 -197 -79q-79 0 -117.5 41.5t-40.5 130.5q-54 -83 -134 -130t-169 -47
q-141 0 -226 81t-85 216q0 154 125.5 245t337.5 91q69 0 141 -11v124q0 133 -41 195.5t-129 62.5q-44 0 -81 -16t-61.5 -38.5t-47 -45t-49 -38.5t-56.5 -16q-40 0 -64 26t-24 67q0 19 6 43q78 51 179 79.5t202 28.5q189 0 270.5 -86.5t81.5 -284.5v-415q0 -104 16.5 -140.5
t63.5 -36.5q35 0 76 23zM444 98q154 0 244 171v236q-63 7 -127 7q-138 0 -210 -56t-72 -163q0 -92 43.5 -143.5t121.5 -51.5z" />
    <glyph glyph-name="adieresis" unicode="&#xe4;" horiz-adv-x="1064" 
d="M319 1260q-47 0 -79.5 32.5t-32.5 79.5t32.5 80t79.5 33t80 -33t33 -80t-33 -79.5t-80 -32.5zM692 1260q-47 0 -79.5 32.5t-32.5 79.5t32.5 80t79.5 33t80 -33t33 -80t-33 -79.5t-80 -32.5zM1030 129l23 -70q-82 -79 -197 -79q-79 0 -117.5 41.5t-40.5 130.5
q-54 -83 -134 -130t-169 -47q-141 0 -226 81t-85 216q0 154 125.5 245t337.5 91q69 0 141 -11v124q0 133 -41 195.5t-129 62.5q-44 0 -81 -16t-61.5 -38.5t-47 -45t-49 -38.5t-56.5 -16q-40 0 -64 26t-24 67q0 19 6 43q78 51 179 79.5t202 28.5q189 0 270.5 -86.5
t81.5 -284.5v-415q0 -104 16.5 -140.5t63.5 -36.5q35 0 76 23zM444 98q154 0 244 171v236q-63 7 -127 7q-138 0 -210 -56t-72 -163q0 -92 43.5 -143.5t121.5 -51.5z" />
    <glyph glyph-name="aring" unicode="&#xe5;" horiz-adv-x="1064" 
d="M506 1198q-86 0 -141.5 54t-55.5 143q0 83 58.5 139.5t138.5 56.5q86 0 141 -53.5t55 -142.5q0 -83 -58.5 -140t-137.5 -57zM506 1499q-42 0 -71 -29t-29 -75t29 -75.5t71 -29.5t71 29.5t29 75.5t-29 75t-71 29zM1030 129l23 -70q-82 -79 -197 -79q-79 0 -117.5 41.5
t-40.5 130.5q-54 -83 -134 -130t-169 -47q-141 0 -226 81t-85 216q0 154 125.5 245t337.5 91q69 0 141 -11v124q0 133 -41 195.5t-129 62.5q-44 0 -81 -16t-61.5 -38.5t-47 -45t-49 -38.5t-56.5 -16q-40 0 -64 26t-24 67q0 19 6 43q78 51 179 79.5t202 28.5
q189 0 270.5 -86.5t81.5 -284.5v-415q0 -104 16.5 -140.5t63.5 -36.5q35 0 76 23zM444 98q154 0 244 171v236q-63 7 -127 7q-138 0 -210 -56t-72 -163q0 -92 43.5 -143.5t121.5 -51.5z" />
    <glyph glyph-name="ae" unicode="&#xe6;" horiz-adv-x="1656" 
d="M1198 100q91 0 160.5 27t136.5 86l53 -96q-87 -76 -176.5 -109t-214.5 -33q-274 0 -395 217q-53 -103 -148 -160t-219 -57q-141 0 -226 81t-85 216q0 162 125.5 259.5t337.5 97.5q75 0 141 -10v102q0 133 -41 195.5t-129 62.5q-44 0 -81 -16t-61.5 -38.5t-47 -45
t-49 -38.5t-56.5 -16q-40 0 -64 26t-24 67q0 19 6 43q78 51 179 79.5t202 28.5q128 0 200.5 -38t103.5 -123q65 78 155.5 119.5t196.5 41.5q174 0 278.5 -117.5t104.5 -312.5q0 -70 -11.5 -92.5t-48.5 -22.5l-612 -2q0 -209 85.5 -315.5t223.5 -106.5zM1147 963
q-106 0 -171.5 -87t-81.5 -249h423q32 0 43.5 14.5t11.5 54.5q0 118 -62.5 192.5t-162.5 74.5zM444 98q85 0 154 56.5t114 165.5q-22 87 -24 194v6q-54 6 -127 6q-138 0 -210.5 -59.5t-72.5 -173.5q0 -92 44 -143.5t122 -51.5z" />
    <glyph glyph-name="ccedilla" unicode="&#xe7;" horiz-adv-x="989" 
d="M595 -23l-44 -88q88 0 140 -42t52 -113q0 -86 -61.5 -137.5t-165.5 -51.5q-91 0 -154 54q7 43 33 69q52 -41 115 -41q44 0 69 23t25 63q0 88 -137 88l-25 41l61 135q-190 16 -296.5 161t-106.5 384q0 127 38.5 231.5t105.5 173t155.5 105.5t190.5 37q180 0 319 -84
q11 -26 11 -53q0 -43 -27.5 -68.5t-71.5 -25.5q-33 0 -57.5 13t-42.5 31t-37 36.5t-50.5 31.5t-74.5 13q-123 0 -190.5 -115t-67.5 -326q0 -200 78 -311t211 -111q153 0 280 113l54 -96q-77 -68 -155 -101t-174 -39z" />
    <glyph glyph-name="egrave" unicode="&#xe8;" horiz-adv-x="1069" 
d="M393 1552l361 -274q-21 -48 -60 -82l-395 223q34 76 94 133zM610 100q91 0 160.5 27t136.5 86l54 -96q-87 -76 -177 -109t-215 -33q-224 0 -346.5 145.5t-122.5 401.5q0 127 38.5 231.5t105.5 173t155.5 105.5t190.5 37q175 0 279 -112.5t104 -301.5q0 -70 -11.5 -92
t-48.5 -22h-612v-19q0 -209 85.5 -315.5t223.5 -106.5zM559 963q-104 0 -168.5 -83t-82.5 -237h421q32 0 43.5 15t11.5 55q0 112 -62.5 181t-162.5 69z" />
    <glyph glyph-name="eacute" unicode="&#xe9;" horiz-adv-x="1069" 
d="M827 1419l-395 -223q-38 32 -59 82l360 274q60 -57 94 -133zM610 100q91 0 160.5 27t136.5 86l54 -96q-87 -76 -177 -109t-215 -33q-224 0 -346.5 145.5t-122.5 401.5q0 127 38.5 231.5t105.5 173t155.5 105.5t190.5 37q175 0 279 -112.5t104 -301.5q0 -70 -11.5 -92
t-48.5 -22h-612v-19q0 -209 85.5 -315.5t223.5 -106.5zM559 963q-104 0 -168.5 -83t-82.5 -237h421q32 0 43.5 15t11.5 55q0 112 -62.5 181t-162.5 69z" />
    <glyph glyph-name="ecircumflex" unicode="&#xea;" horiz-adv-x="1069" 
d="M547 1371l-236 -154q-36 28 -57 79l299 250l299 -250q-19 -46 -61 -79zM610 100q91 0 160.5 27t136.5 86l54 -96q-87 -76 -177 -109t-215 -33q-224 0 -346.5 145.5t-122.5 401.5q0 127 38.5 231.5t105.5 173t155.5 105.5t190.5 37q175 0 279 -112.5t104 -301.5
q0 -70 -11.5 -92t-48.5 -22h-612v-19q0 -209 85.5 -315.5t223.5 -106.5zM559 963q-104 0 -168.5 -83t-82.5 -237h421q32 0 43.5 15t11.5 55q0 112 -62.5 181t-162.5 69z" />
    <glyph glyph-name="edieresis" unicode="&#xeb;" horiz-adv-x="1069" 
d="M367 1260q-47 0 -80 32.5t-33 79.5t33 80t80 33t79.5 -33t32.5 -80t-32.5 -79.5t-79.5 -32.5zM739 1260q-47 0 -79.5 32.5t-32.5 79.5t32.5 80t79.5 33t80 -33t33 -80t-33 -79.5t-80 -32.5zM610 100q91 0 160.5 27t136.5 86l54 -96q-87 -76 -177 -109t-215 -33
q-224 0 -346.5 145.5t-122.5 401.5q0 127 38.5 231.5t105.5 173t155.5 105.5t190.5 37q175 0 279 -112.5t104 -301.5q0 -70 -11.5 -92t-48.5 -22h-612v-19q0 -209 85.5 -315.5t223.5 -106.5zM559 963q-104 0 -168.5 -83t-82.5 -237h421q32 0 43.5 15t11.5 55
q0 112 -62.5 181t-162.5 69z" />
    <glyph glyph-name="igrave" unicode="&#xec;" horiz-adv-x="628" 
d="M137 1552l361 -274q-21 -48 -60 -82l-395 223q34 76 94 133zM418 1069v-885q0 -57 17 -72.5t89 -25.5l62 -8l-4 -78h-488l4 78l58 12q46 10 59.5 27.5t13.5 66.5v643q0 60 -12.5 80t-56.5 29l-62 12l-4 74z" />
    <glyph glyph-name="iacute" unicode="&#xed;" horiz-adv-x="628" 
d="M98 1278l361 274q60 -57 94 -133l-395 -223q-39 34 -60 82zM418 1069v-885q0 -57 17 -72.5t89 -25.5l62 -8l-4 -78h-488l4 78l58 12q46 10 59.5 27.5t13.5 66.5v643q0 60 -12.5 80t-56.5 29l-62 12l-4 74z" />
    <glyph glyph-name="icircumflex" unicode="&#xee;" horiz-adv-x="628" 
d="M297 1371l-236 -154q-36 28 -57 79l299 250l299 -250q-19 -46 -61 -79zM418 1069v-885q0 -57 17 -72.5t89 -25.5l62 -8l-4 -78h-488l4 78l58 12q46 10 59.5 27.5t13.5 66.5v643q0 60 -12.5 80t-56.5 29l-62 12l-4 74z" />
    <glyph glyph-name="idieresis" unicode="&#xef;" horiz-adv-x="628" 
d="M4 1372q0 47 33 80t80 33t79.5 -33t32.5 -80t-32.5 -79.5t-79.5 -32.5t-80 32.5t-33 79.5zM377 1372q0 47 32.5 80t79.5 33t80 -33t33 -80t-33 -79.5t-80 -32.5t-79.5 32.5t-32.5 79.5zM418 1069v-885q0 -57 17 -72.5t89 -25.5l62 -8l-4 -78h-488l4 78l58 12
q46 10 59.5 27.5t13.5 66.5v643q0 60 -12.5 80t-56.5 29l-62 12l-4 74z" />
    <glyph glyph-name="eth" unicode="&#xf0;" horiz-adv-x="1187" 
d="M872 1444l-137 -98q161 -119 245.5 -305.5t84.5 -426.5q0 -639 -481 -639q-232 0 -357 137.5t-125 393.5q0 247 126 388.5t345 141.5q110 0 192 -49.5t124 -138.5h3q-78 260 -298 412l-182 -130l-62 89l143 101q-111 56 -247 87l43 111q193 -27 345 -109l175 125zM584 82
q127 0 203.5 116t76.5 308q0 204 -71 309t-209 105t-209.5 -105t-71.5 -309q0 -192 77 -308t204 -116z" />
    <glyph glyph-name="ntilde" unicode="&#xf1;" horiz-adv-x="1247" 
d="M475 1333q-80 0 -135 -67l-31 75q26 51 80.5 85t108.5 34q65 0 134.5 -30.5t112.5 -30.5q81 0 136 67l30 -75q-26 -51 -80 -85t-108 -34q-65 0 -135 30.5t-113 30.5zM1225 78l-4 -78h-488l4 78l58 12q46 10 59.5 27.5t13.5 66.5v521q0 241 -194 241q-170 0 -262 -167
v-595q0 -57 17 -72.5t89 -25.5l62 -8l-5 -78h-487l4 78l58 12q46 10 59.5 27.5t13.5 66.5v643q0 60 -12.5 80t-56.5 29l-62 12l-4 74l289 47q16 -59 21 -178q54 85 139 131.5t186 46.5q164 0 249 -90t85 -262v-533q0 -57 17 -72.5t89 -25.5z" />
    <glyph glyph-name="ograve" unicode="&#xf2;" horiz-adv-x="1179" 
d="M446 1552l361 -274q-21 -50 -59 -82l-396 223q34 76 94 133zM100 522q0 127 38.5 231.5t105.5 173t155.5 105.5t190.5 37q233 0 361 -143t128 -404q0 -249 -137 -398t-352 -149q-226 0 -358 147t-132 400zM301 522q0 -202 79 -321t210 -119t210 119t79 321
q0 211 -75.5 326t-213.5 115t-213.5 -115t-75.5 -326z" />
    <glyph glyph-name="oacute" unicode="&#xf3;" horiz-adv-x="1179" 
d="M373 1278l360 274q60 -57 94 -133l-395 -223q-38 32 -59 82zM100 522q0 127 38.5 231.5t105.5 173t155.5 105.5t190.5 37q233 0 361 -143t128 -404q0 -249 -137 -398t-352 -149q-226 0 -358 147t-132 400zM301 522q0 -202 79 -321t210 -119t210 119t79 321
q0 211 -75.5 326t-213.5 115t-213.5 -115t-75.5 -326z" />
    <glyph glyph-name="ocircumflex" unicode="&#xf4;" horiz-adv-x="1179" 
d="M584 1371l-236 -154q-36 28 -57 79l299 250l299 -250q-19 -45 -62 -79zM590 1069q233 0 361 -143t128 -404q0 -249 -137 -398t-352 -149q-226 0 -358 147t-132 400q0 127 38.5 231.5t105.5 173t155.5 105.5t190.5 37zM590 82q131 0 210 119t79 321q0 211 -75.5 326
t-213.5 115t-213.5 -115t-75.5 -326q0 -202 79 -321t210 -119z" />
    <glyph glyph-name="otilde" unicode="&#xf5;" horiz-adv-x="1179" 
d="M725 1399q80 0 135 67l31 -75q-26 -51 -80.5 -85t-108.5 -34q-65 0 -134.5 30.5t-112.5 30.5q-81 0 -136 -67l-30 75q26 51 80 85t108 34q65 0 135 -30.5t113 -30.5zM100 522q0 127 38.5 231.5t105.5 173t155.5 105.5t190.5 37q233 0 361 -143t128 -404q0 -249 -137 -398
t-352 -149q-226 0 -358 147t-132 400zM301 522q0 -202 79 -321t210 -119t210 119t79 321q0 211 -75.5 326t-213.5 115t-213.5 -115t-75.5 -326z" />
    <glyph glyph-name="odieresis" unicode="&#xf6;" horiz-adv-x="1179" 
d="M291 1372q0 47 32.5 80t79.5 33t80 -33t33 -80t-33 -79.5t-80 -32.5t-79.5 32.5t-32.5 79.5zM664 1372q0 47 32.5 80t79.5 33t80 -33t33 -80t-33 -79.5t-80 -32.5t-79.5 32.5t-32.5 79.5zM100 522q0 127 38.5 231.5t105.5 173t155.5 105.5t190.5 37q233 0 361 -143
t128 -404q0 -249 -137 -398t-352 -149q-226 0 -358 147t-132 400zM301 522q0 -202 79 -321t210 -119t210 119t79 321q0 211 -75.5 326t-213.5 115t-213.5 -115t-75.5 -326z" />
    <glyph glyph-name="divide" unicode="&#xf7;" horiz-adv-x="1183" 
d="M463 940q0 57 36 93t93 36t93 -36t36 -93t-36 -93t-93 -36t-93 36t-36 93zM1071 498h-958v118h958v-118zM463 174q0 57 36 93t93 36t93 -36t36 -93t-36 -93t-93 -36t-93 36t-36 93z" />
    <glyph glyph-name="oslash" unicode="&#xf8;" horiz-adv-x="1179" 
d="M936 1137l-66 -142q209 -135 209 -473q0 -249 -137 -398t-352 -149q-95 0 -182 30l-66 -142l-98 45l68 145q-102 68 -157 188.5t-55 280.5q0 127 38.5 231.5t105.5 173t155.5 105.5t190.5 37q101 0 182 -27l66 140zM590 963q-138 0 -213.5 -115t-75.5 -326
q0 -203 81 -324l336 732q-58 33 -128 33zM590 82q131 0 210 119t79 321q0 215 -78 330l-337 -735q56 -35 126 -35z" />
    <glyph glyph-name="ugrave" unicode="&#xf9;" horiz-adv-x="1241" 
d="M440 1552l361 -274q-21 -48 -60 -82l-395 223q34 76 94 133zM1184 92l-4 -82l-301 -30q-17 63 -22 173q-54 -85 -138 -131.5t-184 -46.5q-164 0 -248 90.5t-84 262.5v499q0 60 -13 80t-57 29l-61 12l-4 74l323 47v-729q0 -242 193 -242q170 0 260 167v562q0 60 -15 79
t-69 30l-62 12l-4 74l338 47v-854q0 -60 18 -84t72 -31z" />
    <glyph glyph-name="uacute" unicode="&#xfa;" horiz-adv-x="1241" 
d="M879 1419l-396 -223q-38 32 -59 82l360 274q62 -58 95 -133zM1184 92l-4 -82l-301 -30q-17 63 -22 173q-54 -85 -138 -131.5t-184 -46.5q-164 0 -248 90.5t-84 262.5v499q0 60 -13 80t-57 29l-61 12l-4 74l323 47v-729q0 -242 193 -242q170 0 260 167v562q0 60 -15 79
t-69 30l-62 12l-4 74l338 47v-854q0 -60 18 -84t72 -31z" />
    <glyph glyph-name="ucircumflex" unicode="&#xfb;" horiz-adv-x="1241" 
d="M603 1371l-236 -154q-37 29 -58 79l299 250l299 -250q-19 -46 -61 -79zM1184 92l-4 -82l-301 -30q-17 63 -22 173q-54 -85 -138 -131.5t-184 -46.5q-164 0 -248 90.5t-84 262.5v499q0 60 -13 80t-57 29l-61 12l-4 74l323 47v-729q0 -242 193 -242q170 0 260 167v562
q0 60 -15 79t-69 30l-62 12l-4 74l338 47v-854q0 -60 18 -84t72 -31z" />
    <glyph glyph-name="udieresis" unicode="&#xfc;" horiz-adv-x="1241" 
d="M422 1260q-47 0 -80 32.5t-33 79.5t33 80t80 33t80 -33t33 -80t-33 -79.5t-80 -32.5zM795 1260q-47 0 -80 32.5t-33 79.5t33 80t80 33t79.5 -33t32.5 -80t-32.5 -79.5t-79.5 -32.5zM1184 92l-4 -82l-301 -30q-17 63 -22 173q-54 -85 -138 -131.5t-184 -46.5
q-164 0 -248 90.5t-84 262.5v499q0 60 -13 80t-57 29l-61 12l-4 74l323 47v-729q0 -242 193 -242q170 0 260 167v562q0 60 -15 79t-69 30l-62 12l-4 74l338 47v-854q0 -60 18 -84t72 -31z" />
    <glyph glyph-name="yacute" unicode="&#xfd;" horiz-adv-x="1130" 
d="M862 1419l-395 -223q-38 32 -59 82l360 274q60 -57 94 -133zM1126 1044l-4 -77l-26 -7q-53 -12 -74.5 -33.5t-50.5 -92.5l-357 -863q-102 -246 -197.5 -334t-266.5 -88q-22 0 -54 7q-24 40 -24 79q0 41 25.5 66t68.5 25q20 0 52.5 -7.5t49.5 -7.5q67 0 108.5 44.5
t94.5 176.5l28 69q-25 41 -53 114l-282 719q-31 79 -48.5 100t-56.5 27l-41 6l-4 77h475l-4 -77l-55 -9q-47 -7 -68 -21.5t-21 -41.5q0 -23 15 -61l237 -610l241 610q18 45 18 69q0 26 -22.5 39t-75.5 19l-52 6l5 77h419z" />
    <glyph glyph-name="thorn" unicode="&#xfe;" horiz-adv-x="1179" 
d="M653 1069q201 0 312.5 -143t111.5 -404q0 -245 -130.5 -396t-342.5 -151q-160 0 -256 102q4 -144 4 -247v-66q0 -57 17.5 -72.5t89.5 -25.5l102 -14l-4 -82h-528l4 78l57 12q46 10 60 27.5t14 66.5v1522q0 59 -13 79t-57 29l-61 13l-4 73l323 48v-371q0 -104 -4 -248
q108 170 305 170zM575 88q148 0 225 111t77 323q0 203 -71.5 313.5t-201.5 110.5q-165 0 -252 -165v-573q91 -120 223 -120z" />
    <glyph glyph-name="ydieresis" unicode="&#xff;" horiz-adv-x="1130" 
d="M410 1260q-47 0 -80 32.5t-33 79.5t33 80t80 33t79.5 -33t32.5 -80t-32.5 -79.5t-79.5 -32.5zM782 1260q-47 0 -79.5 32.5t-32.5 79.5t32.5 80t79.5 33t80 -33t33 -80t-33 -79.5t-80 -32.5zM1126 1044l-4 -77l-26 -7q-53 -12 -74.5 -33.5t-50.5 -92.5l-357 -863
q-102 -246 -197.5 -334t-266.5 -88q-22 0 -54 7q-24 40 -24 79q0 41 25.5 66t68.5 25q20 0 52.5 -7.5t49.5 -7.5q67 0 108.5 44.5t94.5 176.5l28 69q-25 41 -53 114l-282 719q-31 79 -48.5 100t-56.5 27l-41 6l-4 77h475l-4 -77l-55 -9q-47 -7 -68 -21.5t-21 -41.5
q0 -23 15 -61l237 -610l241 610q18 45 18 69q0 26 -22.5 39t-75.5 19l-52 6l5 77h419z" />
    <glyph glyph-name="Amacron" unicode="&#x100;" horiz-adv-x="1409" 
d="M985 1642h-541v119h541v-119zM858 80l57 8q52 8 74.5 25t22.5 54q0 41 -29 126l-47 141h-522l-49 -141q-32 -91 -32 -127q0 -38 28 -54.5t98 -25.5l47 -6l-4 -80h-506l4 80l57 8q60 8 87.5 43.5t74.5 161.5l424 1149h143l394 -1149q43 -126 68.5 -159.5t86.5 -45.5l43 -8
l4 -80h-528zM900 543l-219 653l-229 -653h448z" />
    <glyph glyph-name="amacron" unicode="&#x101;" horiz-adv-x="1064" 
d="M776 1305h-540v118h540v-118zM1030 129l23 -70q-82 -79 -197 -79q-79 0 -117.5 41.5t-40.5 130.5q-54 -83 -134 -130t-169 -47q-141 0 -226 81t-85 216q0 154 125.5 245t337.5 91q69 0 141 -11v124q0 133 -41 195.5t-129 62.5q-44 0 -81 -16t-61.5 -38.5t-47 -45
t-49 -38.5t-56.5 -16q-40 0 -64 26t-24 67q0 19 6 43q78 51 179 79.5t202 28.5q189 0 270.5 -86.5t81.5 -284.5v-415q0 -104 16.5 -140.5t63.5 -36.5q35 0 76 23zM444 98q154 0 244 171v236q-63 7 -127 7q-138 0 -210 -56t-72 -163q0 -92 43.5 -143.5t121.5 -51.5z" />
    <glyph glyph-name="Abreve" unicode="&#x102;" horiz-adv-x="1409" 
d="M715 1569q-104 0 -176.5 56t-106.5 163q12 14 43 26.5t53 12.5q50 -133 189 -133q138 0 188 133q21 0 50.5 -12.5t41.5 -26.5q-34 -107 -106 -163t-176 -56zM858 80l57 8q52 8 74.5 25t22.5 54q0 41 -29 126l-47 141h-522l-49 -141q-32 -91 -32 -127q0 -38 28 -54.5
t98 -25.5l47 -6l-4 -80h-506l4 80l57 8q60 8 87.5 43.5t74.5 161.5l424 1149h143l394 -1149q43 -126 68.5 -159.5t86.5 -45.5l43 -8l4 -80h-528zM900 543l-219 653l-229 -653h448z" />
    <glyph glyph-name="abreve" unicode="&#x103;" horiz-adv-x="1064" 
d="M506 1231q-104 0 -176.5 56t-106.5 163q12 14 43 26.5t53 12.5q50 -133 189 -133q138 0 188 133q21 0 50.5 -12.5t41.5 -26.5q-34 -107 -106 -163t-176 -56zM1030 129l23 -70q-82 -79 -197 -79q-79 0 -117.5 41.5t-40.5 130.5q-54 -83 -134 -130t-169 -47q-141 0 -226 81
t-85 216q0 154 125.5 245t337.5 91q69 0 141 -11v124q0 133 -41 195.5t-129 62.5q-44 0 -81 -16t-61.5 -38.5t-47 -45t-49 -38.5t-56.5 -16q-40 0 -64 26t-24 67q0 19 6 43q78 51 179 79.5t202 28.5q189 0 270.5 -86.5t81.5 -284.5v-415q0 -104 16.5 -140.5t63.5 -36.5
q35 0 76 23zM444 98q154 0 244 171v236q-63 7 -127 7q-138 0 -210 -56t-72 -163q0 -92 43.5 -143.5t121.5 -51.5z" />
    <glyph glyph-name="Aogonek" unicode="&#x104;" horiz-adv-x="1409" 
d="M1382 0h-219q-134 0 -214.5 -57t-80.5 -152q0 -55 26.5 -85t74.5 -30q69 0 114 45q24 -28 31 -71q-78 -72 -199 -72q-89 0 -143.5 50t-54.5 130q0 73 30.5 129.5t73.5 91t86.5 63.5t74 62.5t30.5 71.5q0 29 -29 117l-47 141h-522l-49 -141q-32 -91 -32 -127
q0 -38 28 -54.5t98 -25.5l47 -6l-4 -80h-506l4 80l57 8q60 8 87.5 43.5t74.5 161.5l424 1149h143l394 -1149q43 -126 68.5 -159.5t86.5 -45.5l43 -8zM900 543l-219 653l-229 -653h448z" />
    <glyph glyph-name="aogonek" unicode="&#x105;" horiz-adv-x="1064" 
d="M1034 -279q24 -28 31 -71q-78 -72 -199 -72q-89 0 -143.5 50t-54.5 130q0 67 40.5 129t103.5 96q-111 20 -114 169q-54 -83 -134 -130t-169 -47q-141 0 -226 81t-85 216q0 154 125.5 245t337.5 91q69 0 141 -11v124q0 133 -41 195.5t-129 62.5q-44 0 -81 -16t-61.5 -38.5
t-47 -45t-49 -38.5t-56.5 -16q-40 0 -64 26t-24 67q0 19 6 43q78 51 179 79.5t202 28.5q189 0 270.5 -86.5t81.5 -284.5v-415q0 -104 16.5 -140.5t63.5 -36.5q35 0 76 23l25 -76q-108 -54 -172 -128t-64 -144q0 -47 27.5 -76t73.5 -29q69 0 114 45zM444 98q154 0 244 171
v236q-63 7 -127 7q-138 0 -210 -56t-72 -163q0 -92 43.5 -143.5t121.5 -51.5z" />
    <glyph glyph-name="Cacute" unicode="&#x106;" horiz-adv-x="1331" 
d="M582 1616l360 274q60 -57 94 -133l-395 -223q-38 32 -59 82zM778 1466q104 0 241 -23.5t206 -23.5q4 -60 4 -170t-4 -174l-113 -8q-17 149 -97 218t-237 69q-215 0 -339 -170.5t-124 -466.5q0 -287 122.5 -462t340.5 -175q167 0 250 74.5t100 240.5l109 -8v-313
q-209 -107 -459 -107q-321 0 -497.5 199t-176.5 551q0 170 53 312.5t144 237t214 147t263 52.5z" />
    <glyph glyph-name="cacute" unicode="&#x107;" horiz-adv-x="989" 
d="M373 1278l360 274q60 -57 94 -133l-395 -223q-38 32 -59 82zM549 -25q-210 0 -329.5 146.5t-119.5 400.5q0 127 38.5 231.5t105.5 173t155.5 105.5t190.5 37q180 0 319 -84q11 -26 11 -53q0 -43 -27.5 -68.5t-71.5 -25.5q-33 0 -57.5 13t-42.5 31t-37 36.5t-50.5 31.5
t-74.5 13q-123 0 -190.5 -115t-67.5 -326q0 -200 78 -311t211 -111q153 0 280 113l54 -96q-87 -75 -174.5 -108.5t-200.5 -33.5z" />
    <glyph glyph-name="Ccircumflex" unicode="&#x108;" horiz-adv-x="1331" 
d="M752 1709l-236 -155q-35 28 -57 80l299 250l299 -250q-19 -47 -62 -80zM1237 387v-313q-209 -107 -459 -107q-321 0 -497.5 199t-176.5 551q0 170 53 312.5t144 237t214 147t263 52.5q104 0 241 -23.5t206 -23.5q4 -60 4 -170t-4 -174l-113 -8q-17 149 -97 218t-237 69
q-215 0 -339 -170.5t-124 -466.5q0 -287 122.5 -462t340.5 -175q167 0 250 74.5t100 240.5z" />
    <glyph glyph-name="ccircumflex" unicode="&#x109;" horiz-adv-x="989" 
d="M553 1371l-236 -154q-36 28 -57 79l299 250l299 -250q-19 -46 -61 -79zM870 213l54 -96q-87 -75 -174.5 -108.5t-200.5 -33.5q-210 0 -329.5 146.5t-119.5 400.5q0 127 38.5 231.5t105.5 173t155.5 105.5t190.5 37q180 0 319 -84q11 -26 11 -53q0 -43 -27.5 -68.5
t-71.5 -25.5q-33 0 -57.5 13t-42.5 31t-37 36.5t-50.5 31.5t-74.5 13q-123 0 -190.5 -115t-67.5 -326q0 -200 78 -311t211 -111q153 0 280 113z" />
    <glyph glyph-name="Cdotaccent" unicode="&#x10a;" horiz-adv-x="1331" 
d="M633 1716q0 54 35.5 89.5t89.5 35.5t89.5 -35.5t35.5 -89.5t-35.5 -89.5t-89.5 -35.5t-89.5 35.5t-35.5 89.5zM778 1466q104 0 241 -23.5t206 -23.5q4 -60 4 -170t-4 -174l-113 -8q-17 149 -97 218t-237 69q-215 0 -339 -170.5t-124 -466.5q0 -287 122.5 -462t340.5 -175
q167 0 250 74.5t100 240.5l109 -8v-313q-209 -107 -459 -107q-321 0 -497.5 199t-176.5 551q0 170 53 312.5t144 237t214 147t263 52.5z" />
    <glyph glyph-name="cdotaccent" unicode="&#x10b;" horiz-adv-x="989" 
d="M434 1378q0 54 35.5 89.5t89.5 35.5t89.5 -35.5t35.5 -89.5t-35.5 -89.5t-89.5 -35.5t-89.5 35.5t-35.5 89.5zM549 -25q-210 0 -329.5 146.5t-119.5 400.5q0 127 38.5 231.5t105.5 173t155.5 105.5t190.5 37q180 0 319 -84q11 -26 11 -53q0 -43 -27.5 -68.5t-71.5 -25.5
q-33 0 -57.5 13t-42.5 31t-37 36.5t-50.5 31.5t-74.5 13q-123 0 -190.5 -115t-67.5 -326q0 -200 78 -311t211 -111q153 0 280 113l54 -96q-87 -75 -174.5 -108.5t-200.5 -33.5z" />
    <glyph glyph-name="Ccaron" unicode="&#x10c;" horiz-adv-x="1331" 
d="M758 1546l-289 250q20 48 61 80l233 -154l226 154q37 -29 58 -80zM1237 387v-313q-209 -107 -459 -107q-321 0 -497.5 199t-176.5 551q0 170 53 312.5t144 237t214 147t263 52.5q104 0 241 -23.5t206 -23.5q4 -60 4 -170t-4 -174l-113 -8q-17 149 -97 218t-237 69
q-215 0 -339 -170.5t-124 -466.5q0 -287 122.5 -462t340.5 -175q167 0 250 74.5t100 240.5z" />
    <glyph glyph-name="ccaron" unicode="&#x10d;" horiz-adv-x="989" 
d="M559 1208l-289 250q19 47 62 80l233 -153l226 153q35 -28 57 -80zM870 213l54 -96q-87 -75 -174.5 -108.5t-200.5 -33.5q-210 0 -329.5 146.5t-119.5 400.5q0 127 38.5 231.5t105.5 173t155.5 105.5t190.5 37q180 0 319 -84q11 -26 11 -53q0 -43 -27.5 -68.5t-71.5 -25.5
q-33 0 -57.5 13t-42.5 31t-37 36.5t-50.5 31.5t-74.5 13q-123 0 -190.5 -115t-67.5 -326q0 -200 78 -311t211 -111q153 0 280 113z" />
    <glyph glyph-name="Dcaron" unicode="&#x10e;" horiz-adv-x="1480" 
d="M737 1546l-288 250q20 48 61 80l233 -154l226 154q35 -28 57 -80zM647 1442q355 0 542 -186t187 -539q0 -322 -202.5 -523.5t-526.5 -201.5q-69 0 -216 4t-232 4h-101l4 80l78 14q49 9 66.5 28.5t17.5 65.5v1057q0 52 -20 69.5t-97 31.5l-45 8l-4 80h101q85 0 232 4
t216 4zM616 94q259 0 404 164.5t145 458.5q0 297 -137.5 459.5t-388.5 162.5q-111 0 -182 -12v-1128q0 -60 34 -82.5t125 -22.5z" />
    <glyph glyph-name="dcaron" unicode="&#x10f;" horiz-adv-x="1239" 
d="M1174 1538q79 0 149 -18q-25 -195 -96 -367q-58 0 -109 21q47 205 56 364zM1016 1518v-1303q0 -60 18 -84t72 -31l61 -8l-4 -82l-301 -30q-16 65 -21 172q-53 -84 -134 -130.5t-181 -46.5q-201 0 -312.5 143t-111.5 404q0 245 130.5 396t342.5 151q161 0 257 -102
q-5 180 -5 247v62q0 60 -12.5 79.5t-56.5 28.5l-62 13l-4 73zM575 98q164 0 252 166v573q-90 119 -223 119q-148 0 -224.5 -111t-76.5 -323q0 -203 71 -313.5t201 -110.5z" />
    <glyph glyph-name="Dcroat" unicode="&#x110;" horiz-adv-x="1480" 
d="M647 1442q355 0 542 -186t187 -539q0 -322 -202.5 -523.5t-526.5 -201.5q-69 0 -216 4t-232 4h-101l4 80l78 14q49 9 66.5 28.5t17.5 65.5v496h-149v104h149v457q0 52 -20 69.5t-97 31.5l-45 8l-4 80h101q85 0 232 4t216 4zM616 94q259 0 404 164.5t145 458.5
q0 297 -137.5 459.5t-388.5 162.5q-111 0 -182 -12v-539h293v-104h-293v-485q0 -60 34 -82.5t125 -22.5z" />
    <glyph glyph-name="dcroat" unicode="&#x111;" horiz-adv-x="1218" 
d="M1167 92l-4 -82l-301 -30q-16 65 -21 172q-53 -84 -134 -130.5t-181 -46.5q-201 0 -312.5 143t-111.5 404q0 245 130.5 396t342.5 151q161 0 257 -102q-5 157 -5 219h-286v96h286q0 62 -10 84.5t-49 30.5l-51 10l-4 63l303 48v-236h133v-96h-133v-971q0 -60 18 -84
t72 -31zM575 98q164 0 252 166v573q-90 119 -223 119q-148 0 -224.5 -111t-76.5 -323q0 -203 71 -313.5t201 -110.5z" />
    <glyph glyph-name="Emacron" unicode="&#x112;" horiz-adv-x="1271" 
d="M926 1642h-541v119h541v-119zM98 1434h1014q27 -187 27 -353l-123 -8q-17 159 -57.5 207.5t-157.5 48.5h-344v-545h284q54 0 73.5 21.5t33.5 95.5l8 45l107 4v-450l-107 4l-12 90q-6 44 -30.5 64t-72.5 20h-284v-483q0 -57 29.5 -74t127.5 -17h230q117 0 157.5 48.5
t57.5 207.5l123 -8q0 -165 -27 -352h-1057l4 80l78 14q49 9 66.5 28.5t17.5 65.5v1057q0 52 -20 69.5t-97 31.5l-45 8z" />
    <glyph glyph-name="emacron" unicode="&#x113;" horiz-adv-x="1069" 
d="M823 1305h-540v118h540v-118zM610 100q91 0 160.5 27t136.5 86l54 -96q-87 -76 -177 -109t-215 -33q-224 0 -346.5 145.5t-122.5 401.5q0 127 38.5 231.5t105.5 173t155.5 105.5t190.5 37q175 0 279 -112.5t104 -301.5q0 -70 -11.5 -92t-48.5 -22h-612v-19
q0 -209 85.5 -315.5t223.5 -106.5zM559 963q-104 0 -168.5 -83t-82.5 -237h421q32 0 43.5 15t11.5 55q0 112 -62.5 181t-162.5 69z" />
    <glyph glyph-name="Ebreve" unicode="&#x114;" horiz-adv-x="1271" 
d="M469 1827q50 -133 188 -133q139 0 189 133q21 0 50.5 -12.5t41.5 -26.5q-34 -107 -106.5 -163t-176.5 -56t-176 56t-106 163q12 14 43 26.5t53 12.5zM98 1434h1014q27 -187 27 -353l-123 -8q-17 159 -57.5 207.5t-157.5 48.5h-344v-545h284q54 0 73.5 21.5t33.5 95.5
l8 45l107 4v-450l-107 4l-12 90q-6 44 -30.5 64t-72.5 20h-284v-483q0 -57 29.5 -74t127.5 -17h230q117 0 157.5 48.5t57.5 207.5l123 -8q0 -165 -27 -352h-1057l4 80l78 14q49 9 66.5 28.5t17.5 65.5v1057q0 52 -20 69.5t-97 31.5l-45 8z" />
    <glyph glyph-name="ebreve" unicode="&#x115;" horiz-adv-x="1069" 
d="M553 1231q-104 0 -176.5 56t-106.5 163q12 14 43.5 26.5t53.5 12.5q50 -133 188 -133t188 133q21 0 51 -12.5t42 -26.5q-34 -107 -106.5 -163t-176.5 -56zM610 100q91 0 160.5 27t136.5 86l54 -96q-87 -76 -177 -109t-215 -33q-224 0 -346.5 145.5t-122.5 401.5
q0 127 38.5 231.5t105.5 173t155.5 105.5t190.5 37q175 0 279 -112.5t104 -301.5q0 -70 -11.5 -92t-48.5 -22h-612v-19q0 -209 85.5 -315.5t223.5 -106.5zM559 963q-104 0 -168.5 -83t-82.5 -237h421q32 0 43.5 15t11.5 55q0 112 -62.5 181t-162.5 69z" />
    <glyph glyph-name="Edotaccent" unicode="&#x116;" horiz-adv-x="1271" 
d="M530 1716q0 54 35.5 89.5t89.5 35.5t89.5 -35.5t35.5 -89.5t-35.5 -89.5t-89.5 -35.5t-89.5 35.5t-35.5 89.5zM98 1434h1014q27 -187 27 -353l-123 -8q-17 159 -57.5 207.5t-157.5 48.5h-344v-545h284q54 0 73.5 21.5t33.5 95.5l8 45l107 4v-450l-107 4l-12 90
q-6 44 -30.5 64t-72.5 20h-284v-483q0 -57 29.5 -74t127.5 -17h230q117 0 157.5 48.5t57.5 207.5l123 -8q0 -165 -27 -352h-1057l4 80l78 14q49 9 66.5 28.5t17.5 65.5v1057q0 52 -20 69.5t-97 31.5l-45 8z" />
    <glyph glyph-name="edotaccent" unicode="&#x117;" horiz-adv-x="1069" 
d="M553 1253q-54 0 -89.5 35.5t-35.5 89.5t35.5 89.5t89.5 35.5t89.5 -35.5t35.5 -89.5t-35.5 -89.5t-89.5 -35.5zM610 100q91 0 160.5 27t136.5 86l54 -96q-87 -76 -177 -109t-215 -33q-224 0 -346.5 145.5t-122.5 401.5q0 127 38.5 231.5t105.5 173t155.5 105.5t190.5 37
q175 0 279 -112.5t104 -301.5q0 -70 -11.5 -92t-48.5 -22h-612v-19q0 -209 85.5 -315.5t223.5 -106.5zM559 963q-104 0 -168.5 -83t-82.5 -237h421q32 0 43.5 15t11.5 55q0 112 -62.5 181t-162.5 69z" />
    <glyph glyph-name="Eogonek" unicode="&#x118;" horiz-adv-x="1271" 
d="M1155 0q-98 0 -176 -67t-78 -152q0 -47 27 -76t73 -29q31 0 63 12.5t52 32.5q24 -28 31 -71q-78 -72 -199 -72q-89 0 -143.5 50t-54.5 130q0 76 50 145.5t123 96.5h-825l4 80l78 14q49 9 66.5 28.5t17.5 65.5v1057q0 52 -20 69.5t-97 31.5l-45 8l-4 80h1014
q27 -187 27 -353l-123 -8q-17 159 -57.5 207.5t-157.5 48.5h-344v-545h284q54 0 73.5 21.5t33.5 95.5l8 45l107 4v-450l-107 4l-12 90q-6 44 -30.5 64t-72.5 20h-284v-483q0 -57 29.5 -74t127.5 -17h230q117 0 157.5 48.5t57.5 207.5l123 -8q0 -165 -27 -352z" />
    <glyph glyph-name="eogonek" unicode="&#x119;" horiz-adv-x="1069" 
d="M944 -279q24 -28 31 -71q-78 -72 -199 -72q-89 0 -143.5 50t-54.5 130q0 68 34.5 131.5t89.5 96.5q-64 -11 -133 -11q-224 0 -346.5 145.5t-122.5 401.5q0 127 38.5 231.5t105.5 173t155.5 105.5t190.5 37q175 0 279 -112.5t104 -301.5q0 -70 -11.5 -92t-48.5 -22h-612
v-19q0 -209 85.5 -315.5t223.5 -106.5q91 0 160.5 27t136.5 86l58 -102q-110 -70 -173 -158t-63 -168q0 -51 27 -80t73 -29q31 0 63 12.5t52 32.5zM559 963q-104 0 -168.5 -83t-82.5 -237h421q32 0 43.5 15t11.5 55q0 112 -62.5 181t-162.5 69z" />
    <glyph glyph-name="Ecaron" unicode="&#x11a;" horiz-adv-x="1271" 
d="M655 1546l-288 250q20 48 61 80l233 -154l226 154q35 -28 57 -80zM1059 360l123 -8q0 -165 -27 -352h-1057l4 80l78 14q49 9 66.5 28.5t17.5 65.5v1057q0 52 -20 69.5t-97 31.5l-45 8l-4 80h1014q27 -187 27 -353l-123 -8q-17 159 -57.5 207.5t-157.5 48.5h-344v-545h284
q54 0 73.5 21.5t33.5 95.5l8 45l107 4v-450l-107 4l-12 90q-6 44 -30.5 64t-72.5 20h-284v-483q0 -57 29.5 -74t127.5 -17h230q117 0 157.5 48.5t57.5 207.5z" />
    <glyph glyph-name="ecaron" unicode="&#x11b;" horiz-adv-x="1069" 
d="M553 1208l-289 250q19 47 62 80l233 -153l225 153q37 -29 58 -80zM610 100q91 0 160.5 27t136.5 86l54 -96q-87 -76 -177 -109t-215 -33q-224 0 -346.5 145.5t-122.5 401.5q0 127 38.5 231.5t105.5 173t155.5 105.5t190.5 37q175 0 279 -112.5t104 -301.5
q0 -70 -11.5 -92t-48.5 -22h-612v-19q0 -209 85.5 -315.5t223.5 -106.5zM559 963q-104 0 -168.5 -83t-82.5 -237h421q32 0 43.5 15t11.5 55q0 112 -62.5 181t-162.5 69z" />
    <glyph glyph-name="Gcircumflex" unicode="&#x11c;" horiz-adv-x="1476" 
d="M762 1709l-236 -155q-35 28 -57 80l299 250l299 -250q-20 -48 -61 -80zM1430 696l-5 -80l-69 -12q-49 -9 -66.5 -29.5t-17.5 -66.5v-455q-222 -86 -494 -86q-321 0 -497.5 199t-176.5 551q0 171 53 313t145.5 236.5t217.5 147t268 52.5q111 0 255 -23.5t212 -23.5
q5 -75 5 -170q0 -94 -5 -174l-112 -8q-17 149 -103.5 218t-251.5 69q-222 0 -347.5 -170t-125.5 -467q0 -285 122.5 -459t340.5 -174q177 0 305 67v357q0 52 -19.5 69t-96.5 31l-45 8l-4 80h512z" />
    <glyph glyph-name="gcircumflex" unicode="&#x11d;" horiz-adv-x="1107" 
d="M551 1371l-236 -154q-36 28 -57 79l299 250l299 -250q-19 -46 -61 -79zM1077 983q0 -78 -92 -78q-50 0 -172 35q53 -32 85 -95.5t32 -139.5q0 -154 -115.5 -249.5t-288.5 -95.5q-93 0 -178 32q-49 -39 -49 -91q0 -45 36.5 -69.5t121.5 -36.5l214 -31q202 -29 289 -89.5
t87 -174.5q0 -155 -140 -253t-364 -98q-221 0 -348 76t-127 207q0 87 63.5 152.5t173.5 94.5q-67 17 -110 63t-43 104q0 117 131 177q-77 47 -119.5 122.5t-42.5 169.5q0 111 55.5 192.5t146.5 121.5t203 40q123 0 216 -45q125 1 321 27q14 -35 14 -68zM526 459
q97 0 157 70.5t60 185.5q0 123 -56.5 189.5t-160.5 66.5t-160.5 -66.5t-56.5 -189.5q0 -115 60 -185.5t157 -70.5zM864 -139q0 63 -38 98t-134 58t-292 44q-73 -31 -112.5 -84.5t-39.5 -121.5q0 -98 80.5 -156.5t214.5 -58.5q143 0 232 61.5t89 159.5z" />
    <glyph glyph-name="Gbreve" unicode="&#x11e;" horiz-adv-x="1476" 
d="M768 1569q-104 0 -176.5 56t-106.5 163q12 14 43.5 26.5t53.5 12.5q50 -133 188 -133t188 133q21 0 51 -12.5t42 -26.5q-34 -107 -106.5 -163t-176.5 -56zM1430 696l-5 -80l-69 -12q-49 -9 -66.5 -29.5t-17.5 -66.5v-455q-222 -86 -494 -86q-321 0 -497.5 199t-176.5 551
q0 171 53 313t145.5 236.5t217.5 147t268 52.5q111 0 255 -23.5t212 -23.5q5 -75 5 -170q0 -94 -5 -174l-112 -8q-17 149 -103.5 218t-251.5 69q-222 0 -347.5 -170t-125.5 -467q0 -285 122.5 -459t340.5 -174q177 0 305 67v357q0 52 -19.5 69t-96.5 31l-45 8l-4 80h512z
" />
    <glyph glyph-name="gbreve" unicode="&#x11f;" horiz-adv-x="1107" 
d="M557 1231q-104 0 -176.5 56t-106.5 163q12 14 43.5 26.5t53.5 12.5q50 -133 188 -133q139 0 189 133q21 0 50.5 -12.5t41.5 -26.5q-34 -107 -106.5 -163t-176.5 -56zM1077 983q0 -78 -92 -78q-50 0 -172 35q53 -32 85 -95.5t32 -139.5q0 -154 -115.5 -249.5t-288.5 -95.5
q-93 0 -178 32q-49 -39 -49 -91q0 -45 36.5 -69.5t121.5 -36.5l214 -31q202 -29 289 -89.5t87 -174.5q0 -155 -140 -253t-364 -98q-221 0 -348 76t-127 207q0 87 63.5 152.5t173.5 94.5q-67 17 -110 63t-43 104q0 117 131 177q-77 47 -119.5 122.5t-42.5 169.5
q0 111 55.5 192.5t146.5 121.5t203 40q123 0 216 -45q125 1 321 27q14 -35 14 -68zM526 459q97 0 157 70.5t60 185.5q0 123 -56.5 189.5t-160.5 66.5t-160.5 -66.5t-56.5 -189.5q0 -115 60 -185.5t157 -70.5zM864 -139q0 63 -38 98t-134 58t-292 44q-73 -31 -112.5 -84.5
t-39.5 -121.5q0 -98 80.5 -156.5t214.5 -58.5q143 0 232 61.5t89 159.5z" />
    <glyph glyph-name="Gdotaccent" unicode="&#x120;" horiz-adv-x="1476" 
d="M768 1591q-54 0 -89.5 35.5t-35.5 89.5t35.5 89.5t89.5 35.5t89.5 -35.5t35.5 -89.5t-35.5 -89.5t-89.5 -35.5zM1430 696l-5 -80l-69 -12q-49 -9 -66.5 -29.5t-17.5 -66.5v-455q-222 -86 -494 -86q-321 0 -497.5 199t-176.5 551q0 171 53 313t145.5 236.5t217.5 147
t268 52.5q111 0 255 -23.5t212 -23.5q5 -75 5 -170q0 -94 -5 -174l-112 -8q-17 149 -103.5 218t-251.5 69q-222 0 -347.5 -170t-125.5 -467q0 -285 122.5 -459t340.5 -174q177 0 305 67v357q0 52 -19.5 69t-96.5 31l-45 8l-4 80h512z" />
    <glyph glyph-name="gdotaccent" unicode="&#x121;" horiz-adv-x="1107" 
d="M557 1253q-54 0 -89.5 35.5t-35.5 89.5t35.5 89.5t89.5 35.5t89.5 -35.5t35.5 -89.5t-35.5 -89.5t-89.5 -35.5zM1077 983q0 -78 -92 -78q-50 0 -172 35q53 -32 85 -95.5t32 -139.5q0 -154 -115.5 -249.5t-288.5 -95.5q-93 0 -178 32q-49 -39 -49 -91q0 -45 36.5 -69.5
t121.5 -36.5l214 -31q202 -29 289 -89.5t87 -174.5q0 -155 -140 -253t-364 -98q-221 0 -348 76t-127 207q0 87 63.5 152.5t173.5 94.5q-67 17 -110 63t-43 104q0 117 131 177q-77 47 -119.5 122.5t-42.5 169.5q0 111 55.5 192.5t146.5 121.5t203 40q123 0 216 -45
q125 1 321 27q14 -35 14 -68zM526 459q97 0 157 70.5t60 185.5q0 123 -56.5 189.5t-160.5 66.5t-160.5 -66.5t-56.5 -189.5q0 -115 60 -185.5t157 -70.5zM864 -139q0 63 -38 98t-134 58t-292 44q-73 -31 -112.5 -84.5t-39.5 -121.5q0 -98 80.5 -156.5t214.5 -58.5
q143 0 232 61.5t89 159.5z" />
    <glyph glyph-name="Gcommaaccent" unicode="&#x122;" horiz-adv-x="1476" 
d="M1430 696l-5 -80l-69 -12q-49 -9 -66.5 -29.5t-17.5 -66.5v-455q-222 -86 -494 -86q-321 0 -497.5 199t-176.5 551q0 171 53 313t145.5 236.5t217.5 147t268 52.5q111 0 255 -23.5t212 -23.5q5 -75 5 -170q0 -94 -5 -174l-112 -8q-17 149 -103.5 218t-251.5 69
q-222 0 -347.5 -170t-125.5 -467q0 -285 122.5 -459t340.5 -174q177 0 305 67v357q0 52 -19.5 69t-96.5 31l-45 8l-4 80h512zM780 -82q105 0 105 -135q0 -97 -51.5 -161.5t-145.5 -86.5q-23 13 -29 45q47 20 69 50.5t25 79.5q-36 8 -57.5 36t-21.5 68q0 46 29.5 75t76.5 29z
" />
    <glyph glyph-name="gcommaaccent" unicode="&#x123;" horiz-adv-x="1107" 
d="M557 1208q-104 0 -104 135q0 97 51 161.5t145 86.5q23 -13 29 -45q-47 -20 -69 -50.5t-25 -79.5q37 -8 58.5 -35.5t21.5 -67.5q0 -46 -30 -75.5t-77 -29.5zM1077 983q0 -78 -92 -78q-50 0 -172 35q53 -32 85 -95.5t32 -139.5q0 -154 -115.5 -249.5t-288.5 -95.5
q-93 0 -178 32q-49 -39 -49 -91q0 -45 36.5 -69.5t121.5 -36.5l214 -31q202 -29 289 -89.5t87 -174.5q0 -155 -140 -253t-364 -98q-221 0 -348 76t-127 207q0 87 63.5 152.5t173.5 94.5q-67 17 -110 63t-43 104q0 117 131 177q-77 47 -119.5 122.5t-42.5 169.5
q0 111 55.5 192.5t146.5 121.5t203 40q123 0 216 -45q125 1 321 27q14 -35 14 -68zM526 459q97 0 157 70.5t60 185.5q0 123 -56.5 189.5t-160.5 66.5t-160.5 -66.5t-56.5 -189.5q0 -115 60 -185.5t157 -70.5zM864 -139q0 63 -38 98t-134 58t-292 44q-73 -31 -112.5 -84.5
t-39.5 -121.5q0 -98 80.5 -156.5t214.5 -58.5q143 0 232 61.5t89 159.5z" />
    <glyph glyph-name="Hcircumflex" unicode="&#x124;" horiz-adv-x="1550" 
d="M775 1709l-236 -155q-37 29 -58 80l299 250l299 -250q-20 -48 -61 -80zM1284 1245v-1057q0 -52 20 -68.5t97 -29.5l61 -10l-4 -80h-532l4 80l78 14q49 9 66.5 28.5t17.5 65.5v492h-635v-492q0 -52 19.5 -68.5t96.5 -29.5l62 -10l-4 -80h-533l4 80l78 14q49 9 66.5 28.5
t17.5 65.5v1057q0 52 -20 69.5t-97 31.5l-45 8l-4 80h537l-4 -80l-90 -13q-48 -7 -66 -28t-18 -68v-454h635v454q0 53 -20.5 70.5t-96.5 30.5l-49 8l4 80h532l-4 -80l-90 -13q-48 -7 -66 -28t-18 -68z" />
    <glyph glyph-name="hcircumflex" unicode="&#x125;" horiz-adv-x="1228" 
d="M273 1709l-236 -155q-35 28 -57 80l299 250l299 -250q-19 -47 -62 -80zM1206 78l-4 -78h-487l4 78l57 12q46 10 60 27.5t14 66.5v521q0 241 -195 241q-170 0 -262 -167v-595q0 -57 17.5 -72.5t89.5 -25.5l61 -8l-4 -78h-487l4 78l57 12q46 10 60 27.5t14 66.5v1092
q0 59 -13 79t-57 29l-61 13l-4 73l323 37v-360q0 -155 -4 -251q54 83 135.5 128t180.5 45q164 0 248.5 -90t84.5 -262v-533q0 -57 17.5 -72.5t89.5 -25.5z" />
    <glyph glyph-name="Hbar" unicode="&#x126;" horiz-adv-x="1550" 
d="M1284 1030v-842q0 -52 20 -68.5t97 -29.5l61 -10l-4 -80h-532l4 80l78 14q49 9 66.5 28.5t17.5 65.5v492h-635v-492q0 -52 19.5 -68.5t96.5 -29.5l62 -10l-4 -80h-533l4 80l78 14q49 9 66.5 28.5t17.5 65.5v842h-164v105h164v110q0 52 -20 69.5t-97 31.5l-45 8l-4 80h537
l-4 -80l-90 -13q-48 -7 -66 -28t-18 -68v-110h635v110q0 53 -20.5 70.5t-96.5 30.5l-49 8l4 80h532l-4 -80l-90 -13q-48 -7 -66 -28t-18 -68v-110h164v-105h-164zM1092 791v239h-635v-239h635z" />
    <glyph glyph-name="hbar" unicode="&#x127;" horiz-adv-x="1228" 
d="M1206 78l-4 -78h-487l4 78l57 12q46 10 60 27.5t14 66.5v521q0 241 -195 241q-170 0 -262 -167v-595q0 -57 17.5 -72.5t89.5 -25.5l61 -8l-4 -78h-487l4 78l57 12q46 10 60 27.5t14 66.5v1002h-133v96h133q0 61 -10 84t-50 31l-51 10l-4 63l303 48v-236h287v-96h-287v-39
q0 -155 -4 -251q54 83 135.5 128t180.5 45q164 0 248.5 -90t84.5 -262v-533q0 -57 17.5 -72.5t89.5 -25.5z" />
    <glyph glyph-name="Itilde" unicode="&#x128;" horiz-adv-x="722" 
d="M496 1737q80 0 135 67l31 -75q-26 -51 -80.5 -85t-108.5 -34q-65 0 -135 30.5t-113 30.5q-80 0 -135 -67l-31 75q26 51 80.5 85t108.5 34q65 0 135 -30.5t113 -30.5zM631 1354l-90 -13q-48 -7 -66 -28t-18 -68v-1057q0 -52 19.5 -68.5t96.5 -29.5l62 -10l-4 -80h-533
l4 80l78 14q49 9 66.5 28.5t17.5 65.5v1057q0 52 -20 69.5t-97 31.5l-45 8l-4 80h537z" />
    <glyph glyph-name="itilde" unicode="&#x129;" horiz-adv-x="628" 
d="M438 1399q80 0 135 67l31 -75q-26 -51 -80 -85t-108 -34q-65 0 -135 30.5t-113 30.5q-80 0 -135 -67l-31 75q26 51 80 85t108 34q65 0 135 -30.5t113 -30.5zM418 1069v-885q0 -57 17 -72.5t89 -25.5l62 -8l-4 -78h-488l4 78l58 12q46 10 59.5 27.5t13.5 66.5v643
q0 60 -12.5 80t-56.5 29l-62 12l-4 74z" />
    <glyph glyph-name="Imacron" unicode="&#x12a;" horiz-adv-x="722" 
d="M637 1642h-541v119h541v-119zM631 1354l-90 -13q-48 -7 -66 -28t-18 -68v-1057q0 -52 19.5 -68.5t96.5 -29.5l62 -10l-4 -80h-533l4 80l78 14q49 9 66.5 28.5t17.5 65.5v1057q0 52 -20 69.5t-97 31.5l-45 8l-4 80h537z" />
    <glyph glyph-name="imacron" unicode="&#x12b;" horiz-adv-x="628" 
d="M573 1305h-540v118h540v-118zM418 1069v-885q0 -57 17 -72.5t89 -25.5l62 -8l-4 -78h-488l4 78l58 12q46 10 59.5 27.5t13.5 66.5v643q0 60 -12.5 80t-56.5 29l-62 12l-4 74z" />
    <glyph glyph-name="Ibreve" unicode="&#x12c;" horiz-adv-x="722" 
d="M174 1827q50 -133 188 -133q139 0 189 133q21 0 50.5 -12.5t41.5 -26.5q-34 -107 -106.5 -163t-176.5 -56t-176 56t-106 163q12 14 43 26.5t53 12.5zM631 1354l-90 -13q-48 -7 -66 -28t-18 -68v-1057q0 -52 19.5 -68.5t96.5 -29.5l62 -10l-4 -80h-533l4 80l78 14
q49 9 66.5 28.5t17.5 65.5v1057q0 52 -20 69.5t-97 31.5l-45 8l-4 80h537z" />
    <glyph glyph-name="ibreve" unicode="&#x12d;" horiz-adv-x="628" 
d="M117 1489q50 -133 188 -133q139 0 189 133q21 0 50.5 -12.5t41.5 -26.5q-34 -107 -106.5 -163t-176.5 -56t-176.5 56t-106.5 163q12 14 43.5 26.5t53.5 12.5zM418 1069v-885q0 -57 17 -72.5t89 -25.5l62 -8l-4 -78h-488l4 78l58 12q46 10 59.5 27.5t13.5 66.5v643
q0 60 -12.5 80t-56.5 29l-62 12l-4 74z" />
    <glyph glyph-name="Iogonek" unicode="&#x12e;" horiz-adv-x="722" 
d="M457 1245v-1057q0 -52 19.5 -68.5t96.5 -29.5l62 -10l-4 -80q-98 0 -176 -67t-78 -152q0 -47 27 -76t73 -29q31 0 63 12.5t52 32.5q24 -28 31 -71q-78 -72 -199 -72q-89 0 -144 50t-55 130q0 76 50.5 145.5t123.5 96.5h-301l4 80l78 14q49 9 66.5 28.5t17.5 65.5v1057
q0 52 -20 69.5t-97 31.5l-45 8l-4 80h537l-4 -80l-90 -13q-48 -7 -66 -28t-18 -68z" />
    <glyph glyph-name="iogonek" unicode="&#x12f;" horiz-adv-x="628" 
d="M303 1251q-55 0 -91 35.5t-36 91.5t36 91.5t91 35.5t91 -35.5t36 -91.5t-36 -91.5t-91 -35.5zM586 78l-4 -78q-98 0 -176 -67t-78 -152q0 -47 27 -76t73 -29q31 0 63 12.5t52 32.5q23 -27 30 -71q-78 -72 -198 -72q-89 0 -144 50t-55 130q0 76 50 145.5t123 96.5h-255
l4 78l58 12q46 10 59.5 27.5t13.5 66.5v643q0 60 -12.5 80t-56.5 29l-62 12l-4 74l324 47v-885q0 -57 17 -72.5t89 -25.5z" />
    <glyph glyph-name="Idotaccent" unicode="&#x130;" horiz-adv-x="722" 
d="M236 1716q0 54 35 89.5t89 35.5t89.5 -35.5t35.5 -89.5t-35.5 -89.5t-89.5 -35.5t-89 35.5t-35 89.5zM631 1354l-90 -13q-48 -7 -66 -28t-18 -68v-1057q0 -52 19.5 -68.5t96.5 -29.5l62 -10l-4 -80h-533l4 80l78 14q49 9 66.5 28.5t17.5 65.5v1057q0 52 -20 69.5
t-97 31.5l-45 8l-4 80h537z" />
    <glyph glyph-name="dotlessi" unicode="&#x131;" horiz-adv-x="628" 
d="M418 1069v-885q0 -57 17 -72.5t89 -25.5l62 -8l-4 -78h-488l4 78l58 12q46 10 59.5 27.5t13.5 66.5v643q0 60 -12.5 80t-56.5 29l-62 12l-4 74z" />
    <glyph glyph-name="IJ" unicode="&#x132;" horiz-adv-x="1415" 
d="M631 1354l-90 -13q-48 -7 -66 -28t-18 -68v-1057q0 -52 19.5 -68.5t96.5 -29.5l62 -10l-4 -80h-533l4 80l78 14q49 9 66.5 28.5t17.5 65.5v1057q0 52 -20 69.5t-97 31.5l-45 8l-4 80h537zM1165 1245v-919q0 -222 -38 -365.5t-121 -232.5q-98 -106 -263 -134
q-36 28 -36 91q0 67 65 90q13 5 64 15.5t77 27.5q37 25 47.5 110t10.5 365v952q0 52 -20 69.5t-95 31.5l-45 8l-4 80h536l-4 -80l-90 -13q-48 -7 -66 -28t-18 -68z" />
    <glyph glyph-name="ij" unicode="&#x133;" horiz-adv-x="1198" 
d="M176 1378q0 56 36 91.5t91 35.5t91 -35.5t36 -91.5t-36 -91.5t-91 -35.5t-91 35.5t-36 91.5zM784 1378q0 56 36 91.5t91 35.5t91 -35.5t36 -91.5t-36 -91.5t-91 -35.5t-91 35.5t-36 91.5zM418 1069v-885q0 -57 17 -72.5t89 -25.5l62 -8l-4 -78h-488l4 78l58 12
q46 10 59.5 27.5t13.5 66.5v643q0 60 -12.5 80t-56.5 29l-62 12l-4 74zM1026 1069v-768q0 -449 -158 -618q-99 -107 -260 -134q-37 29 -37 91q0 63 66 86q13 5 64 15.5t77 27.5q37 25 47.5 111.5t10.5 367.5v579q0 59 -13 80t-55 29l-61 12l-5 74z" />
    <glyph glyph-name="Jcircumflex" unicode="&#x134;" horiz-adv-x="692" 
d="M340 1709l-236 -155q-35 28 -57 80l299 250l299 -250q-20 -48 -61 -80zM84 1434h537l-5 -80l-90 -13q-48 -7 -66 -28t-18 -68v-919q0 -222 -38 -365.5t-121 -232.5q-98 -106 -263 -134q-36 28 -36 91q0 67 65 90q13 5 64 15.5t77 27.5q37 25 47.5 110t10.5 365v952
q0 52 -20 69.5t-95 31.5l-45 8z" />
    <glyph glyph-name="jcircumflex" unicode="&#x135;" horiz-adv-x="569" 
d="M283 1546l299 -250q-19 -45 -62 -79l-243 154l-236 -154q-36 28 -57 79zM74 1022l323 47v-768q0 -450 -157 -618q-99 -107 -260 -134q-37 29 -37 91q0 63 65 86q13 5 64.5 15.5t77.5 27.5q37 25 47 111t10 368v579q0 59 -13 80t-55 29l-61 12z" />
    <glyph glyph-name="Kcommaaccent" unicode="&#x136;" horiz-adv-x="1304" 
d="M457 1245v-1057q0 -52 19.5 -68.5t96.5 -29.5l62 -10l-4 -80h-533l4 80l78 14q49 9 66.5 28.5t17.5 65.5v1057q0 52 -20 69.5t-97 31.5l-45 8l-4 80h537l-4 -80l-90 -13q-48 -7 -66 -28t-18 -68zM772 659l324 -434q95 -127 213 -145l-4 -78q-54 -14 -107 -14
q-81 0 -128.5 17t-94 64t-121.5 154l-186 264q-70 99 -108 146t-95 106l409 455q71 79 71 112q0 35 -71 44l-30 4l-4 80h438l-4 -80q-90 -24 -136 -57t-153 -152l-318 -353q41 -46 105 -133zM760 -82q104 0 104 -135q0 -97 -51 -161.5t-145 -86.5q-23 13 -29 45
q47 20 69 50.5t25 79.5q-36 8 -58 36t-22 68q0 46 30 75t77 29z" />
    <glyph glyph-name="kcommaaccent" unicode="&#x137;" horiz-adv-x="1105" 
d="M393 1518v-1334q0 -57 17.5 -73.5t89.5 -26.5l47 -6l-4 -78h-473l4 78l57 12q46 10 60 27.5t14 66.5v1092q0 59 -13 79t-57 29l-61 13l-4 73zM688 510l191 -260q65 -89 115.5 -129.5t103.5 -46.5l-4 -68q-56 -18 -115 -18q-88 0 -140 36.5t-143 161.5l-153 213
q-74 103 -142 176l257 254q65 65 65 96q0 29 -49 36l-41 6l-4 77h415l-4 -77l-26 -6q-65 -15 -101 -37t-98 -84l-218 -218q31 -31 91 -112zM672 -82q104 0 104 -135q0 -97 -51 -161.5t-145 -86.5q-23 13 -29 45q46 19 68 49.5t25 80.5q-36 8 -57.5 36t-21.5 68q0 46 30 75
t77 29z" />
    <glyph glyph-name="Lacute" unicode="&#x139;" horiz-adv-x="1214" 
d="M215 1616l360 274q62 -58 95 -133l-396 -223q-38 32 -59 82zM631 1354l-90 -13q-48 -7 -66 -28t-18 -68v-1050q0 -57 29.5 -74t127.5 -17h205q111 0 154 66.5t61 235.5l123 -9q0 -210 -27 -397h-1032l4 80l78 14q49 9 66.5 28.5t17.5 65.5v1057q0 52 -20 69.5t-97 31.5
l-45 8l-4 80h537z" />
    <glyph glyph-name="lacute" unicode="&#x13a;" horiz-adv-x="612" 
d="M63 1683l402 207q49 -63 70 -147l-429 -150q-31 36 -43 90zM399 1518v-1334q0 -57 17.5 -72.5t89.5 -25.5l61 -8l-4 -78h-487l4 78l57 12q46 10 60 27.5t14 66.5v1092q0 59 -13 79t-57 29l-61 13l-4 73z" />
    <glyph glyph-name="Lcommaaccent" unicode="&#x13b;" horiz-adv-x="1214" 
d="M1034 406l123 -9q0 -210 -27 -397h-1032l4 80l78 14q49 9 66.5 28.5t17.5 65.5v1057q0 52 -20 69.5t-97 31.5l-45 8l-4 80h537l-4 -80l-90 -13q-48 -7 -66 -28t-18 -68v-1050q0 -57 29.5 -74t127.5 -17h205q111 0 154 66.5t61 235.5zM657 -82q105 0 105 -135
q0 -97 -51.5 -161.5t-145.5 -86.5q-21 12 -28 45q46 19 68 49.5t25 80.5q-36 8 -57.5 36t-21.5 68q0 46 29.5 75t76.5 29z" />
    <glyph glyph-name="lcommaaccent" unicode="&#x13c;" horiz-adv-x="612" 
d="M567 78l-4 -78h-487l4 78l57 12q46 10 60 27.5t14 66.5v1092q0 59 -13 79t-57 29l-61 13l-4 73l323 48v-1334q0 -57 17.5 -72.5t89.5 -25.5zM307 -82q105 0 105 -135q0 -97 -51.5 -161.5t-145.5 -86.5q-23 13 -29 45q47 20 69 50.5t25 79.5q-36 8 -57.5 36t-21.5 68
q0 46 29.5 75t76.5 29z" />
    <glyph glyph-name="Lcaron" unicode="&#x13d;" horiz-adv-x="1214" 
d="M772 1538q80 0 150 -18q-24 -191 -97 -367q-57 0 -108 21q45 199 55 364zM631 1354l-90 -13q-48 -7 -66 -28t-18 -68v-1050q0 -57 29.5 -74t127.5 -17h205q111 0 154 66.5t61 235.5l123 -9q0 -210 -27 -397h-1032l4 80l78 14q49 9 66.5 28.5t17.5 65.5v1057
q0 52 -20 69.5t-97 31.5l-45 8l-4 80h537z" />
    <glyph glyph-name="lcaron" unicode="&#x13e;" horiz-adv-x="632" 
d="M557 1538q80 0 150 -18q-24 -191 -97 -367q-57 0 -108 21q45 199 55 364zM399 1518v-1334q0 -57 17.5 -72.5t89.5 -25.5l61 -8l-4 -78h-487l4 78l57 12q46 10 60 27.5t14 66.5v1092q0 59 -13 79t-57 29l-61 13l-4 73z" />
    <glyph glyph-name="Ldot" unicode="&#x13f;" horiz-adv-x="1247" 
d="M631 1354l-90 -13q-48 -7 -66 -28t-18 -68v-1050q0 -57 29.5 -74t127.5 -17h205q111 0 154 66.5t61 235.5l123 -9q0 -210 -27 -397h-1032l4 80l78 14q49 9 66.5 28.5t17.5 65.5v1057q0 52 -20 69.5t-97 31.5l-45 8l-4 80h537zM838 797q0 54 35.5 89.5t89.5 35.5t89 -35.5
t35 -89.5t-35 -89.5t-89 -35.5t-89.5 35.5t-35.5 89.5z" />
    <glyph glyph-name="ldot" unicode="&#x140;" horiz-adv-x="768" 
d="M399 1518v-1334q0 -57 17.5 -72.5t89.5 -25.5l61 -8l-4 -78h-487l4 78l57 12q46 10 60 27.5t14 66.5v1092q0 59 -13 79t-57 29l-61 13l-4 73zM563 690q0 54 35.5 89.5t89.5 35.5t89.5 -35.5t35.5 -89.5t-35.5 -89.5t-89.5 -35.5t-89.5 35.5t-35.5 89.5z" />
    <glyph glyph-name="Lslash" unicode="&#x141;" horiz-adv-x="1214" 
d="M1034 406l123 -9q0 -210 -27 -397h-1032l4 80l78 14q49 9 66.5 28.5t17.5 65.5v207q0 79 5 132l-154 -68v119l149 66v601q0 52 -20 69.5t-97 31.5l-45 8l-4 80h537l-4 -80l-90 -13q-48 -7 -66 -28t-18 -68v-395q0 -79 -5 -132l466 208v-119l-461 -205v-407
q0 -57 29.5 -74t127.5 -17h205q111 0 154 66.5t61 235.5z" />
    <glyph glyph-name="lslash" unicode="&#x142;" horiz-adv-x="622" 
d="M573 78l-4 -78h-487l4 78l57 12q46 10 60 27.5t14 66.5v340q0 79 5 132l-150 -66v110l145 65v511q0 60 -13 80t-57 28l-61 13l-4 73l324 48v-549q0 -79 -5 -132l170 76v-110l-165 -74v-545q0 -57 17 -72.5t89 -25.5z" />
    <glyph glyph-name="Nacute" unicode="&#x143;" horiz-adv-x="1546" 
d="M1077 1757l-395 -223q-38 32 -59 82l360 274q60 -57 94 -133zM1475 1434l-5 -80l-90 -13q-48 -7 -66 -28t-18 -68v-1245h-170l-567 899q-113 180 -165 311q7 -102 7 -225v-797q0 -52 20 -68.5t97 -29.5l62 -10l-5 -80h-477l4 80l78 14q49 9 66.5 28.5t17.5 65.5v1057
q0 52 -20 69.5t-97 31.5l-45 8l-4 80h344l567 -899q108 -171 156 -287q-6 99 -6 201v796q0 52 -20 69.5t-97 31.5l-45 8l-4 80h482z" />
    <glyph glyph-name="nacute" unicode="&#x144;" horiz-adv-x="1247" 
d="M930 1419l-395 -223q-39 34 -60 82l361 274q60 -57 94 -133zM1225 78l-4 -78h-488l4 78l58 12q46 10 59.5 27.5t13.5 66.5v521q0 241 -194 241q-170 0 -262 -167v-595q0 -57 17 -72.5t89 -25.5l62 -8l-5 -78h-487l4 78l58 12q46 10 59.5 27.5t13.5 66.5v643
q0 60 -12.5 80t-56.5 29l-62 12l-4 74l289 47q16 -59 21 -178q54 85 139 131.5t186 46.5q164 0 249 -90t85 -262v-533q0 -57 17 -72.5t89 -25.5z" />
    <glyph glyph-name="Ncommaaccent" unicode="&#x145;" horiz-adv-x="1546" 
d="M1475 1434l-5 -80l-90 -13q-48 -7 -66 -28t-18 -68v-1245h-170l-567 899q-113 180 -165 311q7 -102 7 -225v-797q0 -52 20 -68.5t97 -29.5l62 -10l-5 -80h-477l4 80l78 14q49 9 66.5 28.5t17.5 65.5v1057q0 52 -20 69.5t-97 31.5l-45 8l-4 80h344l567 -899
q108 -171 156 -287q-6 99 -6 201v796q0 52 -20 69.5t-97 31.5l-45 8l-4 80h482zM766 -82q104 0 104 -135q0 -97 -51 -161.5t-145 -86.5q-23 13 -29 45q47 20 69 50.5t25 79.5q-36 8 -58 36t-22 68q0 46 30 75t77 29z" />
    <glyph glyph-name="ncommaaccent" unicode="&#x146;" horiz-adv-x="1247" 
d="M1225 78l-4 -78h-488l4 78l58 12q46 10 59.5 27.5t13.5 66.5v521q0 241 -194 241q-170 0 -262 -167v-595q0 -57 17 -72.5t89 -25.5l62 -8l-5 -78h-487l4 78l58 12q46 10 59.5 27.5t13.5 66.5v643q0 60 -12.5 80t-56.5 29l-62 12l-4 74l289 47q16 -59 21 -178
q54 85 139 131.5t186 46.5q164 0 249 -90t85 -262v-533q0 -57 17 -72.5t89 -25.5zM657 -82q105 0 105 -135q0 -97 -51.5 -161.5t-145.5 -86.5q-21 12 -28 45q46 19 68 49.5t25 80.5q-36 8 -57.5 36t-21.5 68q0 46 29.5 75t76.5 29z" />
    <glyph glyph-name="Ncaron" unicode="&#x147;" horiz-adv-x="1546" 
d="M780 1546l-288 250q20 48 61 80l233 -154l226 154q35 -28 57 -80zM1475 1434l-5 -80l-90 -13q-48 -7 -66 -28t-18 -68v-1245h-170l-567 899q-113 180 -165 311q7 -102 7 -225v-797q0 -52 20 -68.5t97 -29.5l62 -10l-5 -80h-477l4 80l78 14q49 9 66.5 28.5t17.5 65.5v1057
q0 52 -20 69.5t-97 31.5l-45 8l-4 80h344l567 -899q108 -171 156 -287q-6 99 -6 201v796q0 52 -20 69.5t-97 31.5l-45 8l-4 80h482z" />
    <glyph glyph-name="ncaron" unicode="&#x148;" horiz-adv-x="1247" 
d="M641 1208l-289 250q19 47 62 80l233 -153l225 153q37 -29 58 -80zM1225 78l-4 -78h-488l4 78l58 12q46 10 59.5 27.5t13.5 66.5v521q0 241 -194 241q-170 0 -262 -167v-595q0 -57 17 -72.5t89 -25.5l62 -8l-5 -78h-487l4 78l58 12q46 10 59.5 27.5t13.5 66.5v643
q0 60 -12.5 80t-56.5 29l-62 12l-4 74l289 47q16 -59 21 -178q54 85 139 131.5t186 46.5q164 0 249 -90t85 -262v-533q0 -57 17 -72.5t89 -25.5z" />
    <glyph glyph-name="napostrophe" unicode="&#x149;" horiz-adv-x="1247" 
d="M211 1409q0 -97 -51.5 -161.5t-145.5 -86.5q-21 12 -28 45q46 19 68 49.5t25 80.5q-36 8 -57.5 36t-21.5 68q0 46 29.5 75t76.5 29q105 0 105 -135zM1225 78l-4 -78h-488l4 78l58 12q46 10 59.5 27.5t13.5 66.5v521q0 241 -194 241q-170 0 -262 -167v-595q0 -57 17 -72.5
t89 -25.5l62 -8l-5 -78h-487l4 78l57 12q46 10 60 27.5t14 66.5v643q0 60 -12.5 80t-56.5 29l-62 12l-4 74l289 47q18 -67 21 -178q54 85 139 131.5t186 46.5q164 0 249 -90t85 -262v-533q0 -57 17 -72.5t89 -25.5z" />
    <glyph glyph-name="Eng" unicode="&#x14a;" horiz-adv-x="1546" 
d="M1475 1434l-5 -80l-90 -13q-48 -7 -66 -28t-18 -68v-919q0 -222 -38 -365.5t-121 -232.5q-98 -106 -263 -134q-36 28 -36 91q0 67 65 90q13 5 64 15.5t77 27.5q37 24 55.5 64t26.5 121q-41 61 -108 169l-459 727q-113 180 -165 311q7 -102 7 -225v-797q0 -52 20 -68.5
t97 -29.5l62 -10l-5 -80h-477l4 80l78 14q49 9 66.5 28.5t17.5 65.5v1057q0 52 -20 69.5t-97 31.5l-45 8l-4 80h344l567 -899q108 -171 156 -287q-6 99 -6 201v796q0 52 -20 69.5t-97 31.5l-45 8l-4 80h482z" />
    <glyph glyph-name="eng" unicode="&#x14b;" horiz-adv-x="1216" 
d="M723 1069q164 0 249 -90t85 -262v-416q0 -449 -158 -618q-99 -107 -260 -134q-37 29 -37 91q0 63 66 86q13 5 64 15.5t77 27.5q37 25 48 112.5t11 366.5v457q0 241 -194 241q-170 0 -262 -167v-595q0 -57 17 -72.5t89 -25.5l62 -8l-5 -78h-487l4 78l58 12
q46 10 59.5 27.5t13.5 66.5v643q0 60 -12.5 80t-56.5 29l-62 12l-4 74l289 47q16 -59 21 -178q54 85 139 131.5t186 46.5z" />
    <glyph glyph-name="Omacron" unicode="&#x14c;" horiz-adv-x="1556" 
d="M1049 1642h-541v119h541v-119zM104 717q0 228 86.5 399t239 260.5t348.5 89.5q314 0 494 -200t180 -549q0 -220 -85 -390.5t-238.5 -265t-350.5 -94.5q-203 0 -356.5 94.5t-235.5 264.5t-82 391zM315 717q0 -282 128.5 -459.5t334.5 -177.5t334.5 177.5t128.5 459.5
q0 296 -124 466.5t-339 170.5t-339 -170.5t-124 -466.5z" />
    <glyph glyph-name="omacron" unicode="&#x14d;" horiz-adv-x="1179" 
d="M860 1305h-541v118h541v-118zM100 522q0 127 38.5 231.5t105.5 173t155.5 105.5t190.5 37q233 0 361 -143t128 -404q0 -249 -137 -398t-352 -149q-226 0 -358 147t-132 400zM301 522q0 -202 79 -321t210 -119t210 119t79 321q0 211 -75.5 326t-213.5 115t-213.5 -115
t-75.5 -326z" />
    <glyph glyph-name="Obreve" unicode="&#x14e;" horiz-adv-x="1556" 
d="M592 1827q50 -133 188 -133q139 0 189 133q21 0 50.5 -12.5t41.5 -26.5q-34 -107 -106.5 -163t-176.5 -56t-176 56t-106 163q12 14 43 26.5t53 12.5zM104 717q0 228 86.5 399t239 260.5t348.5 89.5q314 0 494 -200t180 -549q0 -220 -85 -390.5t-238.5 -265t-350.5 -94.5
q-203 0 -356.5 94.5t-235.5 264.5t-82 391zM315 717q0 -282 128.5 -459.5t334.5 -177.5t334.5 177.5t128.5 459.5q0 296 -124 466.5t-339 170.5t-339 -170.5t-124 -466.5z" />
    <glyph glyph-name="obreve" unicode="&#x14f;" horiz-adv-x="1179" 
d="M403 1489q50 -133 189 -133q138 0 188 133q21 0 50.5 -12.5t41.5 -26.5q-34 -107 -106 -163t-176 -56t-176.5 56t-106.5 163q12 14 43 26.5t53 12.5zM100 522q0 127 38.5 231.5t105.5 173t155.5 105.5t190.5 37q233 0 361 -143t128 -404q0 -249 -137 -398t-352 -149
q-226 0 -358 147t-132 400zM301 522q0 -202 79 -321t210 -119t210 119t79 321q0 211 -75.5 326t-213.5 115t-213.5 -115t-75.5 -326z" />
    <glyph glyph-name="Ohungarumlaut" unicode="&#x150;" horiz-adv-x="1556" 
d="M592 1569l104 354q79 -10 138 -51l-148 -338q-48 5 -94 35zM881 1577l135 346q76 -16 133 -61l-176 -328q-52 11 -92 43zM104 717q0 228 86.5 399t239 260.5t348.5 89.5q314 0 494 -200t180 -549q0 -220 -85 -390.5t-238.5 -265t-350.5 -94.5q-203 0 -356.5 94.5
t-235.5 264.5t-82 391zM315 717q0 -282 128.5 -459.5t334.5 -177.5t334.5 177.5t128.5 459.5q0 296 -124 466.5t-339 170.5t-339 -170.5t-124 -466.5z" />
    <glyph glyph-name="ohungarumlaut" unicode="&#x151;" horiz-adv-x="1179" 
d="M383 1231l104 354q79 -10 138 -51l-148 -338q-48 5 -94 35zM672 1239l135 346q76 -16 133 -61l-176 -328q-52 11 -92 43zM100 522q0 127 38.5 231.5t105.5 173t155.5 105.5t190.5 37q233 0 361 -143t128 -404q0 -249 -137 -398t-352 -149q-226 0 -358 147t-132 400z
M301 522q0 -202 79 -321t210 -119t210 119t79 321q0 211 -75.5 326t-213.5 115t-213.5 -115t-75.5 -326z" />
    <glyph glyph-name="OE" unicode="&#x152;" horiz-adv-x="2041" 
d="M1829 360l123 -8q0 -165 -27 -352h-960q-88 -8 -187 -8q-307 0 -490.5 199.5t-183.5 525.5q0 167 50 304t139.5 229t213.5 142t271 50q99 0 187 -8h917q27 -187 27 -353l-123 -8q-17 159 -57.5 207.5t-157.5 48.5h-344v-545h284q54 0 73.5 21.5t33.5 95.5l8 45l107 4
v-450l-107 4l-12 90q-6 44 -30.5 64t-72.5 20h-284v-483q0 -57 29.5 -74t127.5 -17h230q117 0 157.5 48.5t57.5 207.5zM1034 287v860q0 109 -45.5 145.5t-179.5 36.5q-243 0 -368.5 -160t-125.5 -452q0 -277 130.5 -445t363.5 -168q134 0 179.5 37t45.5 146z" />
    <glyph glyph-name="oe" unicode="&#x153;" horiz-adv-x="1847" 
d="M1389 100q91 0 160.5 27t136.5 86l53 -96q-87 -76 -176.5 -109t-214.5 -33q-259 0 -376 214q-62 -101 -160.5 -157.5t-221.5 -56.5q-226 0 -358 147t-132 400q0 127 38.5 231.5t105.5 173t155.5 105.5t190.5 37q276 0 395 -215q63 102 162.5 158.5t220.5 56.5
q175 0 279 -112.5t104 -301.5q0 -71 -11 -92.5t-48 -21.5h-613v-19q0 -209 86 -315.5t224 -106.5zM590 82q131 0 210 119t79 321q0 211 -75.5 326t-213.5 115t-213.5 -115t-75.5 -326q0 -202 79 -321t210 -119zM1337 963q-104 0 -168.5 -83t-82.5 -237h421q32 0 44 15t12 55
q0 112 -63 181t-163 69z" />
    <glyph glyph-name="Racute" unicode="&#x154;" horiz-adv-x="1312" 
d="M952 1757l-395 -223q-38 32 -59 82l360 274q60 -57 94 -133zM1303 82l-5 -78q-50 -16 -122 -16q-106 0 -154.5 38t-112.5 171l-141 295q-42 87 -92 119t-144 32q-43 0 -75 -4v-451q0 -52 19.5 -68.5t96.5 -29.5l62 -10l-4 -80h-533l4 80l78 14q49 9 66.5 28.5t17.5 65.5
v1057q0 52 -20 69.5t-97 31.5l-45 8l-4 80h101q85 0 232 4t216 4q490 0 490 -379q0 -144 -91 -241.5t-248 -126.5q45 -14 79.5 -47.5t74.5 -100.5q27 -45 97 -191.5t111 -203.5q25 -34 51 -49t67 -19zM457 1327v-569q68 -6 159 -6q148 0 234 79.5t86 215.5q0 292 -297 292
q-111 0 -182 -12z" />
    <glyph glyph-name="racute" unicode="&#x155;" horiz-adv-x="864" 
d="M766 1419l-395 -223q-39 34 -60 82l361 274q60 -57 94 -133zM821 1026q10 -27 10 -61q0 -47 -26 -75t-72 -28q-28 0 -74 21.5t-90 21.5q-57 0 -97 -60t-60 -173v-477q0 -57 17 -73t89 -26l103 -14l-5 -82h-528l4 78l58 12q46 10 59.5 27.5t13.5 66.5v643q0 60 -13 80.5
t-56 28.5l-62 12l-4 74l289 47q20 -80 22 -259q29 116 99.5 187.5t160.5 71.5q88 0 162 -43z" />
    <glyph glyph-name="Rcommaaccent" unicode="&#x156;" horiz-adv-x="1312" 
d="M1303 82l-5 -78q-50 -16 -122 -16q-106 0 -154.5 38t-112.5 171l-141 295q-42 87 -92 119t-144 32q-43 0 -75 -4v-451q0 -52 19.5 -68.5t96.5 -29.5l62 -10l-4 -80h-533l4 80l78 14q49 9 66.5 28.5t17.5 65.5v1057q0 52 -20 69.5t-97 31.5l-45 8l-4 80h101q85 0 232 4
t216 4q490 0 490 -379q0 -144 -91 -241.5t-248 -126.5q45 -14 79.5 -47.5t74.5 -100.5q27 -45 97 -191.5t111 -203.5q25 -34 51 -49t67 -19zM457 1327v-569q68 -6 159 -6q148 0 234 79.5t86 215.5q0 292 -297 292q-111 0 -182 -12zM760 -82q104 0 104 -135q0 -97 -51 -161.5
t-145 -86.5q-23 13 -29 45q47 20 69 50.5t25 79.5q-36 8 -58 36t-22 68q0 46 30 75t77 29z" />
    <glyph glyph-name="rcommaaccent" unicode="&#x157;" horiz-adv-x="864" 
d="M821 1026q10 -27 10 -61q0 -47 -26 -75t-72 -28q-28 0 -74 21.5t-90 21.5q-57 0 -97 -60t-60 -173v-477q0 -57 17 -73t89 -26l103 -14l-5 -82h-528l4 78l58 12q46 10 59.5 27.5t13.5 66.5v643q0 60 -13 80.5t-56 28.5l-62 12l-4 74l289 47q20 -80 22 -259
q29 116 99.5 187.5t160.5 71.5q88 0 162 -43zM319 -82q105 0 105 -135q0 -97 -51.5 -161.5t-145.5 -86.5q-21 12 -28 45q46 19 68 49.5t25 80.5q-36 8 -57.5 36t-21.5 68q0 46 29.5 75t76.5 29z" />
    <glyph glyph-name="Rcaron" unicode="&#x158;" horiz-adv-x="1312" 
d="M666 1546l-289 250q20 48 61 80l233 -154l226 154q35 -28 57 -80zM1303 82l-5 -78q-50 -16 -122 -16q-106 0 -154.5 38t-112.5 171l-141 295q-42 87 -92 119t-144 32q-43 0 -75 -4v-451q0 -52 19.5 -68.5t96.5 -29.5l62 -10l-4 -80h-533l4 80l78 14q49 9 66.5 28.5
t17.5 65.5v1057q0 52 -20 69.5t-97 31.5l-45 8l-4 80h101q85 0 232 4t216 4q490 0 490 -379q0 -144 -91 -241.5t-248 -126.5q45 -14 79.5 -47.5t74.5 -100.5q27 -45 97 -191.5t111 -203.5q25 -34 51 -49t67 -19zM457 1327v-569q68 -6 159 -6q148 0 234 79.5t86 215.5
q0 292 -297 292q-111 0 -182 -12z" />
    <glyph glyph-name="rcaron" unicode="&#x159;" horiz-adv-x="864" 
d="M455 1208l-289 250q20 48 61 80l233 -153l226 153q35 -28 57 -80zM821 1026q10 -27 10 -61q0 -47 -26 -75t-72 -28q-28 0 -74 21.5t-90 21.5q-57 0 -97 -60t-60 -173v-477q0 -57 17 -73t89 -26l103 -14l-5 -82h-528l4 78l58 12q46 10 59.5 27.5t13.5 66.5v643
q0 60 -13 80.5t-56 28.5l-62 12l-4 74l289 47q20 -80 22 -259q29 116 99.5 187.5t160.5 71.5q88 0 162 -43z" />
    <glyph glyph-name="Sacute" unicode="&#x15a;" horiz-adv-x="1114" 
d="M373 1616l360 274q60 -57 94 -133l-395 -223q-38 32 -59 82zM575 1466q115 0 230 -25.5t160 -25.5v-323l-109 -5q-29 143 -98 210t-189 67q-110 0 -178.5 -67.5t-68.5 -176.5q0 -61 24 -108.5t64 -79t92.5 -58t110 -50t115 -48.5t110 -60.5t92.5 -80.5t64 -113t24 -153
q0 -177 -136 -289.5t-350 -112.5q-122 0 -232 31t-189 88q-11 90 -11 165q0 63 4 134l115 4q20 -154 102 -236.5t214 -82.5q128 0 211 75.5t83 190.5q0 64 -23.5 114.5t-63.5 84.5t-92 62t-109.5 52t-115 49.5t-109.5 59.5t-92 76.5t-63.5 106.5t-23.5 144q0 161 126 271
t312 110z" />
    <glyph glyph-name="sacute" unicode="&#x15b;" horiz-adv-x="933" 
d="M262 1278l361 274q60 -57 94 -133l-395 -223q-39 34 -60 82zM795 766l-99 -6q-25 106 -82.5 163.5t-140.5 57.5q-78 0 -126 -44t-48 -116q0 -53 30 -93t77.5 -65.5t105 -48.5t115.5 -50t105.5 -61.5t77.5 -91t30 -130.5q0 -144 -106 -225t-294 -81q-96 0 -185 26t-146 71
q-9 68 -9 116q0 52 4 109l103 6q25 -111 92.5 -175.5t159.5 -64.5q89 0 144.5 48.5t55.5 126.5q0 53 -29.5 94t-77 68t-104.5 51.5t-114 52t-104.5 61.5t-77 88.5t-29.5 124.5q0 134 98.5 212.5t267.5 78.5q69 0 164 -26.5t142 -26.5v-250z" />
    <glyph glyph-name="Scircumflex" unicode="&#x15c;" horiz-adv-x="1114" 
d="M570 1709l-236 -155q-37 29 -58 80l299 250l299 -250q-20 -48 -61 -80zM322 1120q0 -61 24 -108.5t64 -79t92.5 -58t110 -50t115 -48.5t110 -60.5t92.5 -80.5t64 -113t24 -153q0 -177 -136 -289.5t-350 -112.5q-122 0 -232 31t-189 88q-11 90 -11 165q0 63 4 134l115 4
q20 -154 102 -236.5t214 -82.5q128 0 211 75.5t83 190.5q0 64 -23.5 114.5t-63.5 84.5t-92 62t-109.5 52t-115 49.5t-109.5 59.5t-92 76.5t-63.5 106.5t-23.5 144q0 161 126 271t312 110q115 0 230 -25.5t160 -25.5v-323l-109 -5q-29 143 -98 210t-189 67
q-110 0 -178.5 -67.5t-68.5 -176.5z" />
    <glyph glyph-name="scircumflex" unicode="&#x15d;" horiz-adv-x="933" 
d="M474 1371l-236 -154q-37 29 -58 79l299 250l299 -250q-19 -46 -61 -79zM299 821q0 -53 30 -93t77.5 -65.5t105 -48.5t115.5 -50t105.5 -61.5t77.5 -91t30 -130.5q0 -144 -106 -225t-294 -81q-96 0 -185 26t-146 71q-9 68 -9 116q0 52 4 109l103 6q25 -111 92.5 -175.5
t159.5 -64.5q89 0 144.5 48.5t55.5 126.5q0 53 -29.5 94t-77 68t-104.5 51.5t-114 52t-104.5 61.5t-77 88.5t-29.5 124.5q0 134 98.5 212.5t267.5 78.5q69 0 164 -26.5t142 -26.5v-250l-99 -6q-25 106 -82.5 163.5t-140.5 57.5q-78 0 -126 -44t-48 -116z" />
    <glyph glyph-name="Scedilla" unicode="&#x15e;" horiz-adv-x="1114" 
d="M1018 369q0 -167 -122 -277t-318 -123l-39 -80q88 0 140 -42t52 -113q0 -86 -61.5 -137.5t-165.5 -51.5q-91 0 -154 54q7 43 33 69q52 -41 115 -41q44 0 69 23t25 63q0 88 -137 88l-25 41l57 126q-227 11 -376 118q-11 90 -11 165q0 63 4 134l115 4q20 -154 102 -236.5
t214 -82.5q128 0 211 75.5t83 190.5q0 64 -23.5 114.5t-63.5 84.5t-92 62t-109.5 52t-115 49.5t-109.5 59.5t-92 76.5t-63.5 106.5t-23.5 144q0 161 126 271t312 110q115 0 230 -25.5t160 -25.5v-323l-109 -5q-29 143 -98 210t-189 67q-110 0 -178.5 -67.5t-68.5 -176.5
q0 -61 24 -108.5t64 -79t92.5 -58t110 -50t115 -48.5t110 -60.5t92.5 -80.5t64 -113t24 -153z" />
    <glyph glyph-name="scedilla" unicode="&#x15f;" horiz-adv-x="933" 
d="M840 281q0 -135 -93.5 -214.5t-260.5 -89.5l-44 -88q88 0 140.5 -42.5t52.5 -112.5q0 -86 -61.5 -137.5t-165.5 -51.5q-91 0 -154 54q7 43 33 69q29 -23 54 -32t60 -9q44 0 69.5 23t25.5 63q0 88 -138 88l-24 41l60 135q-179 13 -285 95q-9 68 -9 116q0 52 4 109l103 6
q25 -111 92.5 -175.5t159.5 -64.5q89 0 144.5 48.5t55.5 126.5q0 53 -29.5 94t-77 68t-104.5 51.5t-114 52t-104.5 61.5t-77 88.5t-29.5 124.5q0 134 98.5 212.5t267.5 78.5q69 0 164 -26.5t142 -26.5v-250l-99 -6q-25 106 -82.5 163.5t-140.5 57.5q-78 0 -126 -44t-48 -116
q0 -53 30 -93t77.5 -65.5t105 -48.5t115.5 -50t105.5 -61.5t77.5 -91t30 -130.5z" />
    <glyph glyph-name="Scaron" unicode="&#x160;" horiz-adv-x="1114" 
d="M575 1546l-288 250q20 48 61 80l233 -154l226 154q35 -28 57 -80zM322 1120q0 -61 24 -108.5t64 -79t92.5 -58t110 -50t115 -48.5t110 -60.5t92.5 -80.5t64 -113t24 -153q0 -177 -136 -289.5t-350 -112.5q-122 0 -232 31t-189 88q-11 90 -11 165q0 63 4 134l115 4
q20 -154 102 -236.5t214 -82.5q128 0 211 75.5t83 190.5q0 64 -23.5 114.5t-63.5 84.5t-92 62t-109.5 52t-115 49.5t-109.5 59.5t-92 76.5t-63.5 106.5t-23.5 144q0 161 126 271t312 110q115 0 230 -25.5t160 -25.5v-323l-109 -5q-29 143 -98 210t-189 67
q-110 0 -178.5 -67.5t-68.5 -176.5z" />
    <glyph glyph-name="scaron" unicode="&#x161;" horiz-adv-x="933" 
d="M479 1208l-289 250q19 47 62 80l233 -153l226 153q35 -28 57 -80zM299 821q0 -53 30 -93t77.5 -65.5t105 -48.5t115.5 -50t105.5 -61.5t77.5 -91t30 -130.5q0 -144 -106 -225t-294 -81q-96 0 -185 26t-146 71q-9 68 -9 116q0 52 4 109l103 6q25 -111 92.5 -175.5
t159.5 -64.5q89 0 144.5 48.5t55.5 126.5q0 53 -29.5 94t-77 68t-104.5 51.5t-114 52t-104.5 61.5t-77 88.5t-29.5 124.5q0 134 98.5 212.5t267.5 78.5q69 0 164 -26.5t142 -26.5v-250l-99 -6q-25 106 -82.5 163.5t-140.5 57.5q-78 0 -126 -44t-48 -116z" />
    <glyph glyph-name="Tcedilla" unicode="&#x162;" horiz-adv-x="1323" 
d="M84 1434h1155q27 -187 27 -357l-123 -8q-17 160 -58 210t-157 50h-170v-1112q0 -66 20 -87.5t96 -33.5l95 -14l-4 -82h-256l-56 -111q88 0 140.5 -42.5t52.5 -112.5q0 -86 -62 -137.5t-166 -51.5q-90 0 -153 54q7 43 33 69q29 -23 54 -32t60 -9q44 0 69.5 23t25.5 63
q0 88 -138 88l-24 41l70 158h-248l4 82l110 18q48 8 66 33t18 84v1112h-170q-116 0 -157 -50t-58 -210l-123 8q0 170 27 357z" />
    <glyph glyph-name="tcedilla" unicode="&#x163;" horiz-adv-x="774" 
d="M511 -23l-44 -88q88 0 140 -42t52 -113q0 -86 -61.5 -137.5t-165.5 -51.5q-90 0 -153 54q7 44 32 69q52 -41 115 -41q44 0 69 23t25 63q0 88 -137 88l-25 41l61 135q-107 10 -158.5 69t-51.5 171l2 719h-137l-4 86l141 22q30 117 64 191q16 37 29.5 48t39.5 11
q20 0 55 -6v-244h342v-108h-342v-686q0 -144 144 -144q88 0 174 60l37 -90q-115 -87 -243 -99z" />
    <glyph glyph-name="Tcaron" unicode="&#x164;" horiz-adv-x="1323" 
d="M662 1546l-289 250q20 48 61 80l233 -154l226 154q35 -28 57 -80zM84 1434h1155q27 -187 27 -357l-123 -8q-17 160 -58 210t-157 50h-170v-1112q0 -66 20 -87.5t96 -33.5l95 -14l-4 -82h-598l4 82l110 18q48 8 66 33t18 84v1112h-170q-116 0 -157 -50t-58 -210l-123 8
q0 170 27 357z" />
    <glyph glyph-name="tcaron" unicode="&#x165;" horiz-adv-x="774" 
d="M727 1520q-25 -195 -96 -367q-58 0 -109 21q47 205 56 364q79 0 149 -18zM717 166l37 -90q-133 -101 -289 -101q-130 0 -193 59.5t-63 182.5l2 719h-137l-4 86l141 22q27 109 64 191q16 37 29.5 48t39.5 11q20 0 55 -6v-244h342v-108h-342v-686q0 -144 144 -144
q88 0 174 60z" />
    <glyph glyph-name="Tbar" unicode="&#x166;" horiz-adv-x="1343" 
d="M768 1329v-541h344v-104h-344v-467q0 -66 20.5 -87.5t96.5 -33.5l94 -14l-4 -82h-598l4 82l111 18q48 8 65.5 33t17.5 84v467h-344v104h344v541h-169q-116 0 -157.5 -50.5t-58.5 -209.5l-122 8q0 177 26 357h1155q27 -187 27 -357l-123 -8q-17 160 -58 210t-157 50h-170z
" />
    <glyph glyph-name="tbar" unicode="&#x167;" horiz-adv-x="782" 
d="M717 166l37 -90q-133 -101 -289 -101q-130 0 -193 59.5t-63 182.5l1 383h-138v105h138l1 231h-137l-4 86l141 22q27 109 64 191q16 37 29.5 48t39.5 11q20 0 55 -6v-244h342v-108h-342v-231h342v-105h-342v-350q0 -144 144 -144q88 0 174 60z" />
    <glyph glyph-name="Utilde" unicode="&#x168;" horiz-adv-x="1497" 
d="M913 1737q81 0 136 67l30 -75q-26 -51 -80 -85t-108 -34q-65 0 -135 30.5t-113 30.5q-80 0 -135 -67l-31 75q26 51 80.5 85t108.5 34q65 0 134.5 -30.5t112.5 -30.5zM604 1354l-90 -13q-48 -7 -66 -28t-18 -68v-735q0 -218 86.5 -325t263.5 -107q164 0 249 106t85 312
v749q0 53 -20.5 70.5t-96.5 30.5l-49 8l4 80h490l-4 -80l-90 -13q-48 -7 -66 -28t-18 -68v-770q0 -240 -132.5 -374t-369.5 -134q-524 0 -524 525v753q0 52 -20 69.5t-97 31.5l-45 8l-4 80h536z" />
    <glyph glyph-name="utilde" unicode="&#x169;" horiz-adv-x="1241" 
d="M473 1333q-80 0 -135 -67l-31 75q26 51 80.5 85t108.5 34q65 0 134.5 -30.5t112.5 -30.5q81 0 136 67l30 -75q-26 -51 -80 -85t-108 -34q-65 0 -135 30.5t-113 30.5zM1184 92l-4 -82l-301 -30q-17 63 -22 173q-54 -85 -138 -131.5t-184 -46.5q-164 0 -248 90.5t-84 262.5
v499q0 60 -13 80t-57 29l-61 12l-4 74l323 47v-729q0 -242 193 -242q170 0 260 167v562q0 60 -15 79t-69 30l-62 12l-4 74l338 47v-854q0 -60 18 -84t72 -31z" />
    <glyph glyph-name="Umacron" unicode="&#x16a;" horiz-adv-x="1497" 
d="M1049 1642h-541v119h541v-119zM604 1354l-90 -13q-48 -7 -66 -28t-18 -68v-735q0 -218 86.5 -325t263.5 -107q164 0 249 106t85 312v749q0 53 -20.5 70.5t-96.5 30.5l-49 8l4 80h490l-4 -80l-90 -13q-48 -7 -66 -28t-18 -68v-770q0 -240 -132.5 -374t-369.5 -134
q-524 0 -524 525v753q0 52 -20 69.5t-97 31.5l-45 8l-4 80h536z" />
    <glyph glyph-name="umacron" unicode="&#x16b;" horiz-adv-x="1241" 
d="M879 1305h-541v118h541v-118zM1184 92l-4 -82l-301 -30q-17 63 -22 173q-54 -85 -138 -131.5t-184 -46.5q-164 0 -248 90.5t-84 262.5v499q0 60 -13 80t-57 29l-61 12l-4 74l323 47v-729q0 -242 193 -242q170 0 260 167v562q0 60 -15 79t-69 30l-62 12l-4 74l338 47v-854
q0 -60 18 -84t72 -31z" />
    <glyph glyph-name="Ubreve" unicode="&#x16c;" horiz-adv-x="1497" 
d="M592 1827q50 -133 188 -133q139 0 189 133q21 0 50.5 -12.5t41.5 -26.5q-34 -107 -106.5 -163t-176.5 -56t-176 56t-106 163q12 14 43 26.5t53 12.5zM604 1354l-90 -13q-48 -7 -66 -28t-18 -68v-735q0 -218 86.5 -325t263.5 -107q164 0 249 106t85 312v749
q0 53 -20.5 70.5t-96.5 30.5l-49 8l4 80h490l-4 -80l-90 -13q-48 -7 -66 -28t-18 -68v-770q0 -240 -132.5 -374t-369.5 -134q-524 0 -524 525v753q0 52 -20 69.5t-97 31.5l-45 8l-4 80h536z" />
    <glyph glyph-name="ubreve" unicode="&#x16d;" horiz-adv-x="1241" 
d="M608 1231q-104 0 -176 56t-106 163q12 14 43 26.5t53 12.5q50 -133 188 -133q139 0 189 133q21 0 50.5 -12.5t41.5 -26.5q-34 -107 -106.5 -163t-176.5 -56zM1184 92l-4 -82l-301 -30q-17 63 -22 173q-54 -85 -138 -131.5t-184 -46.5q-164 0 -248 90.5t-84 262.5v499
q0 60 -13 80t-57 29l-61 12l-4 74l323 47v-729q0 -242 193 -242q170 0 260 167v562q0 60 -15 79t-69 30l-62 12l-4 74l338 47v-854q0 -60 18 -84t72 -31z" />
    <glyph glyph-name="Uring" unicode="&#x16e;" horiz-adv-x="1497" 
d="M582 1733q0 83 58 139.5t138 56.5q86 0 141.5 -53.5t55.5 -142.5q0 -83 -58.5 -140t-138.5 -57q-86 0 -141 54t-55 143zM678 1733q0 -46 29 -75.5t71 -29.5t71.5 29.5t29.5 75.5t-29.5 75t-71.5 29t-71 -29t-29 -75zM604 1354l-90 -13q-48 -7 -66 -28t-18 -68v-735
q0 -218 86.5 -325t263.5 -107q164 0 249 106t85 312v749q0 53 -20.5 70.5t-96.5 30.5l-49 8l4 80h490l-4 -80l-90 -13q-48 -7 -66 -28t-18 -68v-770q0 -240 -132.5 -374t-369.5 -134q-524 0 -524 525v753q0 52 -20 69.5t-97 31.5l-45 8l-4 80h536z" />
    <glyph glyph-name="uring" unicode="&#x16f;" horiz-adv-x="1241" 
d="M608 1198q-86 0 -141 54t-55 143q0 83 58 139.5t138 56.5q86 0 141.5 -53.5t55.5 -142.5q0 -83 -58.5 -140t-138.5 -57zM608 1499q-42 0 -71 -29t-29 -75t29 -75.5t71 -29.5t71.5 29.5t29.5 75.5t-29.5 75t-71.5 29zM1184 92l-4 -82l-301 -30q-17 63 -22 173
q-54 -85 -138 -131.5t-184 -46.5q-164 0 -248 90.5t-84 262.5v499q0 60 -13 80t-57 29l-61 12l-4 74l323 47v-729q0 -242 193 -242q170 0 260 167v562q0 60 -15 79t-69 30l-62 12l-4 74l338 47v-854q0 -60 18 -84t72 -31z" />
    <glyph glyph-name="Uhungarumlaut" unicode="&#x170;" horiz-adv-x="1497" 
d="M565 1569l105 354q78 -10 137 -51l-148 -338q-48 5 -94 35zM854 1577l135 346q76 -16 133 -61l-176 -328q-52 11 -92 43zM604 1354l-90 -13q-48 -7 -66 -28t-18 -68v-735q0 -218 86.5 -325t263.5 -107q164 0 249 106t85 312v749q0 53 -20.5 70.5t-96.5 30.5l-49 8l4 80
h490l-4 -80l-90 -13q-48 -7 -66 -28t-18 -68v-770q0 -240 -132.5 -374t-369.5 -134q-524 0 -524 525v753q0 52 -20 69.5t-97 31.5l-45 8l-4 80h536z" />
    <glyph glyph-name="uhungarumlaut" unicode="&#x171;" horiz-adv-x="1241" 
d="M612 1534l-147 -338q-48 5 -94 35l104 354q78 -10 137 -51zM928 1524l-176 -328q-53 12 -93 43l136 346q76 -16 133 -61zM1184 92l-4 -82l-301 -30q-17 63 -22 173q-54 -85 -138 -131.5t-184 -46.5q-164 0 -248 90.5t-84 262.5v499q0 60 -13 80t-57 29l-61 12l-4 74
l323 47v-729q0 -242 193 -242q170 0 260 167v562q0 60 -15 79t-69 30l-62 12l-4 74l338 47v-854q0 -60 18 -84t72 -31z" />
    <glyph glyph-name="Uogonek" unicode="&#x172;" horiz-adv-x="1497" 
d="M1442 1434l-4 -80l-90 -13q-48 -7 -66 -28t-18 -68v-770q0 -197 -90.5 -323.5t-256.5 -166.5q-87 -31 -134.5 -83t-47.5 -117q0 -51 27.5 -80t73.5 -29q69 0 114 45q24 -28 31 -71q-78 -72 -199 -72q-89 0 -143.5 50t-54.5 130q0 60 33.5 117t87.5 94q-467 28 -467 523
v753q0 52 -20 69.5t-97 31.5l-45 8l-4 80h536l-4 -80l-90 -13q-48 -7 -66 -28t-18 -68v-735q0 -218 86.5 -325t263.5 -107q164 0 249 106t85 312v749q0 53 -20.5 70.5t-96.5 30.5l-49 8l4 80h490z" />
    <glyph glyph-name="uogonek" unicode="&#x173;" horiz-adv-x="1241" 
d="M1038 -324q31 0 63 12.5t52 32.5q24 -28 31 -71q-78 -72 -199 -72q-89 0 -144 50t-55 130q0 66 33 127.5t85 96.5q-36 59 -46 173q-55 -86 -138.5 -133t-184.5 -47q-164 0 -248 90.5t-84 262.5v499q0 60 -13 80t-57 29l-61 12l-4 74l323 47v-729q0 -242 193 -242
q170 0 260 167v562q0 60 -15 79t-69 30l-62 12l-4 74l338 47v-854q0 -60 18 -84t72 -31l62 -8l-4 -82q-107 -15 -174.5 -77.5t-67.5 -147.5q0 -51 27 -80t73 -29z" />
    <glyph glyph-name="Wcircumflex" unicode="&#x174;" horiz-adv-x="2095" 
d="M1076 1709l-236 -155q-37 29 -58 80l299 250l299 -250q-20 -48 -61 -80zM2099 1434l-4 -80l-57 -6q-61 -7 -91 -45t-71 -162l-381 -1147h-123l-318 1073l-352 -1073h-122l-349 1147q-38 123 -66 160.5t-89 46.5l-43 6l-4 80h524l-4 -80l-57 -6q-53 -6 -74.5 -20.5
t-21.5 -51.5q0 -39 28 -135l245 -856l359 1149h107l326 -1149l270 856q31 98 31 136t-27.5 52.5t-98.5 20.5l-47 4l4 80h506z" />
    <glyph glyph-name="wcircumflex" unicode="&#x175;" horiz-adv-x="1675" 
d="M865 1371l-236 -154q-37 29 -58 79l299 250l299 -250q-19 -46 -61 -79zM1671 1044l-4 -77l-27 -6q-54 -13 -76.5 -36t-47.5 -91l-306 -838h-129l-238 744l-268 -744h-129l-276 838q-25 75 -43.5 98t-60.5 29l-41 6l-5 77h467l-4 -77l-55 -9q-48 -7 -67.5 -19.5
t-19.5 -40.5q0 -25 13 -64l190 -595l273 805h107l254 -805l200 595q19 59 19 75q0 25 -21 35t-78 17l-51 6l4 77h420z" />
    <glyph glyph-name="Ycircumflex" unicode="&#x176;" horiz-adv-x="1335" 
d="M685 1709l-236 -155q-37 29 -58 80l299 250l299 -250q-20 -48 -61 -80zM1335 1434l-4 -80l-39 -4q-31 -3 -46.5 -8t-32 -13t-35.5 -35t-38.5 -56.5t-58.5 -96.5l-319 -539v-385q0 -66 20.5 -87.5t96.5 -33.5l94 -14l-4 -82h-598l4 82l110 18q48 8 66 33t18 84v385
l-317 539q-48 82 -68 114t-43.5 57t-37.5 29t-46 9l-28 4l-4 80h530l-4 -80l-57 -6q-94 -10 -94 -65q0 -35 36 -97l265 -448l260 448q36 63 36 97q0 56 -104 65l-68 6l4 80h506z" />
    <glyph glyph-name="ycircumflex" unicode="&#x177;" horiz-adv-x="1130" 
d="M590 1371l-236 -154q-36 28 -57 79l299 250l299 -250q-19 -46 -61 -79zM1126 1044l-4 -77l-26 -7q-53 -12 -74.5 -33.5t-50.5 -92.5l-357 -863q-102 -246 -197.5 -334t-266.5 -88q-22 0 -54 7q-24 40 -24 79q0 41 25.5 66t68.5 25q20 0 52.5 -7.5t49.5 -7.5
q67 0 108.5 44.5t94.5 176.5l28 69q-25 41 -53 114l-282 719q-31 79 -48.5 100t-56.5 27l-41 6l-4 77h475l-4 -77l-55 -9q-47 -7 -68 -21.5t-21 -41.5q0 -23 15 -61l237 -610l241 610q18 45 18 69q0 26 -22.5 39t-75.5 19l-52 6l5 77h419z" />
    <glyph glyph-name="Ydieresis" unicode="&#x178;" horiz-adv-x="1335" 
d="M504 1597q-47 0 -80 33t-33 80t33 80t80 33t79.5 -33t32.5 -80t-32.5 -80t-79.5 -33zM877 1597q-47 0 -80 33t-33 80t33 80t80 33t79.5 -33t32.5 -80t-32.5 -80t-79.5 -33zM1335 1434l-4 -80l-39 -4q-31 -3 -46.5 -8t-32 -13t-35.5 -35t-38.5 -56.5t-58.5 -96.5
l-319 -539v-385q0 -66 20.5 -87.5t96.5 -33.5l94 -14l-4 -82h-598l4 82l110 18q48 8 66 33t18 84v385l-317 539q-48 82 -68 114t-43.5 57t-37.5 29t-46 9l-28 4l-4 80h530l-4 -80l-57 -6q-94 -10 -94 -65q0 -35 36 -97l265 -448l260 448q36 63 36 97q0 56 -104 65l-68 6
l4 80h506z" />
    <glyph glyph-name="Zacute" unicode="&#x179;" horiz-adv-x="1234" 
d="M909 1757l-395 -223q-38 32 -59 82l360 274q60 -57 94 -133zM1022 369l123 -9q0 -173 -27 -360h-1036l-4 86l823 1243h-457q-116 0 -157 -50t-58 -210l-123 8q0 170 27 357h997l5 -86l-824 -1244h496q112 0 154.5 57.5t60.5 207.5z" />
    <glyph glyph-name="zacute" unicode="&#x17a;" horiz-adv-x="1034" 
d="M788 1419l-395 -223q-38 32 -59 82l360 274q60 -57 94 -133zM829 299l115 -8q0 -137 -22 -291h-838l-6 80l641 872h-340q-75 0 -111 -45t-49 -159l-115 8q0 127 23 288h805l6 -79l-641 -873h373q73 0 109 49t50 158z" />
    <glyph glyph-name="Zdotaccent" unicode="&#x17b;" horiz-adv-x="1234" 
d="M621 1591q-54 0 -89.5 35.5t-35.5 89.5t35.5 89.5t89.5 35.5t89 -35.5t35 -89.5t-35 -89.5t-89 -35.5zM1022 369l123 -9q0 -173 -27 -360h-1036l-4 86l823 1243h-457q-116 0 -157 -50t-58 -210l-123 8q0 170 27 357h997l5 -86l-824 -1244h496q112 0 154.5 57.5
t60.5 207.5z" />
    <glyph glyph-name="zdotaccent" unicode="&#x17c;" horiz-adv-x="1034" 
d="M522 1253q-54 0 -89.5 35.5t-35.5 89.5t35.5 89.5t89.5 35.5t89.5 -35.5t35.5 -89.5t-35.5 -89.5t-89.5 -35.5zM829 299l115 -8q0 -137 -22 -291h-838l-6 80l641 872h-340q-75 0 -111 -45t-49 -159l-115 8q0 127 23 288h805l6 -79l-641 -873h373q73 0 109 49t50 158z" />
    <glyph glyph-name="Zcaron" unicode="&#x17d;" horiz-adv-x="1234" 
d="M621 1546l-289 250q20 48 61 80l233 -154l226 154q35 -28 57 -80zM1022 369l123 -9q0 -173 -27 -360h-1036l-4 86l823 1243h-457q-116 0 -157 -50t-58 -210l-123 8q0 170 27 357h997l5 -86l-824 -1244h496q112 0 154.5 57.5t60.5 207.5z" />
    <glyph glyph-name="zcaron" unicode="&#x17e;" horiz-adv-x="1034" 
d="M522 1208l-289 250q19 47 62 80l233 -153l226 153q35 -28 57 -80zM829 299l115 -8q0 -137 -22 -291h-838l-6 80l641 872h-340q-75 0 -111 -45t-49 -159l-115 8q0 127 23 288h805l6 -79l-641 -873h373q73 0 109 49t50 158z" />
    <glyph glyph-name="longs" unicode="&#x17f;" horiz-adv-x="651" 
d="M840 1481q6 -18 6 -43q0 -43 -24.5 -69t-65.5 -26q-50 0 -118.5 38t-125.5 38q-53 0 -74.5 -38t-21.5 -132v-1054q0 -57 17 -73t89 -26l103 -14l-4 -82h-529l4 78l58 12q46 10 59.5 27.5t13.5 66.5v752h-141l-4 86l145 22v140q0 163 87 248.5t253 85.5q158 0 273 -37z
" />
    <glyph glyph-name="Schwa" unicode="&#x18f;" horiz-adv-x="1386" 
d="M637 1466q306 0 475.5 -200.5t169.5 -548.5q0 -344 -181 -547t-472 -203q-246 0 -395.5 152t-149.5 403q0 91 15 118.5t65 27.5h908q1 16 1 49q0 154 -36 274.5t-99 194.5t-144 111.5t-176 37.5q-234 0 -411 -168l-68 103q109 104 226 150t272 46zM651 80q165 0 274 127
t138 350h-701q-43 0 -60 -22t-17 -76q0 -165 103.5 -272t262.5 -107z" />
    <glyph glyph-name="florin" unicode="&#x192;" horiz-adv-x="1046" 
d="M1012 1481q4 -12 4 -35q0 -48 -24 -75.5t-66 -27.5q-45 0 -102.5 38t-108.5 38q-105 0 -129 -170l-46 -327h287l-14 -109h-288l-119 -856q-30 -214 -110 -311t-222 -97q-81 0 -146 41l27 107q56 -27 106 -27q69 0 101 52.5t53 203.5l124 887h-142l8 86q17 6 72 14t77 9
l37 262q46 334 385 334q121 0 236 -37z" />
    <glyph glyph-name="AEacute" unicode="&#x1fc;" horiz-adv-x="1945" 
d="M1505 1757l-395 -223q-38 32 -59 82l360 274q60 -57 94 -133zM1733 360l122 -8q0 -172 -26 -352h-1057l4 80l78 14q49 9 66.5 28.5t17.5 65.5v277h-445l-102 -199q-48 -93 -48 -125q0 -25 22 -37t73 -18l47 -6l-4 -80h-491l4 80l57 8q60 8 91.5 35.5t74.5 107.5l528 996
q27 52 27 72q0 19 -17.5 28.5t-60.5 15.5l-73 11l-5 80h1170q26 -180 26 -353l-122 -8q-17 159 -57.5 207.5t-157.5 48.5h-345v-545h285q54 0 73.5 21.5t33.5 95.5l8 45l106 4v-450l-106 4l-12 90q-6 44 -30.5 64t-72.5 20h-285v-483q0 -57 30 -74t128 -17h230
q117 0 157.5 48.5t57.5 207.5zM938 573v757l-389 -757h389z" />
    <glyph glyph-name="aeacute" unicode="&#x1fd;" horiz-adv-x="1656" 
d="M1098 1419l-396 -223q-38 32 -59 82l361 274q60 -57 94 -133zM1198 100q91 0 160.5 27t136.5 86l53 -96q-87 -76 -176.5 -109t-214.5 -33q-274 0 -395 217q-53 -103 -148 -160t-219 -57q-141 0 -226 81t-85 216q0 162 125.5 259.5t337.5 97.5q75 0 141 -10v102
q0 133 -41 195.5t-129 62.5q-44 0 -81 -16t-61.5 -38.5t-47 -45t-49 -38.5t-56.5 -16q-40 0 -64 26t-24 67q0 19 6 43q78 51 179 79.5t202 28.5q128 0 200.5 -38t103.5 -123q65 78 155.5 119.5t196.5 41.5q174 0 278.5 -117.5t104.5 -312.5q0 -70 -11.5 -92.5t-48.5 -22.5
l-612 -2q0 -209 85.5 -315.5t223.5 -106.5zM1147 963q-106 0 -171.5 -87t-81.5 -249h423q32 0 43.5 14.5t11.5 54.5q0 118 -62.5 192.5t-162.5 74.5zM444 98q85 0 154 56.5t114 165.5q-22 87 -24 194v6q-54 6 -127 6q-138 0 -210.5 -59.5t-72.5 -173.5q0 -92 44 -143.5
t122 -51.5z" />
    <glyph glyph-name="Oslashacute" unicode="&#x1fe;" horiz-adv-x="1556" 
d="M1036 1757l-395 -223q-38 32 -59 82l360 274q60 -57 94 -133zM1217 1522l-71 -151q147 -91 226.5 -258.5t79.5 -395.5q0 -220 -85 -390.5t-238.5 -265t-350.5 -94.5q-142 0 -263 48l-71 -152l-104 49l73 156q-147 94 -228 262.5t-81 386.5q0 228 86.5 399t239 260.5
t348.5 89.5q147 0 264 -45l70 150zM778 1354q-215 0 -339 -170.5t-124 -466.5q0 -159 43.5 -289.5t123.5 -216.5l502 1092q-93 51 -206 51zM778 80q206 0 334.5 177.5t128.5 459.5q0 344 -163 513l-504 -1095q92 -55 204 -55z" />
    <glyph glyph-name="oslashacute" unicode="&#x1ff;" horiz-adv-x="1179" 
d="M827 1419l-395 -223q-38 32 -59 82l360 274q60 -57 94 -133zM936 1137l-66 -142q209 -135 209 -473q0 -249 -137 -398t-352 -149q-95 0 -182 30l-66 -142l-98 45l68 145q-102 68 -157 188.5t-55 280.5q0 127 38.5 231.5t105.5 173t155.5 105.5t190.5 37q101 0 182 -27
l66 140zM590 963q-138 0 -213.5 -115t-75.5 -326q0 -203 81 -324l336 732q-58 33 -128 33zM590 82q131 0 210 119t79 321q0 215 -78 330l-337 -735q56 -35 126 -35z" />
    <glyph glyph-name="Scommaaccent" unicode="&#x218;" horiz-adv-x="1114" 
d="M322 1120q0 -61 24 -108.5t64 -79t92.5 -58t110 -50t115 -48.5t110 -60.5t92.5 -80.5t64 -113t24 -153q0 -177 -136 -289.5t-350 -112.5q-122 0 -232 31t-189 88q-11 90 -11 165q0 63 4 134l115 4q20 -154 102 -236.5t214 -82.5q128 0 211 75.5t83 190.5
q0 64 -23.5 114.5t-63.5 84.5t-92 62t-109.5 52t-115 49.5t-109.5 59.5t-92 76.5t-63.5 106.5t-23.5 144q0 161 126 271t312 110q115 0 230 -25.5t160 -25.5v-323l-109 -5q-29 143 -98 210t-189 67q-110 0 -178.5 -67.5t-68.5 -176.5zM555 -82q104 0 104 -135
q0 -97 -51 -161.5t-145 -86.5q-23 13 -29 45q47 20 69 50.5t25 79.5q-36 8 -57.5 36t-21.5 68q0 46 29.5 75t76.5 29z" />
    <glyph glyph-name="scommaaccent" unicode="&#x219;" horiz-adv-x="933" 
d="M299 821q0 -53 30 -93t77.5 -65.5t105 -48.5t115.5 -50t105.5 -61.5t77.5 -91t30 -130.5q0 -144 -106 -225t-294 -81q-96 0 -185 26t-146 71q-9 68 -9 116q0 52 4 109l103 6q25 -111 92.5 -175.5t159.5 -64.5q89 0 144.5 48.5t55.5 126.5q0 53 -29.5 94t-77 68
t-104.5 51.5t-114 52t-104.5 61.5t-77 88.5t-29.5 124.5q0 134 98.5 212.5t267.5 78.5q69 0 164 -26.5t142 -26.5v-250l-99 -6q-25 106 -82.5 163.5t-140.5 57.5q-78 0 -126 -44t-48 -116zM463 -82q104 0 104 -135q0 -97 -51 -161.5t-145 -86.5q-23 13 -29 45q47 20 69 50.5
t25 79.5q-36 8 -58 36t-22 68q0 46 30 75t77 29z" />
    <glyph glyph-name="uni021A" unicode="&#x21a;" horiz-adv-x="1323" 
d="M84 1434h1155q27 -187 27 -357l-123 -8q-17 160 -58 210t-157 50h-170v-1112q0 -66 20 -87.5t96 -33.5l95 -14l-4 -82h-598l4 82l110 18q48 8 66 33t18 84v1112h-170q-116 0 -157 -50t-58 -210l-123 8q0 170 27 357zM664 -82q104 0 104 -135q0 -97 -51.5 -161.5
t-145.5 -86.5q-21 12 -28 45q46 19 68 49.5t25 80.5q-36 8 -57.5 36t-21.5 68q0 46 30 75t77 29z" />
    <glyph glyph-name="uni021B" unicode="&#x21b;" horiz-adv-x="774" 
d="M717 166l37 -90q-133 -101 -289 -101q-130 0 -193 59.5t-63 182.5l2 719h-137l-4 86l141 22q27 109 64 191q16 37 29.5 48t39.5 11q20 0 55 -6v-244h342v-108h-342v-686q0 -144 144 -144q88 0 174 60zM467 -82q104 0 104 -135q0 -97 -51 -161.5t-145 -86.5q-23 13 -29 45
q47 20 69 50.5t25 79.5q-36 8 -58 36t-22 68q0 46 30 75t77 29z" />
    <glyph glyph-name="dotlessj" unicode="&#x237;" horiz-adv-x="569" 
d="M397 1069v-768q0 -450 -157 -618q-99 -107 -260 -134q-37 29 -37 91q0 63 65 86q13 5 64.5 15.5t77.5 27.5q37 25 47 111t10 368v579q0 59 -13 80t-55 29l-61 12l-4 74z" />
    <glyph glyph-name="schwa" unicode="&#x259;" horiz-adv-x="1062" 
d="M492 1069q224 0 346.5 -145.5t122.5 -401.5q0 -127 -38 -231.5t-103.5 -173t-152.5 -105.5t-186 -37q-180 0 -286.5 112.5t-106.5 301.5q0 71 11 93t48 22h615v18q0 209 -86 315.5t-225 106.5q-83 0 -146 -26.5t-131 -86.5l-53 97q88 76 171 108.5t200 32.5zM502 82
q105 0 170 82.5t83 236.5h-423q-32 0 -44 -14.5t-12 -54.5q0 -112 63 -181t163 -69z" />
    <glyph glyph-name="circumflex" unicode="&#x2c6;" 
d="M512 1546l299 -250q-19 -46 -61 -79l-244 154l-236 -154q-36 28 -57 79z" />
    <glyph glyph-name="caron" unicode="&#x2c7;" 
d="M518 1385l225 153q37 -29 58 -80l-289 -250l-289 250q19 47 62 80z" />
    <glyph glyph-name="breve" unicode="&#x2d8;" 
d="M326 1489q50 -133 188 -133t188 133q21 0 51 -12.5t42 -26.5q-34 -107 -106.5 -163t-176.5 -56t-176.5 56t-106.5 163q12 14 43.5 26.5t53.5 12.5z" />
    <glyph glyph-name="dotaccent" unicode="&#x2d9;" 
d="M387 1378q0 54 35.5 89.5t89.5 35.5t89.5 -35.5t35.5 -89.5t-35.5 -89.5t-89.5 -35.5t-89.5 35.5t-35.5 89.5z" />
    <glyph glyph-name="ring" unicode="&#x2da;" 
d="M315 1395q0 83 58.5 139.5t138.5 56.5q86 0 141.5 -53.5t55.5 -142.5q0 -83 -58.5 -140t-138.5 -57q-86 0 -141.5 54t-55.5 143zM412 1395q0 -46 29 -75.5t71 -29.5t71 29.5t29 75.5t-29 75t-71 29t-71 -29t-29 -75z" />
    <glyph glyph-name="ogonek" unicode="&#x2db;" 
d="M524 8l174 -8q-110 -28 -171.5 -84.5t-61.5 -130.5q0 -51 27 -80t73 -29q31 0 63 12.5t52 32.5q24 -28 31 -71q-78 -72 -199 -72q-89 0 -144 50t-55 130q0 84 62 157.5t149 92.5z" />
    <glyph glyph-name="tilde" unicode="&#x2dc;" 
d="M647 1399q80 0 135 67l31 -75q-26 -51 -80 -85t-108 -34q-65 0 -135 30.5t-113 30.5q-80 0 -135 -67l-31 75q26 51 80 85t108 34q65 0 135 -30.5t113 -30.5z" />
    <glyph glyph-name="hungarumlaut" unicode="&#x2dd;" 
d="M233 1231l105 354q78 -10 137 -51l-147 -338q-49 5 -95 35zM522 1239l135 346q77 -16 134 -61l-177 -328q-52 11 -92 43z" />
    <glyph glyph-name="gravecomb" unicode="&#x300;" horiz-adv-x="0" 
d="M379 1552l360 -274q-21 -50 -59 -82l-395 223q34 76 94 133z" />
    <glyph glyph-name="acutecomb" unicode="&#x301;" horiz-adv-x="0" 
d="M285 1278l360 274q60 -57 94 -133l-395 -223q-38 32 -59 82z" />
    <glyph glyph-name="uni0302" unicode="&#x302;" horiz-adv-x="0" 
d="M512 1546l299 -250q-19 -46 -61 -79l-244 154l-236 -154q-36 28 -57 79z" />
    <glyph glyph-name="tildecomb" unicode="&#x303;" horiz-adv-x="0" 
d="M647 1399q80 0 135 67l31 -75q-26 -51 -80 -85t-108 -34q-65 0 -135 30.5t-113 30.5q-80 0 -135 -67l-31 75q26 51 80 85t108 34q65 0 135 -30.5t113 -30.5z" />
    <glyph glyph-name="uni0304" unicode="&#x304;" horiz-adv-x="0" 
d="M782 1305h-540v118h540v-118z" />
    <glyph glyph-name="uni0306" unicode="&#x306;" horiz-adv-x="0" 
d="M326 1489q50 -133 188 -133t188 133q21 0 51 -12.5t42 -26.5q-34 -107 -106.5 -163t-176.5 -56t-176.5 56t-106.5 163q12 14 43.5 26.5t53.5 12.5z" />
    <glyph glyph-name="uni0307" unicode="&#x307;" horiz-adv-x="0" 
d="M387 1378q0 54 35.5 89.5t89.5 35.5t89.5 -35.5t35.5 -89.5t-35.5 -89.5t-89.5 -35.5t-89.5 35.5t-35.5 89.5z" />
    <glyph glyph-name="uni0308" unicode="&#x308;" horiz-adv-x="0" 
d="M213 1372q0 47 33 80t80 33t79.5 -33t32.5 -80t-32.5 -79.5t-79.5 -32.5t-80 32.5t-33 79.5zM586 1372q0 47 32.5 80t79.5 33t80 -33t33 -80t-33 -79.5t-80 -32.5t-79.5 32.5t-32.5 79.5z" />
    <glyph glyph-name="uni030A" unicode="&#x30a;" horiz-adv-x="0" 
d="M315 1395q0 83 58.5 139.5t138.5 56.5q86 0 141.5 -53.5t55.5 -142.5q0 -83 -58.5 -140t-138.5 -57q-86 0 -141.5 54t-55.5 143zM412 1395q0 -46 29 -75.5t71 -29.5t71 29.5t29 75.5t-29 75t-71 29t-71 -29t-29 -75z" />
    <glyph glyph-name="uni030B" unicode="&#x30b;" horiz-adv-x="0" 
d="M233 1231l105 354q78 -10 137 -51l-147 -338q-49 5 -95 35zM522 1239l135 346q77 -16 134 -61l-177 -328q-52 11 -92 43z" />
    <glyph glyph-name="uni030C" unicode="&#x30c;" horiz-adv-x="0" 
d="M518 1385l225 153q37 -29 58 -80l-289 -250l-289 250q19 47 62 80z" />
    <glyph glyph-name="uni0312" unicode="&#x312;" horiz-adv-x="0" 
d="M531 1416q36 -8 57.5 -35.5t21.5 -67.5q0 -46 -29.5 -75.5t-76.5 -29.5q-105 0 -105 135q0 97 51.5 161.5t145.5 86.5q23 -13 29 -45q-47 -20 -69 -50.5t-25 -79.5z" />
    <glyph glyph-name="uni0326" unicode="&#x326;" horiz-adv-x="0" 
d="M520 -82q105 0 105 -135q0 -97 -51.5 -161.5t-145.5 -86.5q-23 13 -29 45q47 20 69 50.5t25 79.5q-36 8 -57.5 36t-21.5 68q0 46 29.5 75t76.5 29z" />
    <glyph glyph-name="uni0327" unicode="&#x327;" horiz-adv-x="0" 
d="M575 20l-65 -131q88 0 140 -42t52 -113q0 -86 -61.5 -137.5t-165.5 -51.5q-90 0 -153 54q7 44 32 69q52 -41 115 -41q44 0 69 23t25 63q0 88 -137 88l-25 41l80 178h94z" />
    <glyph glyph-name="Delta" unicode="&#x394;" horiz-adv-x="1447" 
d="M1397 0h-1346l613 1440h120zM246 111h901l-451 1056z" />
    <glyph glyph-name="Omega" unicode="&#x3a9;" horiz-adv-x="1593" 
d="M1389 307l104 -8q0 -125 -27 -299h-587v133q99 25 176.5 118t120.5 236t43 312q0 264 -105.5 409.5t-316.5 145.5t-316.5 -145.5t-105.5 -409.5q0 -169 43 -312t120.5 -236t176.5 -118v-133h-588q-27 174 -27 299l105 8q17 -106 63.5 -145t155.5 -39h148
q-179 67 -293.5 254t-114.5 422q0 311 169 489t464 178q309 0 471 -176t162 -491q0 -231 -118.5 -419t-293.5 -257h151q109 0 156 39t64 145z" />
    <glyph glyph-name="mu" unicode="&#x3bc;" horiz-adv-x="1267" 
d="M1190 92l-4 -82l-301 -30q-17 63 -22 173q-54 -85 -138 -131.5t-184 -46.5q-89 0 -150 41q6 -82 6 -159v-263l-188 -40v1273q0 60 -13 80t-57 29l-61 12l-4 74l323 47v-729q0 -242 193 -242q170 0 260 167v562q0 60 -15 79t-69 30l-61 12l-5 74l338 47v-854q0 -60 18 -84
t72 -31z" />
    <glyph glyph-name="pi" unicode="&#x3c0;" horiz-adv-x="1310" 
d="M1032 936v-725q0 -68 17 -89.5t71 -21.5q44 0 84 4l4 -86q-92 -38 -182 -38q-103 0 -142.5 43.5t-39.5 160.5v752h-416v-936h-188v936h-207l14 129h1204v-129h-219z" />
    <glyph glyph-name="Wgrave" unicode="&#x1e80;" horiz-adv-x="2095" 
d="M915 1890l361 -274q-21 -50 -59 -82l-396 223q34 76 94 133zM2099 1434l-4 -80l-57 -6q-61 -7 -91 -45t-71 -162l-381 -1147h-123l-318 1073l-352 -1073h-122l-349 1147q-38 123 -66 160.5t-89 46.5l-43 6l-4 80h524l-4 -80l-57 -6q-53 -6 -74.5 -20.5t-21.5 -51.5
q0 -39 28 -135l245 -856l359 1149h107l326 -1149l270 856q31 98 31 136t-27.5 52.5t-98.5 20.5l-47 4l4 80h506z" />
    <glyph glyph-name="wgrave" unicode="&#x1e81;" horiz-adv-x="1675" 
d="M725 1552l360 -274q-21 -50 -59 -82l-395 223q34 76 94 133zM1671 1044l-4 -77l-27 -6q-54 -13 -76.5 -36t-47.5 -91l-306 -838h-129l-238 744l-268 -744h-129l-276 838q-25 75 -43.5 98t-60.5 29l-41 6l-5 77h467l-4 -77l-55 -9q-48 -7 -67.5 -19.5t-19.5 -40.5
q0 -25 13 -64l190 -595l273 805h107l254 -805l200 595q19 59 19 75q0 25 -21 35t-78 17l-51 6l4 77h420z" />
    <glyph glyph-name="Wacute" unicode="&#x1e82;" horiz-adv-x="2095" 
d="M1341 1757l-395 -223q-38 32 -59 82l360 274q60 -57 94 -133zM2099 1434l-4 -80l-57 -6q-61 -7 -91 -45t-71 -162l-381 -1147h-123l-318 1073l-352 -1073h-122l-349 1147q-38 123 -66 160.5t-89 46.5l-43 6l-4 80h524l-4 -80l-57 -6q-53 -6 -74.5 -20.5t-21.5 -51.5
q0 -39 28 -135l245 -856l359 1149h107l326 -1149l270 856q31 98 31 136t-27.5 52.5t-98.5 20.5l-47 4l4 80h506z" />
    <glyph glyph-name="wacute" unicode="&#x1e83;" horiz-adv-x="1675" 
d="M1110 1419l-395 -223q-39 34 -60 82l361 274q60 -57 94 -133zM1671 1044l-4 -77l-27 -6q-54 -13 -76.5 -36t-47.5 -91l-306 -838h-129l-238 744l-268 -744h-129l-276 838q-25 75 -43.5 98t-60.5 29l-41 6l-5 77h467l-4 -77l-55 -9q-48 -7 -67.5 -19.5t-19.5 -40.5
q0 -25 13 -64l190 -595l273 805h107l254 -805l200 595q19 59 19 75q0 25 -21 35t-78 17l-51 6l4 77h420z" />
    <glyph glyph-name="Wdieresis" unicode="&#x1e84;" horiz-adv-x="2095" 
d="M895 1597q-47 0 -80 33t-33 80t33 80t80 33t80 -33t33 -80t-33 -80t-80 -33zM1268 1597q-47 0 -80 33t-33 80t33 80t80 33t79.5 -33t32.5 -80t-32.5 -80t-79.5 -33zM2099 1434l-4 -80l-57 -6q-61 -7 -91 -45t-71 -162l-381 -1147h-123l-318 1073l-352 -1073h-122
l-349 1147q-38 123 -66 160.5t-89 46.5l-43 6l-4 80h524l-4 -80l-57 -6q-53 -6 -74.5 -20.5t-21.5 -51.5q0 -39 28 -135l245 -856l359 1149h107l326 -1149l270 856q31 98 31 136t-27.5 52.5t-98.5 20.5l-47 4l4 80h506z" />
    <glyph glyph-name="wdieresis" unicode="&#x1e85;" horiz-adv-x="1675" 
d="M684 1260q-47 0 -80 32.5t-33 79.5t33 80t80 33t80 -33t33 -80t-33 -79.5t-80 -32.5zM1057 1260q-47 0 -80 32.5t-33 79.5t33 80t80 33t79.5 -33t32.5 -80t-32.5 -79.5t-79.5 -32.5zM1671 1044l-4 -77l-27 -6q-54 -13 -76.5 -36t-47.5 -91l-306 -838h-129l-238 744
l-268 -744h-129l-276 838q-25 75 -43.5 98t-60.5 29l-41 6l-5 77h467l-4 -77l-55 -9q-48 -7 -67.5 -19.5t-19.5 -40.5q0 -25 13 -64l190 -595l273 805h107l254 -805l200 595q19 59 19 75q0 25 -21 35t-78 17l-51 6l4 77h420z" />
    <glyph glyph-name="Ygrave" unicode="&#x1ef2;" horiz-adv-x="1335" 
d="M547 1890l360 -274q-21 -50 -59 -82l-395 223q34 76 94 133zM1335 1434l-4 -80l-39 -4q-31 -3 -46.5 -8t-32 -13t-35.5 -35t-38.5 -56.5t-58.5 -96.5l-319 -539v-385q0 -66 20.5 -87.5t96.5 -33.5l94 -14l-4 -82h-598l4 82l110 18q48 8 66 33t18 84v385l-317 539
q-48 82 -68 114t-43.5 57t-37.5 29t-46 9l-28 4l-4 80h530l-4 -80l-57 -6q-94 -10 -94 -65q0 -35 36 -97l265 -448l260 448q36 63 36 97q0 56 -104 65l-68 6l4 80h506z" />
    <glyph glyph-name="ygrave" unicode="&#x1ef3;" horiz-adv-x="1130" 
d="M424 1552l360 -274q-21 -50 -59 -82l-395 223q34 76 94 133zM1126 1044l-4 -77l-26 -7q-53 -12 -74.5 -33.5t-50.5 -92.5l-357 -863q-102 -246 -197.5 -334t-266.5 -88q-22 0 -54 7q-24 40 -24 79q0 41 25.5 66t68.5 25q20 0 52.5 -7.5t49.5 -7.5q67 0 108.5 44.5
t94.5 176.5l28 69q-25 41 -53 114l-282 719q-31 79 -48.5 100t-56.5 27l-41 6l-4 77h475l-4 -77l-55 -9q-47 -7 -68 -21.5t-21 -41.5q0 -23 15 -61l237 -610l241 610q18 45 18 69q0 26 -22.5 39t-75.5 19l-52 6l5 77h419z" />
    <glyph glyph-name="enspace" unicode="&#x2002;" 
 />
    <glyph glyph-name="uni2003" unicode="&#x2003;" horiz-adv-x="2048" 
 />
    <glyph glyph-name="uni2004" unicode="&#x2004;" horiz-adv-x="681" 
 />
    <glyph glyph-name="uni2005" unicode="&#x2005;" horiz-adv-x="512" 
 />
    <glyph glyph-name="uni2006" unicode="&#x2006;" horiz-adv-x="339" 
 />
    <glyph glyph-name="uni2007" unicode="&#x2007;" horiz-adv-x="1155" 
 />
    <glyph glyph-name="uni2008" unicode="&#x2008;" horiz-adv-x="577" 
 />
    <glyph glyph-name="uni2009" unicode="&#x2009;" horiz-adv-x="256" 
 />
    <glyph glyph-name="uni200A" unicode="&#x200a;" horiz-adv-x="153" 
 />
    <glyph glyph-name="zerowidthspace" unicode="&#x200b;" horiz-adv-x="0" 
 />
    <glyph glyph-name="endash" unicode="&#x2013;" horiz-adv-x="1310" 
d="M1167 494h-1024v127h1024v-127z" />
    <glyph glyph-name="emdash" unicode="&#x2014;" horiz-adv-x="2334" 
d="M2191 494h-2048v127h2048v-127z" />
    <glyph glyph-name="quoteleft" unicode="&#x2018;" horiz-adv-x="489" 
d="M261 1300q47 -9 75.5 -44.5t28.5 -86.5q0 -58 -37.5 -95.5t-96.5 -37.5q-65 0 -99 44.5t-34 129.5q0 128 76 231t188 128q29 -16 39 -58q-70 -29 -103 -79t-37 -132z" />
    <glyph glyph-name="quoteright" unicode="&#x2019;" horiz-adv-x="493" 
d="M268 1544q65 0 99 -44.5t34 -129.5q0 -128 -76 -230.5t-188 -127.5q-29 16 -39 57q70 29 103.5 79.5t37.5 132.5q-47 9 -75.5 44t-28.5 86q0 59 37.5 96t95.5 37z" />
    <glyph glyph-name="quotesinglbase" unicode="&#x201a;" horiz-adv-x="489" 
d="M242 242q65 0 99 -44.5t34 -129.5q0 -128 -76 -231t-188 -128q-29 16 -39 58q70 29 103.5 79.5t37.5 131.5q-47 9 -75.5 44.5t-28.5 86.5q0 59 37.5 96t95.5 37z" />
    <glyph glyph-name="quotedblleft" unicode="&#x201c;" horiz-adv-x="884" 
d="M401 1511q-70 -29 -103 -79t-37 -132q47 -9 75.5 -44.5t28.5 -86.5q0 -58 -37.5 -95.5t-96.5 -37.5q-65 0 -99 44.5t-34 129.5q0 128 76 231t188 128q29 -16 39 -58zM656 1300q47 -9 75.5 -44.5t28.5 -86.5q0 -59 -37 -96t-96 -37q-65 0 -99 44.5t-34 129.5q0 128 76 231
t188 128q29 -16 39 -58q-70 -29 -103.5 -79.5t-37.5 -131.5z" />
    <glyph glyph-name="quotedblright" unicode="&#x201d;" horiz-adv-x="888" 
d="M268 1544q65 0 99 -44.5t34 -129.5q0 -128 -76 -230.5t-188 -127.5q-29 16 -39 57q70 29 103.5 79.5t37.5 132.5q-47 9 -75.5 44t-28.5 86q0 59 37.5 96t95.5 37zM664 1544q65 0 99 -44.5t34 -129.5q0 -127 -76 -230t-189 -128q-28 16 -38 57q70 29 103 79.5t37 132.5
q-47 9 -75.5 44t-28.5 86q0 58 37.5 95.5t96.5 37.5z" />
    <glyph glyph-name="quotedblbase" unicode="&#x201e;" horiz-adv-x="884" 
d="M242 242q65 0 99 -44.5t34 -129.5q0 -128 -76 -231t-188 -128q-29 16 -39 58q70 29 103.5 79.5t37.5 131.5q-47 9 -75.5 44.5t-28.5 86.5q0 59 37.5 96t95.5 37zM637 242q65 0 99 -44.5t34 -129.5q0 -128 -76 -231t-188 -128q-29 16 -39 58q70 29 103.5 79.5t37.5 131.5
q-47 9 -75.5 44.5t-28.5 86.5q0 59 37 96t96 37z" />
    <glyph glyph-name="dagger" unicode="&#x2020;" horiz-adv-x="1005" 
d="M948 967v-162l-76 -4l-16 10q-29 18 -84 18h-192v-645q0 -263 -27 -542h-100q-27 279 -27 542v645h-193q-55 0 -83 -18l-17 -10l-76 4v162l76 4l17 -10q30 -19 83 -19h193v336q0 30 -7 44.5t-26 23.5l-24 12l4 76h260l4 -76l-25 -12q-19 -9 -25.5 -23t-6.5 -45v-336h192
q54 0 84 19l16 10z" />
    <glyph glyph-name="daggerdbl" unicode="&#x2021;" horiz-adv-x="1124" 
d="M639 829v-583h192q55 0 84 18l17 10l76 -4v-161l-76 -5l-17 11q-29 18 -84 18h-192v-336q0 -30 7 -44t26 -23l24 -13l-4 -75h-260l-4 75l25 13q19 9 25.5 22.5t6.5 44.5v336h-192q-55 0 -84 -18l-16 -11l-76 5v161l76 4l16 -10q29 -18 84 -18h192v583h-192q-55 0 -84 -18
l-16 -10l-76 4v162l76 4l16 -10q30 -19 84 -19h192v336q0 31 -6.5 45t-25.5 23l-25 12l4 76h260l4 -76l-24 -12q-19 -9 -26 -23.5t-7 -44.5v-336h192q54 0 84 19l17 10l76 -4v-162l-76 -4l-17 10q-29 18 -84 18h-192z" />
    <glyph glyph-name="bullet" unicode="&#x2022;" horiz-adv-x="864" 
d="M150 678q0 122 80.5 202.5t201.5 80.5q122 0 202.5 -80.5t80.5 -202.5t-80.5 -202.5t-202.5 -80.5q-121 0 -201.5 80.5t-80.5 202.5z" />
    <glyph glyph-name="ellipsis" unicode="&#x2026;" horiz-adv-x="1425" 
d="M109 109q0 59 37.5 96t95.5 37t95.5 -37t37.5 -96t-37.5 -96.5t-95.5 -37.5t-95.5 37.5t-37.5 96.5zM580 109q0 59 37 96t96 37t96 -37t37 -96t-37.5 -96.5t-95.5 -37.5t-95.5 37.5t-37.5 96.5zM1051 109q0 59 37.5 96t95.5 37t95.5 -37t37.5 -96t-37.5 -96.5
t-95.5 -37.5t-95.5 37.5t-37.5 96.5z" />
    <glyph glyph-name="perthousand" unicode="&#x2030;" horiz-adv-x="2676" 
d="M455 -102h-140l1063 1638h140zM63 1073q0 178 99.5 277.5t253.5 99.5q171 0 261.5 -96.5t90.5 -280.5q0 -177 -97.5 -278t-254.5 -101q-165 0 -259 100t-94 279zM229 1073q0 -132 51 -207t136 -75q84 0 135 75t51 207q0 137 -48.5 209t-137.5 72t-138 -72t-49 -209z
M1065 362q0 178 99 277.5t253 99.5q171 0 261.5 -96.5t90.5 -280.5q0 -176 -97.5 -277t-254.5 -101q-165 0 -258.5 99.5t-93.5 278.5zM1909 362q0 178 99 277.5t253 99.5q171 0 261.5 -96.5t90.5 -280.5q0 -176 -97.5 -277t-254.5 -101q-165 0 -258.5 99.5t-93.5 278.5z
M1231 362q0 -132 51 -207t135 -75q85 0 136 75t51 207q0 137 -49 209t-138 72t-137.5 -72t-48.5 -209zM2075 362q0 -132 51 -207t135 -75t135 75t51 207q0 137 -48.5 209t-137.5 72t-137.5 -72t-48.5 -209z" />
    <glyph glyph-name="guilsinglleft" unicode="&#x2039;" horiz-adv-x="643" 
d="M539 881l-258 -349q146 -216 258 -368l-74 -60q-109 54 -385 418q276 364 385 418z" />
    <glyph glyph-name="guilsinglright" unicode="&#x203a;" horiz-adv-x="643" 
d="M104 881l74 59q109 -54 385 -418q-276 -364 -385 -418l-74 60l258 349q-146 216 -258 368z" />
    <glyph glyph-name="fraction" unicode="&#x2044;" horiz-adv-x="411" 
d="M-256 -102h-139l1063 1638h139z" />
    <glyph glyph-name="Euro" unicode="&#x20ac;" horiz-adv-x="1462" 
d="M1339 387v-313q-209 -107 -438 -107q-273 0 -438 152t-204 428h-187v96h178q-2 48 -2 74q0 50 2 74h-178v96h190q46 268 222 423.5t417 155.5q97 0 226 -23.5t200 -23.5q4 -60 4 -170t-4 -174l-113 -8q-17 150 -91 218.5t-222 68.5q-174 0 -286.5 -123t-144.5 -344h476
v-96h-485q-2 -48 -2 -74t2 -74h485v-96h-475q32 -217 142.5 -342t287.5 -125q159 0 236 74t94 241z" />
    <glyph glyph-name="uni2113" unicode="&#x2113;" horiz-adv-x="811" 
d="M526 106q99 0 185 60l16 -90q-70 -54 -134.5 -77.5t-144.5 -23.5q-130 0 -191.5 59.5t-61.5 182.5v249q-2 -1 -82 -44l-33 94q63 36 115 68v438q0 258 74 371.5t243 113.5q117 0 182.5 -81t65.5 -224q0 -175 -92.5 -327t-284.5 -290v-335q0 -144 143 -144zM383 1106v-381
q107 99 154 211t47 258q0 201 -92 201q-59 0 -84 -67t-25 -222z" />
    <glyph glyph-name="uni2116" unicode="&#x2116;" horiz-adv-x="2349" 
d="M1929 729q-161 0 -252.5 96t-91.5 265t97 264.5t247 95.5q167 0 255.5 -92.5t88.5 -267.5q0 -166 -95.5 -263.5t-248.5 -97.5zM993 1434h482l-5 -80l-90 -13q-48 -7 -66 -28t-18 -68v-1245h-170l-567 899q-113 180 -165 311q7 -102 7 -225v-797q0 -52 20 -68.5t97 -29.5
l62 -10l-5 -80h-477l4 80l78 14q49 9 66.5 28.5t17.5 65.5v1057q0 52 -20 69.5t-97 31.5l-45 8l-4 80h344l567 -899q108 -171 156 -287q-6 99 -6 201v796q0 52 -20 69.5t-97 31.5l-45 8zM1929 1366q-172 0 -172 -276q0 -130 46 -203.5t126 -73.5t126 73.5t46 203.5
q0 276 -172 276zM1620 590h618v-92h-618v92z" />
    <glyph glyph-name="uni2117" unicode="&#x2117;" horiz-adv-x="1740" 
d="M870 1487q220 0 396 -99t275 -275t99 -396q0 -218 -103.5 -395.5t-279.5 -276t-387 -98.5t-387 98.5t-279.5 276t-103.5 395.5t103.5 395.5t279.5 276t387 98.5zM870 61q133 0 251.5 49.5t204.5 136t136.5 209t50.5 261.5q0 186 -86 336.5t-233 234.5t-324 84t-324 -84
t-233 -234.5t-86 -336.5q0 -139 50.5 -261.5t136.5 -209t204.5 -136t251.5 -49.5zM887 1065q149 0 220 -53t71 -164q0 -101 -81 -159t-222 -58q-25 0 -66 3v-140q0 -31 8.5 -41t40.5 -15l53 -8l-2 -57h-329l2 57l32 6q24 5 31.5 14t7.5 33v467q0 26 -8.5 34.5t-40.5 14.5
l-22 5l-2 57h67q46 0 122.5 2t117.5 2zM875 704q68 0 104.5 37.5t36.5 106.5q0 75 -32.5 110t-100.5 35q-30 0 -74 -4v-281q54 -4 66 -4z" />
    <glyph glyph-name="trademark" unicode="&#x2122;" horiz-adv-x="1892" 
d="M104 1434h627q14 -92 14 -189l-92 -4q-7 75 -25.5 97t-74.5 22h-57v-494q0 -31 8.5 -42t40.5 -15l43 -6l-2 -58h-334l2 58l47 8q23 4 31 15t8 40v494h-57q-56 0 -75 -22t-26 -97l-92 4q0 97 14 189zM1776 803l-2 -58h-299l2 58l30 6q23 4 31 14t6 33l-19 240
q-8 93 -8 184q-30 -96 -78 -213l-130 -322h-123l-122 322q-46 124 -68 213q-3 -104 -11 -184l-22 -240q0 -2 -0.5 -6t-0.5 -6q0 -18 9.5 -25.5t36.5 -11.5l28 -4l-2 -58h-241l2 58l30 6q23 4 30 12.5t9 34.5l43 467q2 25 -6.5 33.5t-42.5 15.5l-20 4l-2 58h256l183 -520
l197 520h265l-2 -58l-37 -4q-24 -3 -32.5 -13.5t-6.5 -35.5l39 -467q2 -28 10.5 -36.5t38.5 -12.5z" />
    <glyph glyph-name="Ohm" unicode="&#x2126;" horiz-adv-x="1593" 
d="M1389 307l104 -8q0 -125 -27 -299h-587v133q99 25 176.5 118t120.5 236t43 312q0 264 -105.5 409.5t-316.5 145.5t-316.5 -145.5t-105.5 -409.5q0 -169 43 -312t120.5 -236t176.5 -118v-133h-588q-27 174 -27 299l105 8q17 -106 63.5 -145t155.5 -39h148
q-179 67 -293.5 254t-114.5 422q0 311 169 489t464 178q309 0 471 -176t162 -491q0 -231 -118.5 -419t-293.5 -257h151q109 0 156 39t64 145z" />
    <glyph glyph-name="estimated" unicode="&#x212e;" horiz-adv-x="1589" 
d="M393 653v-327q73 -113 183.5 -173.5t230.5 -60.5q85 0 159 22.5t126.5 61t89.5 82.5t61 94h187q-35 -74 -89.5 -139.5t-130.5 -122t-180 -90t-223 -33.5q-155 0 -287.5 59t-223.5 160.5t-142.5 239t-51.5 291.5q0 213 94 385t255 268t356 96q220 0 381 -97t242 -265
t81 -387q0 -44 -2 -64h-1116zM807 1341q-128 0 -236 -54.5t-178 -161.5v-334h836v321q-70 114 -180 171.5t-242 57.5z" />
    <glyph glyph-name="uni2153" unicode="&#x2153;" horiz-adv-x="1693" 
d="M1370 1536l-1063 -1638h-139l1063 1638h139zM80 649l72 10q42 6 58.5 18t16.5 40v586q-58 -24 -127 -37l-32 -6l-13 65l236 117h96v-725q0 -32 15 -42.5t65 -17.5l57 -8l-2 -67h-444zM1415 454q100 -17 152.5 -71.5t52.5 -142.5q0 -119 -88.5 -186.5t-243.5 -67.5
q-145 0 -250 57q-4 16 -4 33q0 74 66 74q25 0 46.5 -13t35.5 -28t43 -28t67 -13q70 0 114 47.5t44 124.5q0 82 -59.5 120.5t-184.5 38.5q-29 0 -57 -4l-6 90q141 0 208.5 38.5t67.5 119.5q0 131 -143 131q-96 0 -184 -72l-31 93q96 75 258 75q131 0 200.5 -53.5t69.5 -154.5
q0 -76 -46.5 -131.5t-127.5 -76.5z" />
    <glyph glyph-name="uni2154" unicode="&#x2154;" horiz-adv-x="1816" 
d="M1493 1536l-1063 -1638h-139l1063 1638h139zM616 582h-550v88q360 296 360 520q0 82 -33.5 119t-107.5 37q-48 0 -99 -23t-88 -61l-30 104q44 40 115 63t149 23q130 0 197 -62t67 -184q0 -266 -358 -517q66 7 174 7h204v-114zM1538 454q100 -17 152.5 -71.5t52.5 -142.5
q0 -119 -88.5 -186.5t-243.5 -67.5q-145 0 -250 57q-4 16 -4 33q0 74 66 74q25 0 46.5 -13t35.5 -28t43 -28t67 -13q70 0 114 47.5t44 124.5q0 82 -59.5 120.5t-184.5 38.5q-29 0 -57 -4l-6 90q141 0 208.5 38.5t67.5 119.5q0 131 -143 131q-97 0 -185 -72l-30 93
q96 75 258 75q131 0 200.5 -53.5t69.5 -154.5q0 -76 -46.5 -131.5t-127.5 -76.5z" />
    <glyph glyph-name="uni2155" unicode="&#x2155;" horiz-adv-x="1697" 
d="M1370 1536l-1063 -1638h-139l1063 1638h139zM80 649l72 10q42 6 58.5 18t16.5 40v586q-58 -24 -127 -37l-32 -6l-13 65l236 117h96v-725q0 -32 15 -42.5t65 -17.5l57 -8l-2 -67h-444zM1360 524q120 0 193 -73.5t73 -194.5q0 -130 -87 -200t-243 -70q-144 0 -249 57
q-5 20 -5 33q0 74 66 74q25 0 46.5 -13t35.5 -28t43 -28t67 -13q72 0 115 50t43 138q0 76 -44 120t-120 44q-81 0 -137 -62l-90 27l53 467h488v-123h-391l-33 -266q64 61 176 61z" />
    <glyph glyph-name="uni2156" unicode="&#x2156;" horiz-adv-x="1820" 
d="M1493 1536l-1063 -1638h-139l1063 1638h139zM616 582h-550v88q360 296 360 520q0 82 -33.5 119t-107.5 37q-48 0 -99 -23t-88 -61l-30 104q44 40 115 63t149 23q130 0 197 -62t67 -184q0 -266 -358 -517q66 7 174 7h204v-114zM1483 524q120 0 193 -73.5t73 -194.5
q0 -130 -87 -200t-243 -70q-145 0 -250 57q-4 16 -4 33q0 74 66 74q25 0 46.5 -13t35.5 -28t43 -28t67 -13q72 0 115 50t43 138q0 76 -43.5 120t-120.5 44q-81 0 -137 -62l-90 27l53 467h488v-123h-392l-32 -266q64 61 176 61z" />
    <glyph glyph-name="uni2157" unicode="&#x2157;" horiz-adv-x="1853" 
d="M1526 1536l-1063 -1638h-139l1062 1638h140zM645 821q0 -119 -88.5 -186.5t-243.5 -67.5q-143 0 -250 58q-4 16 -4 32q0 74 66 74q25 0 46.5 -13t35.5 -28t43 -28t67 -13q70 0 114 47.5t44 124.5q0 82 -59.5 121t-184.5 39q-29 0 -57 -4l-6 90q141 0 208.5 38.5
t67.5 119.5q0 131 -143 131q-96 0 -184 -72l-31 92q98 76 258 76q131 0 200.5 -54t69.5 -155q0 -76 -46.5 -131.5t-127.5 -76.5q100 -17 152.5 -71.5t52.5 -142.5zM1516 524q120 0 193 -73.5t73 -194.5q0 -130 -87 -200t-243 -70q-145 0 -250 57q-4 16 -4 33q0 74 66 74
q25 0 46.5 -13t35.5 -28t43 -28t67 -13q72 0 115 50t43 138q0 76 -44 120t-120 44q-81 0 -137 -62l-90 27l53 467h487v-123h-391l-32 -266q64 61 176 61z" />
    <glyph glyph-name="uni2158" unicode="&#x2158;" horiz-adv-x="1894" 
d="M1567 1536l-1063 -1638h-139l1062 1638h140zM442 801h-401v67l410 568h145v-533h102v-102h-102v-219h-154v219zM449 903v358l-265 -358h265zM1556 524q120 0 193.5 -73.5t73.5 -194.5q0 -130 -87 -200t-243 -70q-145 0 -250 57q-4 16 -4 33q0 74 66 74q25 0 46.5 -13
t35.5 -28t43 -28t67 -13q72 0 115 50t43 138q0 76 -43.5 120t-120.5 44q-81 0 -137 -62l-90 27l53 467h487v-123h-391l-32 -266q64 61 175 61z" />
    <glyph glyph-name="uni2159" unicode="&#x2159;" horiz-adv-x="1736" 
d="M1370 1536l-1063 -1638h-139l1063 1638h139zM80 649l72 10q42 6 58.5 18t16.5 40v586q-58 -24 -127 -37l-32 -6l-13 65l236 117h96v-725q0 -32 15 -42.5t65 -17.5l57 -8l-2 -67h-444zM1417 537q117 0 184.5 -72.5t67.5 -198.5q0 -127 -84.5 -203.5t-224.5 -76.5
q-156 0 -232.5 98.5t-76.5 298.5q0 231 107 359t302 128q108 0 187 -30l-19 -97q-73 33 -156 33q-129 0 -199 -96t-73 -277q26 63 82.5 98.5t134.5 35.5zM1364 74q63 0 102 49.5t39 132.5t-34 131.5t-97 48.5q-64 0 -105.5 -49.5t-41.5 -130.5q0 -84 36.5 -133t100.5 -49z
" />
    <glyph glyph-name="uni215A" unicode="&#x215a;" horiz-adv-x="1896" 
d="M1530 1536l-1063 -1638h-139l1063 1638h139zM651 838q0 -130 -86.5 -200.5t-242.5 -70.5q-143 0 -250 58q-4 16 -4 32q0 74 65 74q25 0 46.5 -13t36 -28t43.5 -28t67 -13q71 0 114 50.5t43 138.5q0 76 -43.5 119.5t-120.5 43.5q-82 0 -137 -61l-90 27l53 467h488v-123
h-391l-32 -266q64 61 175 61q120 0 193 -73.5t73 -194.5zM1577 537q117 0 184.5 -72.5t67.5 -198.5q0 -127 -84.5 -203.5t-224.5 -76.5q-157 0 -233.5 98.5t-76.5 298.5q0 231 107.5 359t302.5 128q106 0 186 -30l-18 -97q-73 33 -156 33q-129 0 -199 -96t-73 -277
q26 63 82.5 98.5t134.5 35.5zM1524 74q63 0 102 49.5t39 132.5t-34 131.5t-97 48.5q-64 0 -106 -49.5t-42 -130.5q0 -84 37 -133t101 -49z" />
    <glyph glyph-name="oneeighth" unicode="&#x215b;" horiz-adv-x="1730" 
d="M1370 1536l-1063 -1638h-139l1063 1638h139zM80 649l72 10q42 6 58.5 18t16.5 40v586q-58 -24 -127 -37l-32 -6l-13 65l236 117h96v-725q0 -32 15 -42.5t65 -17.5l57 -8l-2 -67h-444zM1462 477q44 -21 74.5 -40t61 -47.5t46 -67t15.5 -86.5q0 -110 -87 -180t-224 -70
q-140 0 -219.5 61t-79.5 170q0 75 46.5 132.5t130.5 88.5q-71 38 -111 87t-40 124q0 100 77 160.5t206 60.5q126 0 198 -52t72 -144q0 -68 -43.5 -119t-122.5 -78zM1358 791q-57 0 -90 -32t-33 -87q0 -53 36.5 -88.5t104.5 -67.5q107 50 107 154q0 58 -32.5 89.5t-92.5 31.5
zM1348 66q72 0 111.5 36.5t39.5 102.5q0 36 -14 65t-45 52.5t-57 38t-72 36.5q-117 -55 -117 -178q0 -70 41.5 -111.5t112.5 -41.5z" />
    <glyph glyph-name="threeeighths" unicode="&#x215c;" horiz-adv-x="1886" 
d="M1526 1536l-1063 -1638h-139l1062 1638h140zM645 821q0 -119 -88.5 -186.5t-243.5 -67.5q-143 0 -250 58q-4 16 -4 32q0 74 66 74q25 0 46.5 -13t35.5 -28t43 -28t67 -13q70 0 114 47.5t44 124.5q0 82 -59.5 121t-184.5 39q-29 0 -57 -4l-6 90q141 0 208.5 38.5
t67.5 119.5q0 131 -143 131q-96 0 -184 -72l-31 92q98 76 258 76q131 0 200.5 -54t69.5 -155q0 -76 -46.5 -131.5t-127.5 -76.5q100 -17 152.5 -71.5t52.5 -142.5zM1617 477q45 -21 75 -40t61 -47.5t46.5 -67t15.5 -86.5q0 -110 -87.5 -180t-224.5 -70q-140 0 -219.5 61
t-79.5 170q0 75 47 132.5t131 88.5q-71 38 -111 87t-40 124q0 100 76.5 160.5t205.5 60.5q126 0 198.5 -52t72.5 -144q0 -68 -44 -119t-123 -78zM1513 791q-57 0 -89.5 -31.5t-32.5 -87.5q0 -53 36 -88.5t104 -67.5q107 50 107 154q0 58 -32.5 89.5t-92.5 31.5zM1503 66
q72 0 112 36.5t40 102.5q0 36 -14 65t-45.5 52.5t-57 38t-72.5 36.5q-116 -55 -116 -178q0 -71 41 -112t112 -41z" />
    <glyph glyph-name="fiveeighths" unicode="&#x215d;" horiz-adv-x="1890" 
d="M1530 1536l-1063 -1638h-139l1063 1638h139zM651 838q0 -130 -86.5 -200.5t-242.5 -70.5q-143 0 -250 58q-4 16 -4 32q0 74 65 74q25 0 46.5 -13t36 -28t43.5 -28t67 -13q71 0 114 50.5t43 138.5q0 76 -43.5 119.5t-120.5 43.5q-82 0 -137 -61l-90 27l53 467h488v-123
h-391l-32 -266q64 61 175 61q120 0 193 -73.5t73 -194.5zM1621 477q45 -21 75 -40t61 -47.5t46.5 -67t15.5 -86.5q0 -110 -87.5 -180t-224.5 -70q-140 0 -219.5 61t-79.5 170q0 75 47 132.5t131 88.5q-71 38 -111 87t-40 124q0 100 77 160.5t206 60.5q126 0 198 -52t72 -144
q0 -68 -44 -119t-123 -78zM1518 791q-57 0 -90 -32t-33 -87q0 -53 36 -88.5t104 -67.5q107 50 107 154q0 59 -32 90t-92 31zM1507 66q72 0 112 36.5t40 102.5q0 36 -14 65t-45 52.5t-57 38t-72 36.5q-117 -55 -117 -178q0 -71 41 -112t112 -41z" />
    <glyph glyph-name="seveneighths" unicode="&#x215e;" horiz-adv-x="1753" 
d="M1393 1536l-1063 -1638h-140l1063 1638h140zM301 575q-27 -6 -57 -6q-92 0 -92 80q0 57 65 214q92 224 258 448h-426v123h565l4 -76l-76 -143q-145 -274 -204 -488q-23 -83 -37 -152zM1484 477q44 -21 74.5 -40t61 -47.5t46 -67t15.5 -86.5q0 -110 -87 -180t-224 -70
q-140 0 -219.5 61t-79.5 170q0 75 47 132.5t131 88.5q-71 38 -111 87t-40 124q0 100 76.5 160.5t205.5 60.5q126 0 198.5 -52t72.5 -144q0 -68 -44 -119t-123 -78zM1380 791q-57 0 -90 -32t-33 -87q0 -53 36.5 -88.5t104.5 -67.5q107 50 107 154q0 58 -32.5 89.5t-92.5 31.5
zM1370 66q72 0 112 36.5t40 102.5q0 36 -14 65t-45.5 52.5t-57 38t-72.5 36.5q-116 -55 -116 -178q0 -71 41.5 -112t111.5 -41z" />
    <glyph glyph-name="onefraction" unicode="&#x215f;" horiz-adv-x="974" 
d="M1370 1536l-1063 -1638h-139l1063 1638h139zM80 649l72 10q42 6 58.5 18t16.5 40v586q-58 -24 -127 -37l-32 -6l-13 65l236 117h96v-725q0 -32 15 -42.5t65 -17.5l57 -8l-2 -67h-444z" />
    <glyph glyph-name="arrowleft" unicode="&#x2190;" horiz-adv-x="1646" 
d="M1534 465h-1018q-109 0 -192 7q73 -65 174 -191l266 -332l-82 -47l-631 630l631 631l82 -47l-266 -332q-101 -126 -174 -191q83 7 192 7h1018v-135z" />
    <glyph glyph-name="arrowup" unicode="&#x2191;" horiz-adv-x="1646" 
d="M1454 674l-47 -82l-332 266q-129 104 -192 174q8 -94 8 -192v-1018h-135v1018q0 109 7 192q-63 -70 -192 -174l-331 -266l-47 82l630 631z" />
    <glyph glyph-name="arrowright" unicode="&#x2192;" horiz-adv-x="1646" 
d="M1595 532l-630 -630l-82 47l266 332q104 129 173 191q-83 -7 -192 -7h-1017v135h1017q109 0 192 -7q-69 62 -173 191l-266 332l82 47z" />
    <glyph glyph-name="arrowdown" unicode="&#x2193;" horiz-adv-x="1646" 
d="M1454 391l-631 -631l-630 631l47 82l331 -266q129 -104 192 -174q-7 83 -7 192v1018h135v-1018q0 -98 -8 -192q63 70 192 174l332 266z" />
    <glyph glyph-name="uni2196" unicode="&#x2196;" horiz-adv-x="1646" 
d="M1373 79l-96 -96l-720 720q-70 70 -130 141q2 -38 2 -55q0 -71 -15 -204l-46 -422l-92 24v892h893l24 -91l-423 -46q-134 -15 -203 -15q-17 0 -55 2q64 -54 141 -131z" />
    <glyph glyph-name="uni2197" unicode="&#x2197;" horiz-adv-x="1646" 
d="M1370 1079v-892l-91 -24l-46 422q-15 134 -15 204q0 36 1 55q-60 -71 -130 -141l-720 -720l-95 96l720 719q77 77 141 131q-38 -2 -55 -2q-70 0 -204 15l-423 46l25 91h892z" />
    <glyph glyph-name="uni2198" unicode="&#x2198;" horiz-adv-x="1646" 
d="M1370 878v-892h-892l-25 91l423 46q134 15 204 15q17 0 55 -2q-64 54 -141 131l-720 719l95 96l720 -720q70 -70 130 -141q-1 19 -1 55q0 70 15 203l46 423z" />
    <glyph glyph-name="uni2199" unicode="&#x2199;" horiz-adv-x="1646" 
d="M567 138q69 0 203 -15l423 -46l-24 -91h-893v892l92 24l46 -423q15 -133 15 -203q0 -17 -2 -55q60 71 130 141l720 720l96 -96l-720 -719q-77 -77 -141 -131q38 2 55 2z" />
    <glyph glyph-name="partialdiff" unicode="&#x2202;" horiz-adv-x="1198" 
d="M465 1448q306 0 466.5 -169.5t160.5 -492.5q0 -229 -70 -414.5t-193.5 -290t-275.5 -104.5q-217 0 -336 116.5t-119 328.5q0 230 123.5 369t327.5 139q322 0 369 -330h4q6 74 6 188q0 234 -128 383.5t-329 149.5q-75 0 -127 -12l-8 127q50 12 129 12zM545 102
q124 0 203 104t79 267q0 155 -72.5 249.5t-191.5 94.5q-126 0 -195 -102t-69 -285q0 -155 65 -241.5t181 -86.5z" />
    <glyph glyph-name="increment" unicode="&#x2206;" horiz-adv-x="1447" 
d="M1397 0h-1346l613 1440h120zM246 111h901l-451 1056z" />
    <glyph glyph-name="product" unicode="&#x220f;" horiz-adv-x="1536" 
d="M1280 1245v-1415q0 -52 20 -68.5t97 -29.5l61 -11l-4 -79h-532l4 79l78 15q49 9 66 28.5t17 65.5v1493h-643v-1493q0 -52 20 -68.5t97 -29.5l62 -11l-5 -79h-532l4 79l78 15q49 9 66.5 28.5t17.5 65.5v1415q0 52 -20 69.5t-97 31.5l-45 8l-4 80h1372l-4 -80l-90 -13
q-48 -7 -66 -28t-18 -68z" />
    <glyph glyph-name="summation" unicode="&#x2211;" horiz-adv-x="1261" 
d="M266 -213h549q116 0 157 50t58 210l123 -8q0 -210 -27 -397h-1056l-4 86l499 807l-499 813l4 86h1056q27 -187 27 -357l-123 -8q-17 160 -58 210t-157 50h-514l459 -745z" />
    <glyph glyph-name="minus" unicode="&#x2212;" horiz-adv-x="1204" 
d="M1061 498h-918v118h918v-118z" />
    <glyph glyph-name="radical" unicode="&#x221a;" horiz-adv-x="1220" 
d="M1204 1495l-553 -1501h-139l-287 837q-22 66 -46 91.5t-68 33.5l-64 11l-4 77h307l264 -796l449 1247h141z" />
    <glyph glyph-name="infinity" unicode="&#x221e;" horiz-adv-x="1937" 
d="M1475 946q164 0 262 -85t98 -226q0 -138 -117 -231t-293 -93q-124 0 -220.5 43t-266.5 176q-148 -112 -262.5 -165.5t-212.5 -53.5q-164 0 -262.5 85.5t-98.5 226.5q0 138 116.5 230.5t293.5 92.5q124 0 220.5 -43t266.5 -176q289 219 476 219zM1464 444q94 0 153.5 52
t59.5 135q0 92 -59.5 147.5t-157.5 55.5q-69 0 -152 -41.5t-214 -140.5q162 -127 234 -167.5t136 -40.5zM260 627q0 -92 59.5 -147.5t157.5 -55.5q69 0 152.5 41t213.5 140q-162 127 -234 167.5t-136 40.5q-94 0 -153.5 -51.5t-59.5 -134.5z" />
    <glyph glyph-name="integral" unicode="&#x222b;" horiz-adv-x="714" 
d="M496 35q0 -205 -68.5 -311.5t-200.5 -106.5q-98 0 -186 49q-6 21 -6 41q0 40 21 62t59 22q26 0 46 -12.5t30 -27.5t25 -27.5t32 -12.5q38 0 54.5 65t16.5 206q0 159 -50 515t-50 543q0 206 68 312t200 106q99 0 187 -49q6 -21 6 -41q0 -40 -21 -62t-59 -22
q-26 0 -46 12.5t-30 27.5t-25 27.5t-32 12.5q-38 0 -55 -64.5t-17 -205.5q0 -159 50.5 -515.5t50.5 -543.5z" />
    <glyph glyph-name="approxequal" unicode="&#x2248;" horiz-adv-x="1232" 
d="M850 731q69 0 116 23t93 80l39 -89q-101 -135 -264 -135q-93 0 -173 21.5t-146.5 43t-127.5 21.5q-70 0 -117 -22.5t-92 -79.5l-39 88q101 135 264 135q93 0 173 -21.5t146.5 -43t127.5 -21.5zM850 442q69 0 116 23t93 80l39 -88q-101 -135 -264 -135q-93 0 -173 21.5
t-146.5 43t-127.5 21.5q-69 0 -116 -23t-93 -80l-39 88q101 135 264 135q93 0 173 -21.5t146.5 -43t127.5 -21.5z" />
    <glyph glyph-name="notequal" unicode="&#x2260;" horiz-adv-x="1191" 
d="M688 651l-64 -176h451v-119h-494l-96 -262l-106 37l82 225h-344v119h387l64 176h-451v119h494l96 262l106 -37l-82 -225h344v-119h-387z" />
    <glyph glyph-name="lessequal" unicode="&#x2264;" horiz-adv-x="1021" 
d="M885 973l-562 -261l562 -261v-150l-764 369v75l764 369v-141zM121 172h764v-119h-764v119z" />
    <glyph glyph-name="greaterequal" unicode="&#x2265;" horiz-adv-x="1021" 
d="M901 745v-75l-764 -369v141l562 261l-562 262v149zM137 172h764v-119h-764v119z" />
    <glyph glyph-name="filledbox" unicode="&#x25a0;" horiz-adv-x="1843" 
d="M1638 0h-1433v1434h1433v-1434z" />
    <glyph glyph-name="whiteSquare" unicode="&#x25a1;" horiz-adv-x="1843" 
d="M1638 0h-1433v1434h1433v-1434zM1495 143v1147h-1147v-1147h1147z" />
    <glyph glyph-name="triagup" unicode="&#x25b2;" horiz-adv-x="1372" 
d="M1229 236h-1086l543 1095z" />
    <glyph glyph-name="whiteuppointingtriangle" unicode="&#x25b3;" horiz-adv-x="1372" 
d="M1229 236h-1086l543 1095zM686 1024l-313 -649h626z" />
    <glyph glyph-name="blackuppointingsmalltriangle" unicode="&#x25b4;" horiz-adv-x="958" 
d="M887 369h-815l407 821z" />
    <glyph glyph-name="whiteuppointingsmalltriangle" unicode="&#x25b5;" horiz-adv-x="958" 
d="M887 369h-815l407 821zM670 498l-191 393l-190 -393h381z" />
    <glyph glyph-name="blackrightpointingtriangle" unicode="&#x25b6;" horiz-adv-x="1372" 
d="M205 174v1086l1095 -543z" />
    <glyph glyph-name="whiterightpointingtriangle" unicode="&#x25b7;" horiz-adv-x="1372" 
d="M205 174v1086l1095 -543zM993 717l-649 313v-627z" />
    <glyph glyph-name="uni25B8" unicode="&#x25b8;" horiz-adv-x="958" 
d="M102 309v815l822 -407z" />
    <glyph glyph-name="whiterightpointingsmalltriangle" unicode="&#x25b9;" horiz-adv-x="958" 
d="M102 309v815l822 -407zM231 526l394 191l-394 190v-381z" />
    <glyph glyph-name="triagdn" unicode="&#x25bc;" horiz-adv-x="1372" 
d="M143 1208h1086l-543 -1095z" />
    <glyph glyph-name="whitedownpointingtriangle" unicode="&#x25bd;" horiz-adv-x="1372" 
d="M143 1208h1086l-543 -1095zM686 420l313 649h-626z" />
    <glyph glyph-name="uni25BE" unicode="&#x25be;" horiz-adv-x="958" 
d="M72 1075h815l-408 -821z" />
    <glyph glyph-name="whitedownpointingsmalltriangle" unicode="&#x25bf;" horiz-adv-x="958" 
d="M72 1075h815l-408 -821zM289 946l190 -393l191 393h-381z" />
    <glyph glyph-name="blackleftpointingtriangle" unicode="&#x25c0;" horiz-adv-x="1372" 
d="M1167 1260v-1086l-1095 543z" />
    <glyph glyph-name="whiteleftpointingtriangle" unicode="&#x25c1;" horiz-adv-x="1372" 
d="M1167 1260v-1086l-1095 543zM379 717l649 -314v627z" />
    <glyph glyph-name="uni25C2" unicode="&#x25c2;" horiz-adv-x="958" 
d="M856 1124v-815l-821 408z" />
    <glyph glyph-name="whiteleftpointingsmalltriangle" unicode="&#x25c3;" horiz-adv-x="958" 
d="M856 1124v-815l-821 408zM727 907l-393 -190l393 -191v381z" />
    <glyph glyph-name="blackDiamond" unicode="&#x25c6;" horiz-adv-x="1114" 
d="M1063 717l-506 -506l-506 506l506 506z" />
    <glyph glyph-name="whiteDiamond" unicode="&#x25c7;" horiz-adv-x="1114" 
d="M1063 717l-506 -506l-506 506l506 506zM877 717l-320 319l-319 -319l319 -320z" />
    <glyph glyph-name="whitediamondcontainingblacksmalldiamond" unicode="&#x25c8;" horiz-adv-x="1114" 
d="M1063 717l-506 -506l-506 506l506 506zM877 717l-320 319l-319 -319l319 -320zM557 836l119 -119l-119 -119l-119 119z" />
    <glyph glyph-name="lozenge" unicode="&#x25ca;" horiz-adv-x="1185" 
d="M1122 717l-477 -723h-125l-457 723l478 723h125zM933 701l-343 543l-337 -512l342 -542z" />
    <glyph glyph-name="whitecircle" unicode="&#x25cb;" horiz-adv-x="1843" 
d="M102 717q0 167 65 318.5t174.5 261t261.5 174.5t319 65t318.5 -65t261 -174.5t174.5 -261t65 -318.5t-65 -318.5t-174.5 -261t-261 -174.5t-318.5 -65t-319 65t-261.5 174.5t-174.5 261t-65 318.5zM246 717q0 -137 53.5 -262.5t144 -216t216 -144t262.5 -53.5
q183 0 338.5 90.5t246 246.5t90.5 339t-90.5 339t-246 246.5t-338.5 90.5q-137 0 -262.5 -53.5t-216 -144t-144 -216t-53.5 -262.5z" />
    <glyph glyph-name="blackcircle" unicode="&#x25cf;" horiz-adv-x="1843" 
d="M102 717q0 167 65 318.5t174.5 261t261.5 174.5t319 65t318.5 -65t261 -174.5t174.5 -261t65 -318.5t-65 -318.5t-174.5 -261t-261 -174.5t-318.5 -65t-319 65t-261.5 174.5t-174.5 261t-65 318.5z" />
    <glyph glyph-name="uni25FB" unicode="&#x25fb;" horiz-adv-x="1314" 
d="M1130 244h-946v946h946v-946zM991 383v668h-667v-668h667z" />
    <glyph glyph-name="uni25FC" unicode="&#x25fc;" horiz-adv-x="1314" 
d="M1130 244h-946v946h946v-946z" />
    <glyph glyph-name="uni25FD" unicode="&#x25fd;" horiz-adv-x="958" 
d="M838 358h-717v717h717v-717zM705 492v450h-451v-450h451z" />
    <glyph glyph-name="uni25FE" unicode="&#x25fe;" horiz-adv-x="958" 
d="M838 358h-717v717h717v-717z" />
    <glyph glyph-name="threequartersemdash" unicode="&#xf6de;" horiz-adv-x="1822" 
d="M1679 494h-1536v127h1536v-127z" />
    <glyph glyph-name="J.titl" horiz-adv-x="1075" 
d="M1004 1354l-91 -13q-48 -7 -66 -28t-18 -68l2 -819q1 -248 -98.5 -353.5t-333.5 -105.5q-163 0 -259.5 82.5t-96.5 220.5q0 45 14 80q31 31 90 31q46 0 72.5 -23t26.5 -63q0 -11 -3 -32t-3 -38q0 -75 48 -116t138 -41q114 0 162.5 69t48.5 232v848q0 65 -20.5 86
t-96.5 32l-98 15l-4 84h590z" />
    <glyph glyph-name="IJ.titl" horiz-adv-x="1798" 
d="M631 1354l-90 -13q-48 -7 -66 -28t-18 -68v-1057q0 -52 19.5 -68.5t96.5 -29.5l62 -10l-4 -80h-533l4 80l78 14q49 9 66.5 28.5t17.5 65.5v1057q0 52 -20 69.5t-97 31.5l-45 8l-4 80h537zM1726 1354l-90 -13q-48 -7 -66 -28t-18 -68l2 -819q1 -248 -98.5 -353.5
t-333.5 -105.5q-163 0 -259.5 82.5t-96.5 220.5q0 45 14 80q31 31 90 31q46 0 72.5 -23t26.5 -63q0 -11 -3 -32t-3 -38q0 -75 48 -116t138 -41q114 0 162.5 69t48.5 232v848q0 65 -20.5 86t-96.5 32l-98 15l-4 84h590z" />
    <glyph glyph-name="Jcircumflex.titl" horiz-adv-x="1075" 
d="M707 1709l-236 -155q-35 28 -57 80l299 250l299 -250q-19 -47 -62 -80zM418 1434h590l-4 -80l-91 -13q-48 -7 -66 -28t-18 -68l2 -819q1 -248 -98.5 -353.5t-333.5 -105.5q-163 0 -259.5 82.5t-96.5 220.5q0 45 14 80q31 31 90 31q46 0 72.5 -23t26.5 -63q0 -11 -3 -32
t-3 -38q0 -75 48 -116t138 -41q114 0 162.5 69t48.5 232v848q0 65 -20.5 86t-96.5 32l-98 15z" />
    <glyph glyph-name="registered.sups" horiz-adv-x="1331" 
d="M666 1772q173 0 311 -78t215.5 -216t77.5 -311q0 -129 -47.5 -242t-129 -192t-192.5 -124.5t-235 -45.5q-166 0 -304 77t-219.5 216.5t-81.5 310.5t81.5 310.5t219.5 217t304 77.5zM666 664q207 0 350 143.5t143 359.5t-143 360t-350 144t-350.5 -144t-143.5 -360
q0 -143 66 -258.5t179 -180t249 -64.5zM890 985q11 -19 18.5 -25.5t21.5 -9.5l10 -2l-2 -45q-33 -8 -80 -8q-50 0 -71.5 16t-46.5 74l-39 86q-16 34 -30 45.5t-42 11.5q-11 0 -23 -2v-137q0 -20 5.5 -26.5t25.5 -10.5l20 -4l-2 -49h-235l2 49l22 4q17 3 23 10.5t6 26.5v354
q0 20 -6 26.5t-29 12.5l-16 4l-2 48h57q38 0 96 2t91 2q114 0 166.5 -34t52.5 -106q0 -49 -31.5 -82.5t-89.5 -47.5q37 -11 67 -62q8 -13 28.5 -56.5t32.5 -64.5zM653 1190q43 0 67.5 24.5t24.5 69.5q0 92 -88 92q-25 0 -53 -2v-181q21 -3 49 -3z" />
    <glyph glyph-name="caron.alt" 
d="M465 1538q79 0 149 -18q-25 -195 -96 -367q-57 0 -108 21q45 199 55 364z" />
    <glyph glyph-name="acute.loclPLK" 
d="M379 1229l94 358q36 -3 86 -16.5t86 -30.5l-143 -342q-62 3 -123 31z" />
    <glyph glyph-name="Cacute.loclPLK" horiz-adv-x="1331" 
d="M676 1567l94 358q36 -3 86 -16.5t86 -30.5l-143 -342q-62 3 -123 31zM778 1466q104 0 241 -23.5t206 -23.5q4 -60 4 -170t-4 -174l-113 -8q-17 149 -97 218t-237 69q-215 0 -339 -170.5t-124 -466.5q0 -287 122.5 -462t340.5 -175q167 0 250 74.5t100 240.5l109 -8v-313
q-209 -107 -459 -107q-321 0 -497.5 199t-176.5 551q0 170 53 312.5t144 237t214 147t263 52.5z" />
    <glyph glyph-name="cacute.loclPLK" horiz-adv-x="989" 
d="M467 1229l94 358q36 -3 86 -16.5t86 -30.5l-143 -342q-62 3 -123 31zM549 -25q-210 0 -329.5 146.5t-119.5 400.5q0 127 38.5 231.5t105.5 173t155.5 105.5t190.5 37q180 0 319 -84q11 -26 11 -53q0 -43 -27.5 -68.5t-71.5 -25.5q-33 0 -57.5 13t-42.5 31t-37 36.5
t-50.5 31.5t-74.5 13q-123 0 -190.5 -115t-67.5 -326q0 -200 78 -311t211 -111q153 0 280 113l54 -96q-87 -75 -174.5 -108.5t-200.5 -33.5z" />
    <glyph glyph-name="Nacute.loclPLK" horiz-adv-x="1546" 
d="M963 1878l-144 -342q-62 3 -123 31l95 358q36 -3 86 -16.5t86 -30.5zM1475 1434l-5 -80l-90 -13q-48 -7 -66 -28t-18 -68v-1245h-170l-567 899q-113 180 -165 311q7 -102 7 -225v-797q0 -52 20 -68.5t97 -29.5l62 -10l-5 -80h-477l4 80l78 14q49 9 66.5 28.5t17.5 65.5
v1057q0 52 -20 69.5t-97 31.5l-45 8l-4 80h344l567 -899q108 -171 156 -287q-6 99 -6 201v796q0 52 -20 69.5t-97 31.5l-45 8l-4 80h482z" />
    <glyph glyph-name="nacute.loclPLK" horiz-adv-x="1247" 
d="M836 1540l-144 -342q-62 3 -123 31l95 358q36 -3 86 -16.5t86 -30.5zM1225 78l-4 -78h-488l4 78l58 12q46 10 59.5 27.5t13.5 66.5v521q0 241 -194 241q-170 0 -262 -167v-595q0 -57 17 -72.5t89 -25.5l62 -8l-5 -78h-487l4 78l58 12q46 10 59.5 27.5t13.5 66.5v643
q0 60 -12.5 80t-56.5 29l-62 12l-4 74l289 47q16 -59 21 -178q54 85 139 131.5t186 46.5q164 0 249 -90t85 -262v-533q0 -57 17 -72.5t89 -25.5z" />
    <glyph glyph-name="Oacute.loclPLK" horiz-adv-x="1556" 
d="M676 1567l94 358q36 -3 86 -16.5t86 -30.5l-143 -342q-62 3 -123 31zM104 717q0 228 86.5 399t239 260.5t348.5 89.5q314 0 494 -200t180 -549q0 -220 -85 -390.5t-238.5 -265t-350.5 -94.5q-203 0 -356.5 94.5t-235.5 264.5t-82 391zM315 717q0 -282 128.5 -459.5
t334.5 -177.5t334.5 177.5t128.5 459.5q0 296 -124 466.5t-339 170.5t-339 -170.5t-124 -466.5z" />
    <glyph glyph-name="oacute.loclPLK" horiz-adv-x="1179" 
d="M487 1229l95 358q36 -3 86 -16.5t86 -30.5l-144 -342q-62 3 -123 31zM100 522q0 127 38.5 231.5t105.5 173t155.5 105.5t190.5 37q233 0 361 -143t128 -404q0 -249 -137 -398t-352 -149q-226 0 -358 147t-132 400zM301 522q0 -202 79 -321t210 -119t210 119t79 321
q0 211 -75.5 326t-213.5 115t-213.5 -115t-75.5 -326z" />
    <glyph glyph-name="Sacute.loclPLK" horiz-adv-x="1114" 
d="M477 1567l94 358q36 -3 86 -16.5t86 -30.5l-143 -342q-62 3 -123 31zM575 1466q115 0 230 -25.5t160 -25.5v-323l-109 -5q-29 143 -98 210t-189 67q-110 0 -178.5 -67.5t-68.5 -176.5q0 -61 24 -108.5t64 -79t92.5 -58t110 -50t115 -48.5t110 -60.5t92.5 -80.5t64 -113
t24 -153q0 -177 -136 -289.5t-350 -112.5q-122 0 -232 31t-189 88q-11 90 -11 165q0 63 4 134l115 4q20 -154 102 -236.5t214 -82.5q128 0 211 75.5t83 190.5q0 64 -23.5 114.5t-63.5 84.5t-92 62t-109.5 52t-115 49.5t-109.5 59.5t-92 76.5t-63.5 106.5t-23.5 144
q0 161 126 271t312 110z" />
    <glyph glyph-name="sacute.loclPLK" horiz-adv-x="933" 
d="M377 1229l94 358q36 -3 86 -16.5t86 -30.5l-143 -342q-62 3 -123 31zM795 766l-99 -6q-25 106 -82.5 163.5t-140.5 57.5q-78 0 -126 -44t-48 -116q0 -53 30 -93t77.5 -65.5t105 -48.5t115.5 -50t105.5 -61.5t77.5 -91t30 -130.5q0 -144 -106 -225t-294 -81q-96 0 -185 26
t-146 71q-9 68 -9 116q0 52 4 109l103 6q25 -111 92.5 -175.5t159.5 -64.5q89 0 144.5 48.5t55.5 126.5q0 53 -29.5 94t-77 68t-104.5 51.5t-114 52t-104.5 61.5t-77 88.5t-29.5 124.5q0 134 98.5 212.5t267.5 78.5q69 0 164 -26.5t142 -26.5v-250z" />
    <glyph glyph-name="Zacute.loclPLK" horiz-adv-x="1234" 
d="M795 1878l-144 -342q-62 3 -123 31l95 358q36 -3 86 -16.5t86 -30.5zM1022 369l123 -9q0 -173 -27 -360h-1036l-4 86l823 1243h-457q-116 0 -157 -50t-58 -210l-123 8q0 170 27 357h997l5 -86l-824 -1244h496q112 0 154.5 57.5t60.5 207.5z" />
    <glyph glyph-name="zacute.loclPLK" horiz-adv-x="1034" 
d="M694 1540l-143 -342q-62 3 -123 31l94 358q36 -3 86 -16.5t86 -30.5zM829 299l115 -8q0 -137 -22 -291h-838l-6 80l641 872h-340q-75 0 -111 -45t-49 -159l-115 8q0 127 23 288h805l6 -79l-641 -873h373q73 0 109 49t50 158z" />
    <glyph glyph-name="Iacute_J.loclNLD" horiz-adv-x="1415" 
d="M154 1616l360 274q60 -57 94 -133l-395 -223q-38 32 -59 82zM862 1616l361 274q60 -57 94 -133l-395 -223q-39 34 -60 82zM631 1354l-90 -13q-48 -7 -66 -28t-18 -68v-1057q0 -52 19.5 -68.5t96.5 -29.5l62 -10l-4 -80h-533l4 80l78 14q49 9 66.5 28.5t17.5 65.5v1057
q0 52 -20 69.5t-97 31.5l-45 8l-4 80h537zM1165 1245v-919q0 -222 -38 -365.5t-121 -232.5q-98 -106 -263 -134q-36 28 -36 91q0 67 65 90q13 5 64 15.5t77 27.5q37 25 47.5 110t10.5 365v952q0 52 -20 69.5t-95 31.5l-45 8l-4 80h536l-4 -80l-90 -13q-48 -7 -66 -28
t-18 -68z" />
    <glyph glyph-name="iacute_j.loclNLD" horiz-adv-x="1198" 
d="M98 1278l361 274q60 -57 94 -133l-395 -223q-39 34 -60 82zM707 1278l360 274q60 -57 94 -133l-395 -223q-38 32 -59 82zM418 1069v-885q0 -57 17 -72.5t89 -25.5l62 -8l-4 -78h-488l4 78l58 12q46 10 59.5 27.5t13.5 66.5v643q0 60 -12.5 80t-56.5 29l-62 12l-4 74z
M1026 1069v-768q0 -449 -158 -618q-99 -107 -260 -134q-37 29 -37 91q0 63 66 86q13 5 64 15.5t77 27.5q37 25 47.5 111.5t10.5 367.5v579q0 59 -13 80t-55 29l-61 12l-5 74z" />
    <glyph glyph-name="Iacute_J.loclNLD.titl" horiz-adv-x="1798" 
d="M154 1616l360 274q60 -57 94 -133l-395 -223q-38 32 -59 82zM1249 1616l361 274q60 -57 94 -133l-395 -223q-39 34 -60 82zM631 1354l-90 -13q-48 -7 -66 -28t-18 -68v-1057q0 -52 19.5 -68.5t96.5 -29.5l62 -10l-4 -80h-533l4 80l78 14q49 9 66.5 28.5t17.5 65.5v1057
q0 52 -20 69.5t-97 31.5l-45 8l-4 80h537zM1726 1354l-90 -13q-48 -7 -66 -28t-18 -68l2 -819q1 -248 -98.5 -353.5t-333.5 -105.5q-163 0 -259.5 82.5t-96.5 220.5q0 45 14 80q31 31 90 31q46 0 72.5 -23t26.5 -63q0 -11 -3 -32t-3 -38q0 -75 48 -116t138 -41
q114 0 162.5 69t48.5 232v848q0 65 -20.5 86t-96.5 32l-98 15l-4 84h590z" />
    <glyph glyph-name="i.loclTRK" horiz-adv-x="628" 
d="M176 1378q0 56 36 91.5t91 35.5t91 -35.5t36 -91.5t-36 -91.5t-91 -35.5t-91 35.5t-36 91.5zM418 1069v-885q0 -57 17 -72.5t89 -25.5l62 -8l-4 -78h-488l4 78l58 12q46 10 59.5 27.5t13.5 66.5v643q0 60 -12.5 80t-56.5 29l-62 12l-4 74z" />
    <glyph glyph-name="s.hist" horiz-adv-x="651" 
d="M840 1481q6 -18 6 -43q0 -43 -24.5 -69t-65.5 -26q-50 0 -118.5 38t-125.5 38q-53 0 -74.5 -38t-21.5 -132v-1054q0 -57 17 -73t89 -26l103 -14l-4 -82h-529l4 78l58 12q46 10 59.5 27.5t13.5 66.5v752h-141l-4 86l145 22v140q0 163 87 248.5t253 85.5q158 0 273 -37z
" />
    <glyph glyph-name="f_t" horiz-adv-x="1452" 
d="M1395 166l37 -90q-133 -101 -289 -101q-130 0 -193 59.5t-63 182.5l2 719h-473v-741q0 -57 17 -73t89 -26l103 -14l-4 -82h-529l4 78l58 12q46 10 59.5 27.5t13.5 66.5v752h-141l-4 86l145 22v140q0 163 87 248.5t253 85.5q158 0 273 -37q6 -18 6 -43q0 -43 -24.5 -69
t-65.5 -26q-50 0 -118.5 38t-125.5 38q-53 0 -74.5 -38t-21.5 -132v-205h473q27 109 64 191q16 37 29.5 48t39.5 11q20 0 55 -6v-244h342v-108h-342v-686q0 -144 144 -144q88 0 174 60z" />
    <glyph glyph-name="t_f" horiz-adv-x="1523" 
d="M1591 1481q6 -18 6 -43q0 -43 -24.5 -69t-65.5 -26q-50 0 -118 38t-125 38q-53 0 -75 -38.5t-22 -131.5v-205h312v-108h-312v-741q0 -57 17.5 -73t89.5 -26l102 -14l-4 -82h-528l4 78l57 12q46 10 60 27.5t14 66.5v752h-580v-686q0 -144 144 -144q67 0 153 60l37 -90
q-70 -53 -132.5 -77t-135.5 -24q-130 0 -193 59.5t-63 182.5l2 719h-137l-4 86l141 22q27 109 64 191q16 37 29.5 48t39.5 11q20 0 55 -6v-244h580v140q0 163 87 248.5t253 85.5q157 0 272 -37z" />
    <glyph glyph-name="t_i" horiz-adv-x="1368" 
d="M1053 1251q-55 0 -91 35.5t-36 91.5t36 91.5t91 35.5t91 -35.5t36 -91.5t-36 -91.5t-91 -35.5zM1335 78l-4 -78h-487l4 78l57 12q46 10 60 27.5t14 66.5v643q0 60 -24.5 84.5t-84.5 24.5h-471v-686q0 -144 144 -144q67 0 153 60l37 -90q-70 -53 -132.5 -77t-135.5 -24
q-130 0 -193 59.5t-63 182.5l2 719h-137l-4 86l141 22q27 109 64 191q16 37 29.5 48t39.5 11q20 0 55 -6v-244h632l136 17v-877q0 -57 17.5 -72.5t89.5 -25.5z" />
    <glyph glyph-name="t_j" horiz-adv-x="1333" 
d="M1053 1251q-55 0 -91 35.5t-36 91.5t36 91.5t91 35.5t91 -35.5t36 -91.5t-36 -91.5t-91 -35.5zM1031 1044l136 17v-760q0 -450 -157 -618q-99 -107 -260 -134q-37 29 -37 91q0 63 65 86q13 5 64.5 15.5t77.5 27.5q37 25 47 111t10 368v579q0 60 -24.5 84.5t-84.5 24.5
h-469v-686q0 -144 144 -144q88 0 174 60l37 -90q-133 -101 -289 -101q-130 0 -193 59.5t-63 182.5l2 719h-137l-4 86l141 22q27 109 64 191q16 37 29.5 48t39.5 11q20 0 55 -6v-244h632z" />
    <glyph glyph-name="t_t" horiz-adv-x="1460" 
d="M1403 166l37 -90q-133 -101 -289 -101q-130 0 -193 59.5t-63 182.5l2 719h-498v-686q0 -144 144 -144q88 0 174 60l37 -90q-133 -101 -289 -101q-130 0 -193 59.5t-63 182.5l2 719h-137l-4 86l141 22q27 109 64 191q16 37 29.5 48t39.5 11q20 0 55 -6v-244h498
q27 109 64 191q16 37 29.5 48t39.5 11q20 0 55 -6v-244h342v-108h-342v-686q0 -144 144 -144q88 0 174 60z" />
    <glyph glyph-name="f_f_t" horiz-adv-x="2097" 
d="M2040 166l37 -90q-133 -101 -289 -101q-130 0 -193 59.5t-63 182.5l2 719h-473v-741q0 -57 17 -73t89 -26l103 -14l-4 -82h-529l4 78l58 12q46 10 59.5 27.5t13.5 66.5v752h-456v-752q0 -57 17 -72.5t89 -25.5l62 -8l-4 -78h-488l4 78l58 12q46 10 59.5 27.5t13.5 66.5
v752h-141l-4 86l145 22v78q0 189 102 282t289 93q175 0 321 -73q96 94 273 94q158 0 273 -37q6 -18 6 -43q0 -43 -24.5 -69t-65.5 -26q-50 0 -118.5 38t-125.5 38q-53 0 -74.5 -38t-21.5 -132v-205h473q27 109 64 191q16 37 29.5 48t39.5 11q21 0 55 -6v-244h342v-108h-342
v-686q0 -144 144 -144q88 0 174 60zM416 1044h456v99q0 100 8 149q-38 2 -76.5 19t-66.5 36.5t-74.5 35.5t-99.5 16q-73 0 -110 -46.5t-37 -164.5v-144z" />
    <glyph glyph-name="t_t_f" horiz-adv-x="2209" 
d="M2277 1481q7 -21 7 -43q0 -43 -25 -69t-66 -26q-50 0 -118 38t-125 38q-53 0 -75 -38.5t-22 -131.5v-205h312v-108h-312v-741q0 -57 17.5 -73t89.5 -26l102 -14l-4 -82h-528l4 78l57 12q46 10 60 27.5t14 66.5v752h-580v-686q0 -144 144 -144q67 0 153 60l37 -90
q-70 -53 -132.5 -77t-135.5 -24q-130 0 -193 59.5t-63 182.5l2 719h-498v-686q0 -144 144 -144q88 0 174 60l37 -90q-133 -101 -289 -101q-130 0 -193 59.5t-63 182.5l2 719h-137l-4 86l141 22q27 109 64 191q16 37 29.5 48t39.5 11q20 0 55 -6v-244h498q27 109 64 191
q16 37 29.5 48t39.5 11q20 0 55 -6v-244h580v140q0 163 87 248.5t253 85.5q157 0 272 -37z" />
    <glyph glyph-name="t_t_i" horiz-adv-x="2054" 
d="M1739 1251q-55 0 -91 35.5t-36 91.5t36 91.5t91 35.5t91 -35.5t36 -91.5t-36 -91.5t-91 -35.5zM2021 78l-4 -78h-487l4 78l57 12q46 10 60 27.5t14 66.5v643q0 60 -24.5 84.5t-84.5 24.5h-471v-686q0 -144 144 -144q67 0 153 60l37 -90q-70 -53 -132.5 -77t-135.5 -24
q-130 0 -193 59.5t-63 182.5l2 719h-498v-686q0 -144 144 -144q88 0 174 60l37 -90q-133 -101 -289 -101q-130 0 -193 59.5t-63 182.5l2 719h-137l-4 86l141 22q27 109 64 191q16 37 29.5 48t39.5 11q20 0 55 -6v-244h498q27 109 64 191q16 37 29.5 48t39.5 11q20 0 55 -6
v-244h632l136 17v-877q0 -57 17.5 -72.5t89.5 -25.5z" />
    <glyph glyph-name="t_t_j" horiz-adv-x="2019" 
d="M1739 1251q-55 0 -91 35.5t-36 91.5t36 91.5t91 35.5t91 -35.5t36 -91.5t-36 -91.5t-91 -35.5zM1717 1044l136 17v-760q0 -450 -157 -618q-99 -107 -260 -134q-37 29 -37 91q0 63 65 86q13 5 64.5 15.5t77.5 27.5q37 25 47 111t10 368v579q0 60 -24.5 84.5t-84.5 24.5
h-469v-686q0 -144 144 -144q88 0 174 60l37 -90q-133 -101 -289 -101q-130 0 -193 59.5t-63 182.5l2 719h-498v-686q0 -144 144 -144q88 0 174 60l37 -90q-133 -101 -289 -101q-130 0 -193 59.5t-63 182.5l2 719h-137l-4 86l141 22q27 109 64 191q16 37 29.5 48t39.5 11
q20 0 55 -6v-244h498q27 109 64 191q16 37 29.5 48t39.5 11q20 0 55 -6v-244h632z" />
    <glyph glyph-name="zero.lf" horiz-adv-x="1224" 
d="M113 721q0 357 135.5 551t363.5 194q500 0 500 -745q0 -354 -133.5 -550t-366.5 -196q-244 0 -371.5 193t-127.5 553zM313 721q0 -302 76.5 -464.5t222.5 -162.5t222.5 162.5t76.5 464.5q0 627 -299 627t-299 -627z" />
    <glyph glyph-name="one.lf" horiz-adv-x="806" 
d="M768 88l-4 -88h-664l4 88l132 18q65 9 89.5 28t24.5 67v1053q-99 -51 -205 -74l-55 -13l-18 88l354 195h113v-1249q0 -55 22 -71t105 -28z" />
    <glyph glyph-name="two.lf" horiz-adv-x="1013" 
d="M920 145v-145h-836v115q598 531 598 919q0 155 -58 228t-180 73q-78 0 -160 -41.5t-143 -111.5l-53 135q143 149 393 149q198 0 300 -105t102 -312q0 -445 -590 -910q90 6 256 6h371z" />
    <glyph glyph-name="three.lf" horiz-adv-x="1067" 
d="M640 768q151 -25 236 -120.5t85 -244.5q0 -198 -134.5 -313t-363.5 -115q-218 0 -379 105q-4 16 -4 39q0 46 22.5 71t65.5 25q35 0 68 -21t58 -45.5t74 -45.5t111 -21q126 0 203.5 89t77.5 232q0 154 -101 225.5t-319 71.5q-40 0 -72 -4l-8 117q233 0 342 70t109 219
q0 118 -61 179.5t-177 61.5q-157 0 -303 -131l-53 121q145 133 383 133q200 0 305.5 -90t105.5 -260q0 -123 -76 -219t-195 -129z" />
    <glyph glyph-name="four.lf" horiz-adv-x="1132" 
d="M1053 508v-131h-172v-377h-185v377h-655v82l672 979h168v-930h172zM698 508v677l-465 -677h465z" />
    <glyph glyph-name="five.lf" horiz-adv-x="1083" 
d="M561 881q185 0 302.5 -125.5t117.5 -321.5q0 -219 -133 -339t-365 -120q-218 0 -379 105q-4 16 -4 39q0 46 22.5 71t65.5 25q35 0 68 -21t58.5 -45.5t74.5 -45.5t111 -21q127 0 203.5 94t76.5 258q0 145 -79.5 229.5t-215.5 84.5q-69 0 -133 -31t-110 -86l-115 39l92 764
h733v-158h-610l-60 -491q45 44 120 70t159 26z" />
    <glyph glyph-name="six.lf" horiz-adv-x="1144" 
d="M641 899q189 0 298.5 -122t109.5 -333t-128.5 -340t-340.5 -129q-467 0 -467 662q0 387 165.5 608t456.5 221q162 0 279 -43l-29 -129q-119 49 -242 49q-207 0 -324.5 -175t-126.5 -493q42 106 133 165t216 59zM584 88q118 0 191 95.5t73 248.5q0 156 -64 250t-180 94
q-119 0 -197.5 -96.5t-78.5 -247.5q0 -154 69.5 -249t186.5 -95z" />
    <glyph glyph-name="seven.lf" horiz-adv-x="937" 
d="M911 1350l-168 -357q-116 -246 -179 -417.5t-128 -399.5q-26 -94 -43 -190q-27 -6 -59 -6q-63 0 -90 26.5t-27 85.5q0 75 69 264q88 239 207 486.5t242 433.5h-682v158h852z" />
    <glyph glyph-name="eight.lf" horiz-adv-x="1146" 
d="M713 787q59 -28 100 -51.5t88 -60.5t75.5 -77.5t48 -98.5t19.5 -126q0 -172 -134.5 -285t-338.5 -113q-214 0 -339.5 106t-125.5 286q0 131 78 230.5t221 152.5q-57 31 -98 62.5t-78 74.5t-56 98.5t-19 122.5q0 158 116.5 258t302.5 100q189 0 300.5 -90t111.5 -241
q0 -116 -71.5 -207t-200.5 -141zM573 1360q-105 0 -166 -63.5t-61 -172.5q0 -43 13.5 -80t35 -64.5t56.5 -53.5t67 -44.5t79 -40.5q108 43 157 111t49 172q0 112 -60.5 174t-169.5 62zM571 82q133 0 207 70t74 196q0 65 -24 116.5t-81 95t-97 66t-125 63.5l-12 6
q-109 -42 -166.5 -124t-57.5 -196q0 -134 76.5 -213.5t205.5 -79.5z" />
    <glyph glyph-name="nine.lf" horiz-adv-x="1144" 
d="M565 1466q467 0 467 -661q0 -388 -165.5 -609t-456.5 -221q-162 0 -279 43l29 129q119 -49 241 -49q207 0 325 175.5t127 493.5q-42 -106 -133 -165t-216 -59q-189 0 -298.5 121.5t-109.5 332.5t128.5 340t340.5 129zM541 666q119 0 197.5 96.5t78.5 247.5
q0 154 -69.5 249t-186.5 95q-118 0 -191 -95.5t-73 -248.5q0 -156 64 -250t180 -94z" />
    <glyph glyph-name="zero.tf" horiz-adv-x="1155" 
d="M78 721q0 357 136 551t364 194q499 0 499 -745q0 -354 -133.5 -550t-365.5 -196q-244 0 -372 193t-128 553zM279 721q0 -302 76.5 -464.5t222.5 -162.5t222.5 162.5t76.5 464.5q0 627 -299 627t-299 -627z" />
    <glyph glyph-name="one.tf" horiz-adv-x="1155" 
d="M1008 100l-4 -100h-787l4 100l131 19q102 15 139 33.5t37 58.5v1028q-132 -64 -266 -94l-55 -12l-19 92l416 225h113v-1239q0 -47 35 -63t153 -33z" />
    <glyph glyph-name="two.tf" horiz-adv-x="1155" 
d="M989 145v-145h-835v115q598 531 598 919q0 155 -58 228t-180 73q-78 0 -160 -41.5t-143 -111.5l-53 135q143 149 393 149q198 0 299.5 -105t101.5 -312q0 -445 -590 -910q90 6 256 6h371z" />
    <glyph glyph-name="three.tf" horiz-adv-x="1155" 
d="M683 768q151 -25 236 -120.5t85 -244.5q0 -198 -134.5 -313t-363.5 -115q-218 0 -379 105q-4 16 -4 39q0 46 22.5 71t65.5 25q35 0 68 -21t58 -45.5t74 -45.5t111 -21q126 0 203.5 89t77.5 232q0 154 -101 225.5t-319 71.5q-40 0 -72 -4l-8 117q233 0 342 70t109 219
q0 118 -61 179.5t-177 61.5q-157 0 -303 -131l-53 121q145 133 383 133q200 0 305.5 -90t105.5 -260q0 -123 -76 -219t-195 -129z" />
    <glyph glyph-name="four.tf" horiz-adv-x="1155" 
d="M1063 508v-131h-172v-377h-184v377h-656v82l672 979h168v-930h172zM709 508v677l-466 -677h466z" />
    </font>
</defs>
</svg>
