<?xml version="1.0" standalone="no"?>
<!DOCTYPE svg PUBLIC "-//W3C//DTD SVG 1.1//EN" "http://www.w3.org/Graphics/SVG/1.1/DTD/svg11.dtd" >
<svg xmlns="http://www.w3.org/2000/svg" xmlns:xlink="http://www.w3.org/1999/xlink" version="1.1">
<metadata>
Created by FontForge 20170731 at Thu Oct  8 12:50:50 2020
 By Aleksey,,,
Copyright (c) Stefan Willerstorfer 2009-2014. All rights reserved.
</metadata>
<defs>
<font id="Sindelar-MediumItalic" horiz-adv-x="1024" >
  <font-face 
    font-family="Sindelar Medium"
    font-weight="500"
    font-style="italic"
    font-stretch="normal"
    units-per-em="2048"
    panose-1="2 4 6 3 4 4 6 9 2 4"
    ascent="1556"
    descent="-492"
    x-height="1051"
    cap-height="1434"
    bbox="-504 -720 2549 1937"
    underline-thickness="145"
    underline-position="-410"
    slope="-8"
    unicode-range="U+0020-FB04"
  />
<missing-glyph horiz-adv-x="1189" 
d="M1016 1434v-1434h-842v1434h842zM854 1331h-518l259 -524zM276 162l275 555l-275 555v-1110zM913 1272l-274 -555l274 -555v1110zM336 102h518l-259 525z" />
    <glyph glyph-name="f_f" unicode="ff" horiz-adv-x="1355" 
d="M1558 1482q6 -20 6 -42q0 -56 -27.5 -86t-78.5 -30q-33 0 -62 12.5t-46 28t-43.5 28t-56.5 12.5q-94 0 -117 -160l-27 -194h272l-18 -123h-269l-131 -942q-31 -227 -117.5 -332t-239.5 -105q-86 0 -160 41l27 119q48 -25 96 -25q68 0 99.5 58.5t55.5 227.5l134 958h-385
l-132 -942q-31 -227 -117 -332t-239 -105q-88 0 -162 41l27 119q48 -25 98 -25q68 0 99.5 58.5t55.5 227.5l134 958h-131l11 100q16 6 65 13t75 9l8 53q29 204 148 299t327 95q139 0 275 -64q114 85 299 85q127 0 247 -36zM875 1051l10 72q14 104 30 160q-31 9 -68.5 35.5
t-78 46.5t-92.5 20q-144 0 -172 -198l-19 -136h390z" />
    <glyph glyph-name="fi" unicode="fi" horiz-adv-x="1226" 
d="M974 171q0 -34 16 -47t54 -13q27 0 67 4l-6 -91q-113 -44 -204 -44t-130.5 30t-39.5 104q0 36 9 84l108 617q8 43 8 63q0 29 -13.5 39.5t-46.5 10.5h-326l-132 -942q-31 -227 -117 -332t-239 -105q-88 0 -162 41l27 119q48 -25 98 -25q68 0 99.5 58.5t55.5 227.5l134 958
h-131l11 100q47 16 140 22l10 73q29 204 148 299.5t327 95.5q109 0 215 -24t156 -64q6 -20 6 -41q0 -58 -31 -89t-88 -31q-43 0 -84 21.5t-69 46.5t-72 46.5t-94 21.5q-146 0 -172 -197l-21 -157h420q59 11 91 11q65 0 87 -15.5t22 -52.5q0 -62 -14 -139l-112 -632
q-5 -26 -5 -52z" />
    <glyph glyph-name="fl" unicode="fl" horiz-adv-x="1234" 
d="M1154 1297l-170 -1074q-5 -33 -5 -51q0 -35 16 -48t54 -13q26 0 66 4l-6 -91q-113 -44 -204 -44t-130 30.5t-39 105.5q0 32 8 82l176 1111q-25 10 -67.5 37t-83.5 43t-91 16q-146 0 -172 -197l-21 -157h255l-18 -123h-252l-132 -942q-31 -227 -117 -332t-239 -105
q-88 0 -162 41l27 119q48 -25 98 -25q68 0 99.5 58.5t55.5 227.5l134 958h-131l11 100q47 16 140 22l10 73q29 204 148 299.5t327 95.5q140 0 272 -39q49 12 89 12q39 0 54 -13.5t15 -52.5q0 -36 -15 -128z" />
    <glyph glyph-name="f_f_i" unicode="ffi" horiz-adv-x="1847" 
d="M1595 171q0 -34 16.5 -47t54.5 -13q26 0 66 4l-6 -91q-113 -44 -204 -44t-130.5 30t-39.5 104q0 36 9 84l109 617q7 38 7 63q0 29 -13 39.5t-46 10.5h-327l-131 -942q-31 -227 -117.5 -332t-239.5 -105q-86 0 -160 41l27 119q48 -25 96 -25q68 0 99.5 58.5t55.5 227.5
l134 958h-385l-132 -942q-31 -227 -117 -332t-239 -105q-88 0 -162 41l27 119q48 -25 98 -25q68 0 99.5 58.5t55.5 227.5l134 958h-131l11 100q16 6 65 13t75 9l8 53q29 204 148 299t327 95q140 0 276 -64q119 85 348 85q109 0 214.5 -24t155.5 -64q6 -20 6 -41
q0 -58 -31 -89t-88 -31q-43 0 -84 21.5t-69 46.5t-72 46.5t-94 21.5q-146 0 -172 -197l-21 -157h421q59 11 90 11q65 0 87.5 -15.5t22.5 -52.5q0 -56 -15 -139l-111 -632q-6 -32 -6 -52zM875 1051l10 72q14 104 30 160q-31 9 -68.5 35.5t-78 46.5t-92.5 20q-144 0 -172 -198
l-19 -136h390z" />
    <glyph glyph-name="f_f_l" unicode="ffl" horiz-adv-x="1855" 
d="M1775 1297l-170 -1074q-5 -33 -5 -51q0 -35 16 -48t54 -13q26 0 66 4l-5 -91q-113 -44 -204 -44t-130 30.5t-39 105.5q0 39 7 82l176 1111q-25 10 -67.5 37t-83.5 43t-91 16q-146 0 -172 -197l-21 -157h255l-17 -123h-253l-131 -942q-31 -227 -117.5 -332t-239.5 -105
q-86 0 -160 41l27 119q48 -25 96 -25q68 0 99.5 58.5t55.5 227.5l134 958h-385l-132 -942q-31 -227 -117 -332t-239 -105q-88 0 -162 41l27 119q48 -25 98 -25q68 0 99.5 58.5t55.5 227.5l134 958h-131l11 100q16 6 65 13t75 9l8 53q29 204 148 299t327 95q140 0 276 -64
q119 85 348 85q139 0 271 -39q49 12 89 12q39 0 54 -13.5t15 -52.5q0 -36 -15 -128zM875 1051l10 72q14 104 30 160q-31 9 -68.5 35.5t-78 46.5t-92.5 20q-144 0 -172 -198l-19 -136h390z" />
    <glyph glyph-name="f_b.liga" unicode="fb" horiz-adv-x="1812" 
d="M1436 1076q151 0 222 -88t71 -275q0 -196 -72 -366.5t-193.5 -271t-262.5 -100.5q-165 0 -248 109l-6 -13q-22 -53 -47 -74.5t-66 -21.5q-51 0 -107 31l184 1307q-21 9 -63.5 36t-82 41.5t-87.5 14.5q-146 0 -172 -197l-21 -157h251l-17 -123h-249l-132 -942
q-31 -227 -117 -332t-239 -105q-88 0 -162 41l27 119q48 -25 98 -25q68 0 99.5 58.5t55.5 227.5l134 958h-131l11 100q47 16 140 22l10 73q29 204 148 299.5t327 95.5q132 0 267 -38q47 11 81 11q37 0 52 -12.5t15 -42.5q0 -79 -53.5 -361.5t-111.5 -498.5h3
q34 108 75.5 194.5t95.5 157.5t123.5 109.5t149.5 38.5zM1143 109q88 0 166.5 85t125.5 227.5t47 301.5q0 105 -24 153.5t-77 48.5q-34 0 -76.5 -29t-88.5 -86.5t-87.5 -133.5t-76 -179.5t-51.5 -214.5l-10 -71q26 -48 66 -75t86 -27z" />
    <glyph glyph-name="f_h.liga" unicode="fh" horiz-adv-x="1841" 
d="M1660 111q27 0 67 4l-6 -91q-113 -44 -204 -44t-130.5 30t-39.5 104q0 36 9 84l103 584q6 34 6 61q0 43 -17.5 62.5t-55.5 19.5q-43 0 -101 -47.5t-116 -128t-106.5 -205.5t-67.5 -262l-39 -282h-236l185 1313q-21 9 -63.5 36t-82 41.5t-87.5 14.5q-146 0 -172 -197
l-21 -157h251l-17 -123h-249l-132 -942q-31 -227 -117 -332t-239 -105q-88 0 -162 41l27 119q48 -25 98 -25q68 0 99.5 58.5t55.5 227.5l134 958h-131l11 100q47 16 140 22l10 73q29 204 148 299.5t327 95.5q132 0 267 -38q47 11 81 11q37 0 52 -12.5t15 -42.5
q0 -80 -52.5 -363t-110.5 -497h3q35 108 77.5 194.5t98 157t126.5 109.5t151 39q125 0 190.5 -54t65.5 -155q0 -29 -6 -64l-102 -580q-5 -26 -5 -52q0 -34 16 -47t54 -13z" />
    <glyph glyph-name="f_j.liga" unicode="fj" horiz-adv-x="1202" 
d="M996 1062q65 0 87 -15.5t22 -52.5q0 -43 -14 -139l-78 -550q-35 -252 -79 -382.5t-127 -216.5q-54 -56 -143 -98t-189 -59q-29 34 -29 87q0 73 79 99q18 6 63 13.5t67 21.5q23 15 36.5 50.5t28 115.5t39.5 261l87 618q6 39 6 62q0 30 -12.5 40.5t-45.5 10.5h-324
l-132 -942q-31 -227 -117 -332t-239 -105q-88 0 -162 41l27 119q48 -25 98 -25q68 0 99.5 58.5t55.5 227.5l134 958h-131l11 100q47 16 140 22l10 73q29 204 148 299.5t327 95.5q109 0 215 -24t156 -64q6 -20 6 -41q0 -58 -31 -89t-88 -31q-43 0 -84 21.5t-69 46.5t-72 46.5
t-94 21.5q-146 0 -172 -197l-21 -157h420q59 11 91 11z" />
    <glyph glyph-name="f_k.liga" unicode="fk" horiz-adv-x="1724" 
d="M1160 1425q0 -25 -15 -128l-183 -1297h-236l185 1313q-21 9 -63.5 36t-82 41.5t-87.5 14.5q-146 0 -172 -197l-21 -157h251l-17 -123h-249l-132 -942q-31 -227 -117 -332t-239 -105q-88 0 -162 41l27 119q48 -25 98 -25q68 0 99.5 58.5t55.5 227.5l134 958h-131l11 100
q47 16 140 22l10 73q29 204 148 299.5t327 95.5q133 0 268 -38q49 11 84 11q39 0 54 -13.5t15 -52.5zM1515 890q-33 0 -81.5 -46.5t-174.5 -199.5q43 -73 110 -205l110 -220q29 -59 56 -83.5t61 -24.5q22 0 42 4l-6 -91q-78 -45 -166 -45q-83 0 -129 45t-117 196l-92 194
q-38 78 -82 153l270 339q79 98 134.5 134t130.5 36q68 0 121 -23q15 -38 15 -73q0 -55 -28.5 -88t-75.5 -33q-26 0 -52 15.5t-46 15.5z" />
    <glyph glyph-name="f_f_b.liga" unicode="ffb" horiz-adv-x="2435" 
d="M2057 1076q151 0 222 -88t71 -275q0 -196 -72 -366.5t-193.5 -271t-262.5 -100.5q-165 0 -248 109l-5 -13q-22 -53 -47 -74.5t-66 -21.5q-52 0 -108 31l184 1307q-21 9 -63.5 36t-82 41.5t-87.5 14.5q-146 0 -172 -197l-21 -157h252l-18 -123h-249l-131 -942
q-31 -227 -117.5 -332t-239.5 -105q-86 0 -160 41l27 119q48 -25 96 -25q68 0 99.5 58.5t55.5 227.5l134 958h-385l-132 -942q-31 -227 -117 -332t-239 -105q-88 0 -162 41l27 119q48 -25 98 -25q68 0 99.5 58.5t55.5 227.5l134 958h-131l11 100q16 6 65 13t75 9l8 53
q29 204 148 299t327 95q140 0 276 -64q119 85 348 85q131 0 266 -38q47 11 81 11q37 0 52 -12.5t15 -42.5q0 -79 -53.5 -361.5t-111.5 -498.5h3q34 108 75.5 194.5t95.5 157.5t123.5 109.5t149.5 38.5zM875 1051l10 72q14 104 30 160q-31 9 -68.5 35.5t-78 46.5t-92.5 20
q-144 0 -172 -198l-19 -136h390zM1764 109q88 0 166.5 85t125.5 227.5t47 301.5q0 105 -24 153.5t-76 48.5q-34 0 -76.5 -29t-88.5 -86.5t-87.5 -133.5t-76 -179.5t-51.5 -214.5l-11 -71q26 -48 66 -75t86 -27z" />
    <glyph glyph-name="f_f_h.liga" unicode="ffh" horiz-adv-x="2463" 
d="M2282 111q26 0 66 4l-6 -91q-113 -44 -204 -44t-130.5 30t-39.5 104q0 36 9 84l103 584q6 34 6 61q0 43 -17 62.5t-55 19.5q-43 0 -101 -47.5t-116 -128t-106.5 -205.5t-67.5 -262l-39 -282h-237l185 1313q-21 9 -63.5 36t-82 41.5t-87.5 14.5q-146 0 -172 -197l-21 -157
h252l-18 -123h-249l-131 -942q-31 -227 -117.5 -332t-239.5 -105q-86 0 -160 41l27 119q48 -25 96 -25q68 0 99.5 58.5t55.5 227.5l134 958h-385l-132 -942q-31 -227 -117 -332t-239 -105q-88 0 -162 41l27 119q48 -25 98 -25q68 0 99.5 58.5t55.5 227.5l134 958h-131
l11 100q16 6 65 13t75 9l8 53q29 204 148 299t327 95q140 0 276 -64q119 85 348 85q131 0 266 -38q47 11 81 11q37 0 52 -12.5t15 -42.5q0 -80 -52.5 -363t-110.5 -497h3q35 108 77.5 194.5t98 157t126.5 109.5t151 39q125 0 190.5 -54t65.5 -155q0 -29 -6 -64l-101 -580
q-6 -32 -6 -52q0 -34 16.5 -47t54.5 -13zM875 1051l10 72q14 104 30 160q-31 9 -68.5 35.5t-78 46.5t-92.5 20q-144 0 -172 -198l-19 -136h390z" />
    <glyph glyph-name="f_f_j.liga" unicode="ffj" horiz-adv-x="1824" 
d="M1617 1062q65 0 87.5 -15.5t22.5 -52.5q0 -36 -15 -139l-77 -550q-35 -252 -79.5 -382.5t-127.5 -216.5q-54 -56 -143 -98t-189 -59q-28 33 -28 87q0 38 18.5 62t59.5 37q18 6 63 13.5t67 21.5q33 22 51 96t54 331l86 618q6 39 6 62q0 30 -12.5 40.5t-45.5 10.5h-324
l-131 -942q-31 -227 -117.5 -332t-239.5 -105q-86 0 -160 41l27 119q48 -25 96 -25q68 0 99.5 58.5t55.5 227.5l134 958h-385l-132 -942q-31 -227 -117 -332t-239 -105q-88 0 -162 41l27 119q48 -25 98 -25q68 0 99.5 58.5t55.5 227.5l134 958h-131l11 100q16 6 65 13t75 9
l8 53q29 204 148 299t327 95q140 0 276 -64q119 85 348 85q109 0 214.5 -24t155.5 -64q6 -20 6 -41q0 -58 -31 -89t-88 -31q-43 0 -84 21.5t-69 46.5t-72 46.5t-94 21.5q-146 0 -172 -197l-21 -157h421q59 11 90 11zM875 1051l10 72q14 104 30 160q-31 9 -68.5 35.5
t-78 46.5t-92.5 20q-144 0 -172 -198l-19 -136h390z" />
    <glyph glyph-name="f_f_k.liga" unicode="ffk" horiz-adv-x="2347" 
d="M1781 1425q0 -25 -15 -128l-182 -1297h-237l185 1313q-21 9 -63.5 36t-82 41.5t-87.5 14.5q-146 0 -172 -197l-21 -157h252l-18 -123h-249l-131 -942q-31 -227 -117.5 -332t-239.5 -105q-86 0 -160 41l27 119q48 -25 96 -25q68 0 99.5 58.5t55.5 227.5l134 958h-385
l-132 -942q-31 -227 -117 -332t-239 -105q-88 0 -162 41l27 119q48 -25 98 -25q68 0 99.5 58.5t55.5 227.5l134 958h-131l11 100q16 6 65 13t75 9l8 53q29 204 148 299t327 95q140 0 276 -64q119 85 348 85q132 0 267 -38q49 11 84 11q39 0 54 -13.5t15 -52.5zM875 1051
l10 72q14 104 30 160q-31 9 -68.5 35.5t-78 46.5t-92.5 20q-144 0 -172 -198l-19 -136h390zM2136 890q-33 0 -81.5 -46.5t-174.5 -199.5q43 -73 110 -205l111 -220q29 -59 55.5 -83.5t60.5 -24.5q22 0 42 4l-6 -91q-77 -44 -165 -44q-83 0 -129 44.5t-117 195.5l-93 194
q-38 78 -82 153l270 339q79 98 134.5 134t130.5 36q67 0 122 -23q15 -38 15 -73q0 -55 -29 -88t-76 -33q-26 0 -52 15.5t-46 15.5z" />
    <glyph glyph-name=".notdef" horiz-adv-x="1189" 
d="M1016 1434v-1434h-842v1434h842zM854 1331h-518l259 -524zM276 162l275 555l-275 555v-1110zM913 1272l-274 -555l274 -555v1110zM336 102h518l-259 525z" />
    <glyph glyph-name=".null" horiz-adv-x="0" 
 />
    <glyph glyph-name="nonmarkingreturn" horiz-adv-x="682" 
 />
    <glyph glyph-name="space" unicode=" " horiz-adv-x="475" 
 />
    <glyph glyph-name="exclam" unicode="!" horiz-adv-x="524" 
d="M163 461l83 1012l279 11l-205 -1023h-157zM43 109q0 77 49.5 127t126.5 50q58 0 93 -37.5t35 -98.5q0 -77 -49.5 -126.5t-126.5 -49.5q-58 0 -93 37t-35 98z" />
    <glyph glyph-name="quotedbl" unicode="&#x22;" horiz-adv-x="768" 
d="M246 1516h193q-22 -138 -100 -507h-155q41 375 62 507zM591 1516h192q-25 -157 -99 -507h-155q41 375 62 507z" />
    <glyph glyph-name="numbersign" unicode="#" horiz-adv-x="1267" 
d="M1019 884l-106 -335h192l-17 -128h-216l-133 -421h-165l134 421h-308l-133 -421h-164l133 421h-197l17 128h221l106 335h-192l17 129h216l133 421h165l-134 -421h308l133 421h164l-133 -421h197l-18 -129h-220zM855 884h-308l-106 -335h308z" />
    <glyph glyph-name="dollar" unicode="$" horiz-adv-x="1085" 
d="M1024 1081l-134 -5q-6 121 -48 186.5t-125 81.5l-71 -512q129 -76 171 -109q138 -107 156 -253q3 -25 3 -51q0 -195 -119.5 -314t-327.5 -135l-27 -195h-119l27 194q-121 6 -226 36.5t-171 79.5q7 150 46 312l139 5q-4 -145 55.5 -227t176.5 -90l77 554q-127 78 -164 105
q-132 101 -154 232q-5 30 -5 62q0 185 119 301.5t316 126.5l27 193h119l-28 -195q88 -6 192.5 -28.5t148.5 -22.5zM424 1104q0 -117 119 -205l63 446q-84 -15 -133 -79.5t-49 -161.5zM731 352q0 124 -121 218l-67 -473q85 25 136.5 93.5t51.5 161.5z" />
    <glyph glyph-name="percent" unicode="%" horiz-adv-x="1824" 
d="M364 -102h-168l1294 1638h168zM121 992q0 206 111 332t293 126q147 0 223 -75.5t76 -221.5q0 -209 -111 -336t-295 -127q-140 0 -218.5 79.5t-78.5 222.5zM511 1341q-88 0 -146 -102.5t-58 -256.5q0 -86 34 -134t93 -48q85 0 144.5 106t59.5 258q0 177 -127 177z
M1030 285q0 206 111 332t293 126q147 0 223 -75t76 -221q0 -209 -111 -336t-295 -127q-140 0 -218.5 79.5t-78.5 221.5zM1420 634q-88 0 -146 -102.5t-58 -256.5q0 -86 34 -134t93 -48q85 0 144.5 106.5t59.5 258.5q0 176 -127 176z" />
    <glyph glyph-name="ampersand" unicode="&#x26;" horiz-adv-x="1527" 
d="M1156 266q106 -95 167 -130.5t133 -47.5l-13 -82q-55 -18 -137 -18q-73 0 -146 29t-163 94q-195 -144 -422 -144q-245 0 -373.5 102t-128.5 297q0 160 87.5 275t252.5 172q-61 128 -61 252q0 182 103 291.5t275 109.5q135 0 207.5 -63t72.5 -181q0 -287 -334 -423
q127 -206 361 -425q49 101 49 236q0 94 34 138.5t104 44.5q56 0 93 -27q3 -14 3 -37q0 -252 -164 -463zM713 1349q-65 0 -105 -67t-40 -176q0 -119 52 -218q200 101 200 304q0 157 -107 157zM314 394q0 -141 79.5 -219.5t222.5 -78.5q152 0 270 103q-130 113 -240.5 249
t-174.5 263q-157 -103 -157 -317z" />
    <glyph glyph-name="quotesingle" unicode="'" horiz-adv-x="423" 
d="M246 1516h193q-22 -138 -100 -507h-155q41 375 62 507z" />
    <glyph glyph-name="parenleft" unicode="(" horiz-adv-x="600" 
d="M414 -410h-134q-209 356 -209 764q0 334 115 615t371 575h138q-415 -607 -415 -1211q0 -193 35 -388.5t99 -354.5z" />
    <glyph glyph-name="parenright" unicode=")" horiz-adv-x="600" 
d="M174 1544h133q209 -356 209 -764q0 -334 -115 -615t-370 -575h-139q416 608 416 1212q0 193 -35 388t-99 354z" />
    <glyph glyph-name="asterisk" unicode="*" horiz-adv-x="993" 
d="M989 1147q-167 -51 -349 -70q110 -117 189 -255q-64 -57 -151 -100q-80 141 -122 298q-103 -168 -219 -299q-72 39 -129 105q129 147 273 256q-169 18 -323 70q23 77 78 155q149 -50 286 -137q-2 32 -2 86q0 132 19 259q39 7 93 7q53 0 87 -7q-27 -178 -88 -339
q172 90 327 137q28 -77 31 -166z" />
    <glyph glyph-name="plus" unicode="+" horiz-adv-x="1077" 
d="M994 492h-394l-61 -433h-157l61 433h-392l20 140h392l61 432h157l-61 -432h394z" />
    <glyph glyph-name="comma" unicode="," horiz-adv-x="497" 
d="M203 286q61 0 93.5 -42t32.5 -119q0 -99 -47 -192t-127 -157t-173 -81q-34 21 -37 67q143 61 176 215q-44 10 -69 45t-25 87q0 77 49.5 127t126.5 50z" />
    <glyph glyph-name="hyphen" unicode="-" horiz-adv-x="794" 
d="M670 642l-23 -161h-537l22 161h538z" />
    <glyph glyph-name="period" unicode="." horiz-adv-x="491" 
d="M27 109q0 77 50 127t127 50q58 0 93 -37.5t35 -98.5q0 -77 -49.5 -126.5t-126.5 -49.5q-58 0 -93.5 37t-35.5 98z" />
    <glyph glyph-name="slash" unicode="/" horiz-adv-x="774" 
d="M99 -377h-180l739 1856h179z" />
    <glyph glyph-name="zero" unicode="0" horiz-adv-x="1171" 
d="M77 420q0 198 73 352t204.5 239t300.5 85q205 0 313 -112.5t108 -324.5q0 -304 -160.5 -494t-417.5 -190q-198 0 -309.5 118t-111.5 327zM636 955q-139 0 -231 -156t-92 -389q0 -136 55 -214.5t149 -78.5q89 0 163.5 73.5t117 200.5t42.5 278q0 139 -52.5 212.5
t-151.5 73.5z" />
    <glyph glyph-name="one" unicode="1" horiz-adv-x="806" 
d="M696 94l-14 -94h-667l14 94l121 18q56 8 79.5 29t31.5 69l104 655q-87 -37 -187 -58l-50 -10l-6 100l371 187h143l-138 -874q-4 -24 -4 -32q0 -32 23 -45.5t91 -24.5z" />
    <glyph glyph-name="two" unicode="2" horiz-adv-x="1001" 
d="M303 158q89 8 237 8h318l-26 -166h-836l23 138q335 189 486 341t151 303q0 76 -49.5 121t-132.5 45q-141 0 -291 -125l-35 143q161 130 400 130q165 0 262 -73.5t97 -198.5q0 -189 -152.5 -357.5t-451.5 -308.5z" />
    <glyph glyph-name="three" unicode="3" horiz-adv-x="1038" 
d="M618 410q124 -26 189.5 -102t65.5 -194q0 -220 -148.5 -347t-406.5 -127q-220 0 -365 99q-2 14 -2 33q0 60 29.5 93.5t82.5 33.5q33 0 58.5 -14t44 -34t39 -40t56 -34t83.5 -14q121 0 200 96.5t79 242.5q0 117 -83 173.5t-254 56.5q-45 0 -81 -6l10 134q237 0 349.5 73.5
t112.5 229.5q0 91 -51.5 138t-148.5 47q-142 0 -292 -125l-35 143q161 130 401 130q181 0 279 -75.5t98 -215.5q0 -151 -82.5 -255.5t-227.5 -139.5z" />
    <glyph glyph-name="four" unicode="4" horiz-adv-x="1110" 
d="M963 25h-164l-51 -361h-230l51 361h-608l15 104l758 946h213l-126 -897h164zM595 178l85 602l-483 -602h398z" />
    <glyph glyph-name="five" unicode="5" horiz-adv-x="1048" 
d="M384 881l-113 -445q106 95 272 95q159 0 255 -100.5t96 -266.5q0 -248 -151 -386t-411 -138q-221 0 -366 99q-2 14 -2 33q0 60 30 93.5t83 33.5q33 0 58.5 -14t43.5 -34t38.5 -40t56 -34t83.5 -14q123 0 206 105.5t83 266.5q0 112 -57.5 174.5t-158.5 62.5
q-121 0 -231 -113l-128 44l193 769h731l-27 -191h-584z" />
    <glyph glyph-name="six" unicode="6" horiz-adv-x="1126" 
d="M823 1292q-192 0 -313.5 -150.5t-174.5 -456.5q112 200 360 200q156 0 240.5 -92.5t84.5 -261.5q0 -250 -148 -403t-390 -153q-192 0 -290 114t-98 339q0 465 195 734.5t532 269.5q165 0 282 -52l-41 -140q-116 52 -239 52zM611 735q-121 0 -202 -111t-81 -277
q0 -112 47.5 -175t130.5 -63q118 0 194 113t76 287q0 108 -43 167t-122 59z" />
    <glyph glyph-name="seven" unicode="7" horiz-adv-x="944" 
d="M975 1072l-10 -116l-194 -321q-143 -236 -231.5 -409t-169.5 -371q-46 -115 -71 -202q-36 -9 -88 -9q-66 0 -95.5 24t-29.5 80q0 91 104 298q210 420 548 839h-656l28 187h865z" />
    <glyph glyph-name="eight" unicode="8" horiz-adv-x="1118" 
d="M735 775q59 -34 98 -62t79.5 -70t61 -95t20.5 -117q0 -202 -148 -329t-383 -127q-192 0 -297.5 86t-105.5 242q0 315 328 427q-89 59 -138 127t-49 167q0 187 129.5 297.5t348.5 110.5q171 0 267 -75.5t96 -210.5q0 -137 -74.5 -228t-232.5 -143zM666 1309
q-98 0 -160.5 -65t-62.5 -168q0 -75 45 -128.5t130 -104.5q214 88 214 295q0 82 -43.5 126.5t-122.5 44.5zM477 98q121 0 197 75.5t76 195.5q0 42 -14.5 79.5t-34 64t-56 55.5t-65 47t-75.5 45q-114 -48 -174.5 -135.5t-60.5 -204.5q0 -103 56 -162.5t151 -59.5z" />
    <glyph glyph-name="nine" unicode="9" horiz-adv-x="1107" 
d="M613 1096q192 0 290 -113.5t98 -338.5q0 -465 -194.5 -734.5t-531.5 -269.5q-166 0 -283 52l41 140q116 -52 239 -52q192 0 313.5 150.5t174.5 456.5q-54 -98 -146 -149.5t-214 -51.5q-156 0 -240.5 93t-84.5 262q0 250 148 402.5t390 152.5zM484 337q121 0 202.5 111
t81.5 277q0 112 -47.5 175t-130.5 63q-118 0 -194.5 -113.5t-76.5 -286.5q0 -108 43 -167t122 -59z" />
    <glyph glyph-name="colon" unicode=":" horiz-adv-x="559" 
d="M160 780q0 77 49.5 126.5t126.5 49.5q58 0 93 -37.5t35 -98.5q0 -77 -49.5 -126.5t-126.5 -49.5q-58 0 -93 37.5t-35 98.5zM54 109q0 77 49.5 127t126.5 50q58 0 93 -37.5t35 -98.5q0 -77 -49.5 -126.5t-126.5 -49.5q-58 0 -93 37t-35 98z" />
    <glyph glyph-name="semicolon" unicode=";" horiz-adv-x="561" 
d="M336 956q58 0 93.5 -37.5t35.5 -98.5q0 -77 -50 -126.5t-127 -49.5q-58 0 -93 37.5t-35 98.5q0 77 49.5 126.5t126.5 49.5zM230 286q61 0 93.5 -42t32.5 -119q0 -99 -47 -192t-127 -157t-173 -81q-34 21 -37 67q144 61 177 215q-44 10 -69.5 45t-25.5 87q0 77 49.5 127
t126.5 50z" />
    <glyph glyph-name="less" unicode="&#x3c;" horiz-adv-x="915" 
d="M838 884l-583 -289l500 -288l-22 -164l-681 404l15 105l796 405z" />
    <glyph glyph-name="equal" unicode="=" horiz-adv-x="1206" 
d="M1080 656h-942l19 139h943zM1036 344h-942l20 139h942z" />
    <glyph glyph-name="greater" unicode="&#x3e;" horiz-adv-x="915" 
d="M860 652l-15 -105l-795 -404l24 172l583 289l-500 288l22 165z" />
    <glyph glyph-name="question" unicode="?" horiz-adv-x="978" 
d="M625 1501q169 0 269 -80.5t100 -216.5q0 -84 -27.5 -150.5t-71.5 -109.5t-97.5 -79t-107 -68t-97.5 -66.5t-71.5 -84.5t-27.5 -113q0 -37 4 -65l-160 -18q-13 45 -13 112t24 123.5t62.5 96.5t84.5 76t92.5 71t85 72t62.5 88t24 111q0 83 -45.5 130t-125.5 47
q-82 0 -130.5 -45.5t-71.5 -144.5q-18 -79 -51.5 -113t-93.5 -34q-40 0 -70 20t-43 55q35 180 168 283t328 103zM242 109q0 77 49.5 127t126.5 50q58 0 93 -37.5t35 -98.5q0 -77 -49.5 -126.5t-126.5 -49.5q-58 0 -93 37t-35 98z" />
    <glyph glyph-name="at" unicode="@" horiz-adv-x="1873" 
d="M1031 1248q328 0 532 -175t204 -456q0 -182 -63.5 -329t-176 -230t-252.5 -83q-115 0 -176 43.5t-61 124.5q0 64 54 250h-3q-124 -413 -363 -413q-119 0 -173 72t-54 228q0 162 57 301.5t154 221t209 81.5q131 0 200 -90l5 10q20 45 41 62.5t58 17.5q49 0 99 -27
l-83 -526q-19 -124 -19 -158q0 -103 89 -103q113 0 188.5 151.5t75.5 380.5q0 244 -148 385.5t-405 141.5q-168 0 -310 -62.5t-241 -174t-154.5 -271.5t-55.5 -349q0 -281 151.5 -429t439.5 -148q208 0 368 47l20 -96q-204 -70 -424 -70q-363 0 -561 181t-198 513
q0 216 71 398t198 309.5t309 199t398 71.5zM780 114q33 0 76.5 38t85.5 102.5t78.5 163t52.5 206.5l11 68q-20 34 -49 54.5t-61 20.5q-66 0 -125 -69.5t-95 -185t-36 -242.5q0 -83 14 -119.5t48 -36.5z" />
    <glyph glyph-name="A" unicode="A" horiz-adv-x="1376" 
d="M1280 93l-7 -93h-552l14 93l56 9q56 8 78.5 29.5t22.5 69.5q0 34 -11 92l-24 130h-461l-60 -130q-45 -96 -45 -130q0 -28 23 -41t79 -22l42 -7l-14 -93h-504l14 93l56 9q56 9 87.5 43.5t86.5 147.5l556 1147h179l228 -1147q22 -113 42.5 -146t74.5 -45zM834 548l-110 587
l-271 -587h381z" />
    <glyph glyph-name="B" unicode="B" horiz-adv-x="1253" 
d="M880 772q125 -23 195 -104t70 -205q0 -220 -157.5 -346t-432.5 -126q-73 0 -211.5 4.5t-226.5 4.5h-111l15 93l71 14q48 9 66.5 29.5t25.5 68.5l144 1023q3 20 3 34q0 31 -19 44.5t-75 25.5l-40 8l6 94h117q88 0 227 4.5t212 4.5q222 0 330 -71.5t108 -217.5
q0 -140 -88.5 -245t-228.5 -137zM948 1125q0 101 -53.5 150t-163.5 49q-91 0 -154 -11l-69 -485q68 -6 133 -6q140 0 223.5 82t83.5 221zM541 109q168 0 260.5 92.5t92.5 259.5q0 110 -68.5 175t-183.5 65q-83 0 -152 -6l-68 -479q-2 -12 -2 -32q0 -42 27 -58.5t94 -16.5z
" />
    <glyph glyph-name="C" unicode="C" horiz-adv-x="1284" 
d="M875 1466q113 0 238.5 -24.5t191.5 -24.5q-14 -172 -51 -358l-139 -9q0 156 -58.5 221.5t-196.5 65.5q-146 0 -260.5 -99.5t-178.5 -278t-64 -403.5q0 -220 86.5 -339.5t244.5 -119.5q148 0 230 72.5t123 239.5l133 -9l-46 -328q-225 -105 -464 -105q-274 0 -420 153.5
t-146 443.5q0 265 98 470.5t274.5 318.5t404.5 113z" />
    <glyph glyph-name="D" unicode="D" horiz-adv-x="1445" 
d="M759 1443q302 0 460.5 -149.5t158.5 -432.5q0 -257 -102.5 -455t-290 -306.5t-430.5 -108.5q-73 0 -211.5 4.5t-226.5 4.5h-111l15 93l71 14q48 9 66.5 29.5t25.5 68.5l144 1023q3 20 3 34q0 31 -19 44.5t-75 25.5l-40 8l6 94h117q88 0 227 4.5t212 4.5zM545 109
q127 0 234 55.5t181.5 154t116.5 238.5t42 305q0 220 -100.5 341t-282.5 121q-92 0 -155 -11l-154 -1097q-3 -18 -3 -32q0 -42 27 -58.5t94 -16.5z" />
    <glyph glyph-name="E" unicode="E" horiz-adv-x="1236" 
d="M1182 1075l-146 -9q2 82 -3 127t-24 74t-50 37.5t-87 8.5h-291l-74 -524h237q50 0 72.5 22t45.5 93l14 42l124 4l-64 -455l-122 4l-1 79q0 47 -20.5 68.5t-65.5 21.5h-237l-63 -454q-2 -20 -2 -27q0 -39 28 -52.5t104 -13.5h184q45 0 74.5 6t54 20.5t42 44t32 70.5
t30.5 106l144 -9q-19 -193 -66 -359h-1046l15 93l71 14q48 9 66.5 29.5t25.5 68.5l144 1023q3 20 3 34q0 31 -19 44.5t-75 25.5l-40 8l6 94h1015q-1 -178 -36 -359z" />
    <glyph glyph-name="F" unicode="F" horiz-adv-x="1189" 
d="M203 1434h1015q-1 -172 -37 -361l-146 -9q2 83 -3 128.5t-23.5 74.5t-49.5 37.5t-87 8.5h-291l-79 -560h265q50 0 72.5 22t45.5 93l14 42l124 4l-64 -455l-122 4v79q0 47 -21 68.5t-66 21.5h-265l-57 -401q-4 -34 -4 -45q0 -36 19.5 -50t74.5 -23l102 -16l-15 -97h-599
l15 93l71 14q48 9 66.5 29.5t25.5 68.5l144 1023q3 20 3 34q0 31 -19 44.5t-75 25.5l-40 8z" />
    <glyph glyph-name="G" unicode="G" horiz-adv-x="1425" 
d="M1399 704l-14 -93l-66 -12q-47 -8 -66 -29.5t-26 -70.5l-63 -446q-244 -86 -500 -86q-274 0 -420 153.5t-146 443.5q0 265 98.5 470.5t278 318.5t413.5 113q121 0 256.5 -24.5t199.5 -24.5q-14 -172 -51 -358l-139 -9q0 155 -66 221t-216 66q-151 0 -269 -100
t-182 -277.5t-64 -403.5q0 -214 87 -333t245 -119q144 0 259 48l49 347q3 19 3 34q0 31 -19 44.5t-75 25.5l-40 8l6 93h527z" />
    <glyph glyph-name="H" unicode="H" horiz-adv-x="1513" 
d="M1546 1434l-14 -94l-83 -11q-46 -7 -65.5 -29.5t-26.5 -71.5l-144 -1023q-3 -20 -3 -34q0 -31 18.5 -43.5t75.5 -23.5l54 -11l-14 -93h-548l15 93l71 14q46 9 64.5 29.5t25.5 68.5l65 465h-547l-65 -465q-3 -19 -3 -34q0 -31 18.5 -44t73.5 -23l54 -11l-14 -93h-548
l15 93l71 14q48 9 66.5 29.5t25.5 68.5l144 1023q3 20 3 34q0 31 -19 44.5t-75 25.5l-40 8l6 94h553l-14 -94l-81 -11q-45 -7 -65 -29.5t-27 -71.5l-61 -429h547l61 429q3 19 3 34q0 32 -19.5 46.5t-74.5 24.5l-42 7l14 94h549z" />
    <glyph glyph-name="I" unicode="I" horiz-adv-x="727" 
d="M744 1340l-83 -11q-46 -7 -65.5 -29.5t-26.5 -71.5l-144 -1023q-3 -19 -3 -34q0 -31 18.5 -43.5t75.5 -23.5l54 -11l-14 -93h-550l15 93l71 14q48 9 66.5 29.5t25.5 68.5l144 1023q3 20 3 34q0 31 -19 44.5t-75 25.5l-40 8l6 94h555z" />
    <glyph glyph-name="J" unicode="J" horiz-adv-x="696" 
d="M-114 -406q-29 34 -29 87q0 77 79 103q18 6 64.5 14t68.5 22q23 15 36.5 49t27.5 112.5t40 260.5l140 986q3 20 3 35q0 31 -19 44.5t-73 24.5l-40 8l6 94h556l-15 -94l-83 -11q-46 -7 -65.5 -29.5t-26.5 -71.5l-126 -898q-34 -246 -78.5 -368.5t-129.5 -210.5
q-54 -56 -144.5 -98t-191.5 -59z" />
    <glyph glyph-name="K" unicode="K" horiz-adv-x="1294" 
d="M422 171q0 -31 18.5 -44t71.5 -23l54 -11l-15 -93h-545l15 93l71 14q48 9 66.5 29.5t25.5 68.5l144 1023q3 20 3 34q0 31 -19 44.5t-75 25.5l-40 8l6 94h555l-14 -94l-83 -11q-46 -7 -65.5 -29.5t-26.5 -71.5l-144 -1023q-3 -19 -3 -34zM1385 1434l-14 -94
q-77 -20 -124 -53.5t-167 -153.5l-336 -338q41 -58 74 -120l230 -439q66 -127 167 -144l-14 -88q-56 -17 -123 -17q-106 0 -167 47t-129 181l-130 257q-72 143 -149 256l430 449q79 83 79 118q0 32 -60 41l-29 4l6 94h456z" />
    <glyph glyph-name="L" unicode="L" horiz-adv-x="1181" 
d="M744 1340l-83 -11q-46 -7 -65.5 -29.5t-26.5 -71.5l-142 -1014q-2 -20 -2 -27q0 -39 28 -52.5t104 -13.5h159q54 0 89.5 14.5t62.5 52.5t45 89.5t39 140.5l148 -9q-25 -242 -73 -409h-1021l15 93l71 14q48 9 66.5 29.5t25.5 68.5l144 1023q3 20 3 34q0 31 -19 44.5
t-75 25.5l-40 8l6 94h555z" />
    <glyph glyph-name="M" unicode="M" horiz-adv-x="1914" 
d="M1903 1434l-15 -94l-83 -11q-47 -7 -68 -29.5t-24 -71.5l-68 -1023q-4 -55 11 -72t80 -29l54 -11l-14 -93h-541l14 93l71 14q46 9 65 30.5t23 67.5l38 538q19 259 46 441q-87 -192 -254 -522l-337 -662h-164l-130 646q-65 328 -94 534q-22 -160 -84 -438l-119 -537
q-5 -25 -5 -38q0 -27 20 -40t72 -23l54 -11l-14 -93h-465l15 93l71 14q45 8 63 27t29 71l227 1023q5 25 5 38q0 28 -20 41t-76 25l-40 8l6 94h436l213 -1105l557 1105h445z" />
    <glyph glyph-name="N" unicode="N" horiz-adv-x="1495" 
d="M1545 1434l-15 -94l-83 -11q-46 -7 -65.5 -29.5t-26.5 -71.5l-173 -1228h-226l-373 863q-68 156 -113 342q-7 -152 -26 -285l-101 -715q-3 -19 -3 -34q0 -31 18.5 -43.5t75.5 -23.5l54 -11l-14 -93h-468l15 93l71 14q48 9 66.5 29.5t25.5 68.5l144 1023q3 20 3 34
q0 31 -19 44.5t-75 25.5l-40 8l6 94h390l372 -863q65 -152 105 -309q7 128 25 251l101 715q3 19 3 34q0 31 -19 44.5t-75 25.5l-40 8l6 94h474z" />
    <glyph glyph-name="O" unicode="O" horiz-adv-x="1509" 
d="M874 1466q270 0 418.5 -158t148.5 -445q0 -265 -97 -468.5t-274 -315.5t-407 -112q-262 0 -413 165.5t-151 453.5q0 260 96.5 460t273 310t405.5 110zM854 1337q-143 0 -256.5 -98.5t-176.5 -274.5t-63 -397q0 -219 86.5 -344.5t237.5 -125.5q140 0 255 102.5t180 282.5
t65 400q0 217 -86 336t-242 119z" />
    <glyph glyph-name="P" unicode="P" horiz-adv-x="1224" 
d="M473 548l-45 -317q-4 -34 -4 -45q0 -36 19.5 -50t74.5 -23l102 -16l-15 -97h-599l15 93l71 14q48 9 66.5 29.5t25.5 68.5l144 1023q3 20 3 34q0 31 -19 44.5t-75 25.5l-40 8l6 94h117q88 0 227 4.5t212 4.5q462 0 462 -363q0 -256 -161.5 -396.5t-454.5 -140.5
q-76 0 -132 5zM970 1071q0 125 -59.5 189t-174.5 64q-92 0 -155 -11l-91 -642q67 -6 133 -6q162 0 254.5 108.5t92.5 297.5z" />
    <glyph glyph-name="Q" unicode="Q" horiz-adv-x="1509" 
d="M1330 -29q96 0 96 -95q0 -39 -16 -85q-88 -41 -193 -41q-137 0 -239 61t-153 172q-83 -16 -162 -16q-262 0 -413 165.5t-151 453.5q0 260 96.5 460t273 310t405.5 110q270 0 418.5 -158t148.5 -445q0 -305 -128.5 -526.5t-352.5 -313.5q74 -82 196 -82q39 0 92 15t82 15z
M358 567q0 -219 86.5 -344.5t237.5 -125.5q140 0 255 102.5t180 282.5t65 400q0 217 -86 336t-242 119q-143 0 -256.5 -98.5t-176.5 -274.5t-63 -397z" />
    <glyph glyph-name="R" unicode="R" horiz-adv-x="1300" 
d="M1089 173q20 -42 47.5 -59t77.5 -20l-14 -88q-54 -19 -144 -19q-109 0 -154 35.5t-79 147.5l-95 316q-26 86 -63 117t-114 31q-25 0 -69 -4l-59 -425q-3 -19 -3 -34q0 -31 18 -44t71 -23l55 -11l-15 -93h-543l15 93l71 14q48 9 66.5 29.5t25.5 68.5l144 1023q3 20 3 34
q0 31 -19 44.5t-75 25.5l-40 8l6 94h117q88 0 227 4.5t212 4.5q223 0 332 -78t109 -238q0 -171 -98.5 -282.5t-276.5 -143.5q49 -18 82.5 -62t67.5 -131q23 -58 58.5 -176t55.5 -159zM634 759q141 0 229.5 95t88.5 248q0 222 -219 222q-91 0 -154 -11l-78 -549q56 -5 133 -5
z" />
    <glyph glyph-name="S" unicode="S" horiz-adv-x="1103" 
d="M661 1466q129 0 258 -26.5t168 -26.5l-54 -332l-133 -5q-7 142 -64 207.5t-173 65.5q-104 0 -167 -67t-63 -178q0 -61 30.5 -111.5t79 -86.5t107.5 -70t118 -72.5t107.5 -83t79 -111.5t30.5 -150q0 -209 -137 -330.5t-371 -121.5q-138 0 -259 31.5t-195 86.5
q8 155 45 312l139 5q-5 -154 61.5 -236t196.5 -82q119 0 197 75.5t78 192.5q0 65 -30 118t-78.5 90.5t-107 72.5t-116.5 72.5t-106.5 81t-78.5 108t-30 143.5q0 193 128.5 310.5t339.5 117.5z" />
    <glyph glyph-name="T" unicode="T" horiz-adv-x="1310" 
d="M188 1434h1168q-2 -184 -37 -373l-151 -9q5 65 0.5 111.5t-11.5 75.5t-27 45.5t-47 22.5t-72 6h-136l-152 -1082q-4 -24 -4 -46q0 -36 19 -51.5t72 -24.5l85 -14l-15 -95h-609l14 95l101 17q47 8 67.5 33.5t28.5 85.5l152 1082h-135q-107 0 -148.5 -47.5t-82.5 -213.5
l-148 9q19 202 68 373z" />
    <glyph glyph-name="U" unicode="U" horiz-adv-x="1447" 
d="M718 1340l-83 -11q-46 -7 -65.5 -29.5t-26.5 -71.5l-101 -716q-10 -72 -10 -121q0 -296 263 -296q149 0 233.5 97.5t113.5 304.5l104 731q3 19 3 34q0 32 -20 46t-75 24l-44 8l15 94h484l-14 -94l-83 -11q-46 -7 -65.5 -29.5t-26.5 -71.5l-106 -750q-35 -252 -178 -381.5
t-387 -129.5q-458 0 -458 414q0 64 10 131l101 716q3 20 3 34q0 31 -19 44.5t-75 25.5l-40 8l6 94h555z" />
    <glyph glyph-name="V" unicode="V" horiz-adv-x="1376" 
d="M1489 1434l-15 -94l-55 -6q-54 -6 -85.5 -41t-89.5 -152l-564 -1146h-162l-236 1146q-25 118 -45 151t-72 42l-39 6l6 94h555l-15 -94l-55 -6q-55 -6 -78.5 -28.5t-23.5 -71.5q0 -33 11 -93l159 -814l383 814q45 96 45 132q0 29 -23.5 42.5t-78.5 19.5l-43 5l15 94h506z
" />
    <glyph glyph-name="W" unicode="W" horiz-adv-x="2039" 
d="M2155 1434l-15 -94l-55 -6q-57 -7 -90.5 -44t-84.5 -149l-520 -1146h-162l-146 1017l-457 -1017h-162l-176 1146q-17 112 -39 147.5t-78 45.5l-39 6l6 94h549l-14 -94l-56 -6q-56 -7 -77.5 -27t-21.5 -73q0 -25 9 -93l105 -786l466 1079h154l145 -1079l338 786
q45 104 45 137q0 28 -23 39.5t-79 17.5l-43 5l15 94h506z" />
    <glyph glyph-name="X" unicode="X" horiz-adv-x="1243" 
d="M1332 1434l-14 -94l-37 -4q-45 -5 -69 -17t-52 -43.5t-87 -113.5l-300 -418l206 -472q47 -106 70 -133t77 -39l29 -7l-14 -93h-533l15 93l37 6q50 8 72 24.5t22 46.5t-21 79l-140 336l-237 -336q-47 -67 -47 -97q0 -21 19 -32.5t61 -17.5l58 -9l-14 -93h-498l15 93l37 6
q65 10 96.5 37t110.5 136l306 425l-204 465q-49 111 -71.5 138t-74.5 36l-26 4l7 94h536l-14 -94l-37 -4q-49 -5 -72 -21.5t-23 -48.5t21 -81l137 -330l232 330q47 67 47 99q0 22 -19 33.5t-60 16.5l-59 6l15 94h497z" />
    <glyph glyph-name="Y" unicode="Y" horiz-adv-x="1318" 
d="M1422 1434l-15 -94l-39 -4q-36 -4 -54.5 -9.5t-44.5 -28t-49 -54.5t-71 -103l-367 -543l-52 -367q-5 -30 -5 -46q0 -36 19.5 -51.5t72.5 -24.5l85 -14l-15 -95h-610l15 95l101 17q47 8 67.5 34t28.5 85l52 367l-240 543q-33 74 -47 104t-32.5 53.5t-31 28t-40.5 9.5
l-26 4l7 94h559l-14 -94l-54 -6q-52 -6 -76.5 -23.5t-24.5 -50.5q0 -32 24 -86l182 -412l271 412q48 72 48 107q0 44 -83 53l-60 6l15 94h504z" />
    <glyph glyph-name="Z" unicode="Z" horiz-adv-x="1220" 
d="M1232 1332l-936 -1211h426q103 0 148 55t83 211l148 -9q-20 -210 -68 -378h-1038l4 102l936 1211h-392q-107 0 -148.5 -47.5t-82.5 -213.5l-148 9q19 202 68 373h1004z" />
    <glyph glyph-name="bracketleft" unicode="[" horiz-adv-x="575" 
d="M643 1544l-17 -123h-176l-239 -1708h175l-17 -123h-373l275 1954h372z" />
    <glyph glyph-name="backslash" unicode="\" horiz-adv-x="768" 
d="M569 -377h-171l-217 1856h171z" />
    <glyph glyph-name="bracketright" unicode="]" horiz-adv-x="575" 
d="M-81 -410l17 123h176l239 1708h-174l17 123h372l-274 -1954h-373z" />
    <glyph glyph-name="asciicircum" unicode="^" horiz-adv-x="1083" 
d="M833 614l-181 644l-392 -644h-189l529 840h164l252 -840h-183z" />
    <glyph glyph-name="underscore" unicode="_" 
d="M890 -340h-1024l20 145h1024z" />
    <glyph glyph-name="grave" unicode="`" 
d="M368 1553l377 -253q-24 -67 -58 -105l-408 201q26 83 89 157z" />
    <glyph glyph-name="a" unicode="a" horiz-adv-x="1161" 
d="M979 111q26 0 66 4l-6 -91q-113 -44 -195 -44q-79 0 -116 28t-37 89q0 98 87 379h-2q-154 -501 -445 -501q-141 0 -205 87.5t-64 276.5q0 196 70 366.5t188.5 270.5t255.5 100q157 0 240 -112l7 17q22 53 47 74t66 21q51 0 107 -31l-129 -822q-5 -33 -5 -51q0 -35 16 -48
t54 -13zM386 126q42 0 98 47.5t111 128.5t102 205.5t68 262.5l11 70q-25 47 -63.5 74.5t-80.5 27.5q-85 0 -160.5 -85t-121 -227.5t-45.5 -301.5q0 -107 18.5 -154.5t62.5 -47.5z" />
    <glyph glyph-name="b" unicode="b" horiz-adv-x="1155" 
d="M778 1076q151 0 222 -88t71 -275q0 -196 -72 -366.5t-193.5 -271t-262.5 -100.5q-165 0 -248 109l-5 -13q-22 -53 -47 -74.5t-66 -21.5q-52 0 -108 31l176 1251q6 45 6 68q0 25 -7.5 34t-26.5 9q-40 0 -88 -16v91q49 31 125 53t137 22q66 0 85.5 -15.5t19.5 -66.5
q0 -79 -53.5 -361.5t-111.5 -498.5h3q34 108 75.5 194.5t95.5 157.5t123.5 109.5t149.5 38.5zM485 109q88 0 166.5 85t125.5 227.5t47 301.5q0 105 -24 153.5t-76 48.5q-34 0 -76.5 -29t-88.5 -86.5t-87.5 -133.5t-76 -179.5t-51.5 -214.5l-11 -71q26 -48 66 -75t86 -27z
" />
    <glyph glyph-name="c" unicode="c" horiz-adv-x="956" 
d="M426 -25q-175 0 -267.5 108.5t-92.5 312.5q0 302 162 491t421 189q171 0 289 -83q8 -21 8 -48q0 -58 -33 -92t-88 -34q-33 0 -56.5 14t-37 33.5t-26.5 39t-34.5 33.5t-52.5 14q-82 0 -151.5 -73t-110.5 -197.5t-41 -269.5q0 -140 52.5 -214t152.5 -74q74 0 135.5 25.5
t127.5 81.5l41 -115q-94 -75 -188 -108.5t-210 -33.5z" />
    <glyph glyph-name="d" unicode="d" horiz-adv-x="1185" 
d="M1107 1297l-170 -1074q-5 -33 -5 -51q0 -35 15.5 -48t53.5 -13q27 0 67 4l-6 -91q-113 -44 -195 -44q-79 0 -116 28t-37 89q0 98 87 379h-2q-154 -501 -445 -501q-151 0 -222.5 88.5t-71.5 275.5q0 196 72 366.5t193.5 270.5t262.5 100q155 0 239 -110q9 119 37 291
q8 48 8 68q0 24 -8 33.5t-27 9.5q-40 0 -88 -16v91q49 31 126 53t139 22q67 0 87.5 -15.5t20.5 -66.5q0 -47 -15 -139zM408 126q42 0 98 47.5t111 128.5t102.5 205.5t68.5 262.5l11 70q-26 48 -66 75t-86 27q-88 0 -166.5 -85t-125.5 -227.5t-47 -301.5q0 -105 24 -153.5
t76 -48.5z" />
    <glyph glyph-name="e" unicode="e" horiz-adv-x="1030" 
d="M370 437q-32 0 -59 3q0 -4 -0.5 -13t-0.5 -14q0 -150 61 -220t171 -70q85 0 151 25t132 82l41 -113q-95 -75 -191 -108.5t-226 -33.5q-190 0 -286.5 107.5t-96.5 313.5q0 302 162 491t421 189q163 0 246 -62.5t83 -184.5q0 -186 -160 -289t-448 -103zM613 953
q-103 0 -184 -112.5t-108 -284.5q32 -2 45 -2q175 0 279 73t104 196q0 130 -136 130z" />
    <glyph glyph-name="f" unicode="f" horiz-adv-x="733" 
d="M937 1482q6 -20 6 -42q0 -56 -27.5 -86t-78.5 -30q-33 0 -62 12.5t-46 28t-43.5 28t-56.5 12.5q-94 0 -117 -160l-27 -194h271l-17 -123h-269l-132 -942q-31 -227 -117 -332t-239 -105q-88 0 -162 41l27 119q48 -25 98 -25q68 0 99.5 58.5t55.5 227.5l134 958h-131
l11 100q47 16 140 22l15 110q25 181 129.5 269.5t291.5 88.5q127 0 247 -36z" />
    <glyph glyph-name="g" unicode="g" horiz-adv-x="1079" 
d="M1104 1059q7 -24 7 -50q0 -103 -108 -103q-65 0 -188 47q52 -31 83.5 -89.5t31.5 -126.5q0 -161 -129.5 -266.5t-327.5 -105.5q-90 0 -158 25q-54 -38 -54 -88q0 -41 33.5 -63t112.5 -33l191 -27q177 -25 251.5 -79.5t74.5 -157.5q0 -177 -153.5 -285t-406.5 -108
q-198 0 -309.5 67.5t-111.5 188.5q0 205 260 267q-126 49 -126 164q0 133 161 193q-126 85 -126 247q0 181 126.5 290.5t335.5 109.5q111 0 193 -42q156 1 337 25zM490 479q98 0 159.5 82.5t61.5 214.5q0 88 -40 136.5t-114 48.5q-100 0 -161 -78.5t-61 -207.5
q0 -88 42.5 -142t112.5 -54zM695 -126q0 51 -31.5 80.5t-111 49.5t-237.5 38q-163 -66 -163 -208q0 -81 64 -129.5t171 -48.5q135 0 221.5 61t86.5 157z" />
    <glyph glyph-name="h" unicode="h" horiz-adv-x="1183" 
d="M1003 111q26 0 66 4l-6 -91q-113 -44 -204 -44t-130.5 30t-39.5 104q0 36 9 84l103 584q6 34 6 61q0 43 -17 62.5t-55 19.5q-43 0 -101 -47.5t-116 -128t-106.5 -205.5t-67.5 -262l-39 -282h-237l177 1257q6 45 6 68q0 25 -7.5 34t-26.5 9q-40 0 -88 -16v91q49 31 125 53
t137 22q66 0 85.5 -15.5t19.5 -66.5q0 -80 -52.5 -363t-110.5 -497h3q35 108 77.5 194.5t98 157t126.5 109.5t151 39q125 0 191 -54t66 -155q0 -29 -6 -64l-102 -580q-6 -31 -6 -52q0 -34 16.5 -47t54.5 -13z" />
    <glyph glyph-name="i" unicode="i" horiz-adv-x="618" 
d="M252 1352q0 73 45.5 118t118.5 45q53 0 86.5 -33t33.5 -85q0 -73 -45.5 -118t-118.5 -45q-53 0 -86.5 33t-33.5 85zM380 1076q67 0 87 -15.5t20 -66.5q0 -62 -14 -139l-112 -632q-5 -26 -5 -52q0 -34 16 -47t54 -13q27 0 67 4l-6 -91q-113 -44 -204 -44t-130.5 30
t-39.5 104q0 41 8 84l109 617q8 48 8 68q0 24 -8.5 33.5t-27.5 9.5q-39 0 -87 -16v91q49 31 126 53t139 22z" />
    <glyph glyph-name="j" unicode="j" horiz-adv-x="581" 
d="M245 1352q0 73 45.5 118t119.5 45q53 0 86 -33t33 -85q0 -73 -45.5 -118t-118.5 -45q-53 0 -86.5 33t-33.5 85zM108 910v91q49 31 126.5 53t139.5 22q67 0 87 -15.5t20 -66.5q0 -36 -15 -139l-77 -550q-35 -252 -79.5 -382.5t-127.5 -216.5q-54 -56 -143.5 -98.5
t-190.5 -58.5q-29 34 -29 87q0 73 79 99q18 6 64 13.5t68 21.5q33 22 51 96t54 331l86 618q7 53 7 69q0 24 -7 33t-25 9q-40 0 -88 -16z" />
    <glyph glyph-name="k" unicode="k" horiz-adv-x="1067" 
d="M502 1436q0 -36 -15 -139l-182 -1297h-237l177 1257q6 45 6 68q0 25 -7.5 34t-26.5 9q-40 0 -88 -16v91q49 31 126.5 53t139.5 22q67 0 87 -15.5t20 -66.5zM857 890q-33 0 -81 -46t-174 -200q35 -60 109 -205l111 -220q29 -59 55.5 -83.5t60.5 -24.5q22 0 42 4l-6 -91
q-77 -44 -165 -44q-83 0 -129 44.5t-117 195.5l-93 194q-38 78 -82 153l271 339q79 99 134 134.5t130 35.5q69 0 122 -23q15 -37 15 -73q0 -55 -29 -88t-76 -33q-26 0 -52 15.5t-46 15.5z" />
    <glyph glyph-name="l" unicode="l" horiz-adv-x="585" 
d="M412 1518q67 0 87.5 -15.5t20.5 -66.5q0 -47 -15 -139l-170 -1074q-5 -33 -5 -51q0 -35 15.5 -48t53.5 -13q27 0 67 4l-6 -91q-113 -44 -204 -44t-130 30.5t-39 105.5q0 32 8 82l167 1059q8 48 8 68q0 24 -8 33.5t-27 9.5q-40 0 -88 -16v91q49 31 126 53t139 22z" />
    <glyph glyph-name="m" unicode="m" horiz-adv-x="1808" 
d="M1626 111q27 0 67 4l-6 -91q-113 -44 -204 -44t-130.5 30t-39.5 104q0 36 9 84l103 584q6 36 6 63q0 80 -64 80q-42 0 -99.5 -47.5t-116.5 -128t-109 -205.5t-71 -262l-43 -282h-237l137 782q6 36 6 63q0 80 -63 80q-42 0 -100 -47.5t-116.5 -128t-109 -205.5t-71.5 -262
l-43 -282h-236l128 815q7 42 7 68q0 25 -8 34t-27 9q-40 0 -88 -16v91q49 31 124.5 53t133.5 22q48 0 68.5 -17.5t20.5 -61.5q0 -48 -26.5 -172t-62.5 -249h2q35 108 79 194.5t100 157t127 109.5t152 39q209 0 209 -158q0 -88 -73 -342h3q35 108 79 194.5t100 157t127 109.5
t152 39q120 0 183.5 -53.5t63.5 -154.5q0 -30 -6 -65l-101 -580q-6 -32 -6 -52q0 -34 16 -47t54 -13z" />
    <glyph glyph-name="n" unicode="n" horiz-adv-x="1214" 
d="M1033 111q27 0 67 4l-6 -91q-113 -44 -204 -44t-130.5 30t-39.5 104q0 41 8 84l103 584q7 42 7 63q0 80 -64 80q-43 0 -101.5 -47.5t-117.5 -128t-109.5 -205.5t-71.5 -262l-43 -282h-236l128 815q7 42 7 68q0 25 -8 34t-27 9q-40 0 -88 -16v91q49 31 124.5 53t133.5 22
q48 0 68.5 -17.5t20.5 -61.5q0 -48 -26.5 -172t-62.5 -249h2q35 108 79 194.5t101 157t129 109.5t153 39q120 0 183.5 -53.5t63.5 -154.5q0 -30 -6 -65l-102 -580q-5 -26 -5 -52q0 -34 16 -47t54 -13z" />
    <glyph glyph-name="o" unicode="o" horiz-adv-x="1142" 
d="M66 398q0 197 73 351.5t205 240.5t302 86q201 0 304.5 -105t103.5 -309q0 -305 -162 -496t-421 -191q-194 0 -299.5 110t-105.5 313zM627 953q-90 0 -162 -75.5t-112.5 -209t-40.5 -298.5q0 -128 47.5 -200t131.5 -72q89 0 161.5 78.5t114 214t41.5 298.5
q0 129 -46.5 196.5t-134.5 67.5z" />
    <glyph glyph-name="p" unicode="p" horiz-adv-x="1196" 
d="M818 1076q151 0 222 -88t71 -275q0 -196 -72 -366.5t-193.5 -271t-262.5 -100.5q-156 0 -240 111q-14 -184 -38 -356l-22 -160h-236l175 1245q7 53 7 68q0 25 -8 34t-27 9q-40 0 -88 -16v91q49 31 124.5 53t133.5 22q48 0 68.5 -17.5t20.5 -61.5q0 -103 -83 -421h3
q153 500 445 500zM525 109q88 0 166.5 85t125.5 227.5t47 301.5q0 105 -24 153.5t-77 48.5q-34 0 -76.5 -29t-88.5 -86.5t-87.5 -133.5t-76 -179.5t-51.5 -214.5l-10 -71q26 -48 66 -75t86 -27z" />
    <glyph glyph-name="q" unicode="q" horiz-adv-x="1153" 
d="M955 1076q51 0 107 -31l-207 -1475h-236l15 109q54 384 167 797h-3q-34 -108 -75.5 -194.5t-95.5 -157.5t-123.5 -110t-149.5 -39q-151 0 -222.5 88.5t-71.5 275.5q0 196 72 366.5t193.5 270.5t262.5 100q165 0 248 -109l6 14q22 53 47 74t66 21zM408 126q42 0 98 47.5
t111 128.5t102.5 205.5t68.5 262.5l11 70q-26 48 -66 75t-86 27q-88 0 -166.5 -85t-125.5 -227.5t-47 -301.5q0 -105 24 -153.5t76 -48.5z" />
    <glyph glyph-name="r" unicode="r" horiz-adv-x="862" 
d="M877 1034q7 -22 7 -55q0 -70 -29.5 -107.5t-84.5 -37.5q-40 0 -71 22t-55 22q-43 0 -96 -83t-97.5 -217.5t-64.5 -275.5l-44 -302h-233l114 815q6 45 6 68q0 25 -7.5 34t-26.5 9q-40 0 -88 -16v91q49 31 124.5 53t133.5 22q48 0 68.5 -17.5t20.5 -61.5
q0 -49 -25.5 -174.5t-60.5 -246.5h3q30 104 64 189t77 157.5t96 113t111 40.5q91 0 158 -42z" />
    <glyph glyph-name="s" unicode="s" horiz-adv-x="911" 
d="M807 768l-116 -6q-10 211 -179 211q-65 0 -107.5 -44.5t-42.5 -112.5q0 -45 23.5 -81.5t61 -63.5t82.5 -52.5t90 -54.5t82.5 -62.5t61 -83.5t23.5 -111q0 -154 -111.5 -243t-304.5 -89q-234 0 -354 100q6 109 35 230l121 6q11 -233 203 -233q76 0 125 48t49 122
q0 45 -23 83t-60 66t-81.5 54.5t-88.5 55.5t-81 62.5t-60 82t-23 107.5q0 146 103.5 231.5t279.5 85.5q87 0 187 -25t149 -25z" />
    <glyph glyph-name="t" unicode="t" horiz-adv-x="747" 
d="M470 928l-98 -657q-4 -28 -4 -40q0 -105 106 -105q75 0 156 58l28 -106q-142 -103 -312 -103q-116 0 -170.5 45t-54.5 141q0 32 6 71l106 696h-126l11 100q19 6 75.5 15t75.5 9q42 105 95 194q24 41 41.5 53.5t48.5 12.5q20 0 70 -10l-38 -251h299l-18 -123h-297z" />
    <glyph glyph-name="u" unicode="u" horiz-adv-x="1208" 
d="M1024 111q27 0 67 4l-6 -91q-113 -44 -196 -44q-78 0 -115 28t-37 89q0 98 87 379h-3q-155 -501 -460 -501q-244 0 -244 221q0 44 8 87l93 532q8 48 8 68q0 24 -8.5 33.5t-27.5 9.5q-39 0 -87 -16v91q49 31 126 53t139 22q67 0 87 -15.5t20 -66.5q0 -62 -14 -139
l-98 -556q-9 -52 -9 -87q0 -86 61 -86q49 0 108 47.5t115.5 129t103.5 205t68 262.5l44 281h236l-131 -828q-5 -33 -5 -51q0 -35 16 -48t54 -13z" />
    <glyph glyph-name="v" unicode="v" horiz-adv-x="1075" 
d="M939 1076q58 0 85.5 -29.5t27.5 -90.5q0 -134 -139.5 -389t-388.5 -577q-78 3 -157 20l-119 698q-24 140 -43 179t-59 39q-41 0 -86 -16l-7 91q46 31 117.5 53t123.5 22q33 0 54.5 -6.5t39.5 -22.5t31 -50t24 -81.5t24 -124.5l46 -273q31 -184 39 -277q123 181 206 357
t83 258q0 70 -55 70q-31 0 -76 -16l-8 91q46 31 116.5 53t120.5 22z" />
    <glyph glyph-name="w" unicode="w" horiz-adv-x="1691" 
d="M1540 1076q58 0 85 -29t27 -91q0 -146 -136.5 -414t-355.5 -552q-71 3 -151 20l-90 515q-22 131 -29 188q-142 -412 -355 -723q-91 3 -168 20l-119 698q-24 140 -43 179t-59 39q-41 0 -86 -16l-7 91q46 31 117.5 53t123.5 22q42 0 66.5 -9.5t45 -40.5t33.5 -83.5
t27 -144.5l39 -265q26 -171 33 -287q93 181 173.5 392.5t129.5 403.5q97 21 197 21q31 -85 62 -280l42 -262q32 -201 39 -275q113 169 187 342t74 268q0 70 -56 70q-31 0 -76 -16l-7 91q46 31 116.5 53t120.5 22z" />
    <glyph glyph-name="x" unicode="x" horiz-adv-x="1048" 
d="M1044 1057q15 -37 15 -75q0 -53 -25 -83.5t-68 -30.5q-15 0 -40 6t-44 6q-68 0 -133.5 -101t-93.5 -240l90 -269q33 -98 57.5 -128.5t70.5 -30.5q25 0 53 4l-6 -96q-75 -39 -171 -39q-88 0 -132.5 39.5t-77.5 147.5l-76 255q-24 -196 -117.5 -321.5t-219.5 -125.5
q-75 0 -139 20q-15 37 -15 75q0 53 25 83t68 30q15 0 40 -5.5t44 -5.5q67 0 132.5 99.5t93.5 236.5l-91 272q-30 87 -51.5 116.5t-54.5 29.5q-31 0 -76 -16l-7 91q48 34 105.5 54.5t105.5 20.5q75 0 112 -39t72 -156l77 -258q23 198 117 325.5t221 127.5q78 0 139 -19z" />
    <glyph glyph-name="y" unicode="y" horiz-adv-x="1101" 
d="M940 1076q58 0 85 -29t27 -90q0 -173 -104.5 -433t-290.5 -548q-148 -229 -282.5 -328t-296.5 -99q-46 0 -88 10q-16 36 -16 77q0 55 30 86t84 31q26 0 60 -11t55 -11q84 0 135 84.5t51 225.5q0 97 -25 236t-86 381q-30 117 -48.5 171.5t-37 75.5t-47.5 21q-41 0 -86 -16
l-7 91q46 31 117.5 53t123.5 22q54 0 84.5 -25t56.5 -91.5t62 -213.5q86 -347 86 -590q0 -44 -2 -64q114 194 188 402t74 336q0 52 -13 74t-43 22q-31 0 -76 -16l-7 91q46 31 116.5 53t120.5 22z" />
    <glyph glyph-name="z" unicode="z" horiz-adv-x="1007" 
d="M255 104h318q70 0 107.5 46.5t69.5 163.5l129 -9q-8 -144 -50 -305q-101 -3 -305 -3q-60 0 -150 4t-142 4q-110 0 -159 -25q-58 44 -79 128q174 183 369 428l330 411h-270q-72 0 -108.5 -42.5t-68.5 -164.5l-129 9q8 141 50 302h776q26 -36 30 -95l-450 -559
q-146 -180 -268 -293z" />
    <glyph glyph-name="braceleft" unicode="{" horiz-adv-x="655" 
d="M725 1544l-16 -119h-40q-68 0 -100 -36t-45 -126l-45 -326q-20 -142 -84.5 -236t-162.5 -126q70 -32 109 -108.5t39 -183.5q0 -41 -6 -86l-46 -326q-4 -28 -4 -57q0 -56 25 -80.5t81 -24.5h38l-17 -119h-146q-93 0 -138.5 49.5t-45.5 152.5q0 40 8 94l47 339q7 54 7 85
q0 192 -147 192l19 131q87 0 143 70.5t75 205.5l48 340q22 154 84.5 224.5t175.5 70.5h144z" />
    <glyph glyph-name="bar" unicode="|" horiz-adv-x="444" 
d="M157 -430h-165l280 1989h166z" />
    <glyph glyph-name="braceright" unicode="}" horiz-adv-x="655" 
d="M459 824q0 -191 147 -191l-19 -131q-87 0 -142.5 -71t-74.5 -206l-48 -339q-22 -154 -85 -225t-176 -71h-144l17 119h39q68 0 100 36t45 126l46 326q20 142 84 236t162 126q-70 32 -108.5 108.5t-38.5 183.5q0 41 6 86l45 326q5 35 5 57q0 56 -25.5 80.5t-81.5 24.5h-37
l17 119h146q93 0 138 -49t45 -152q0 -46 -7 -94l-48 -340q-7 -54 -7 -85z" />
    <glyph glyph-name="asciitilde" unicode="~" horiz-adv-x="1189" 
d="M817 596q68 0 117.5 23t103.5 80l27 -111q-122 -137 -288 -137q-72 0 -133 13.5t-97 29t-85.5 29t-100.5 13.5q-68 0 -117.5 -23t-103.5 -80l-26 110q122 137 287 137q90 0 161.5 -21t131.5 -42t123 -21z" />
    <glyph glyph-name="uni00A0" unicode="&#xa0;" horiz-adv-x="475" 
 />
    <glyph glyph-name="exclamdown" unicode="&#xa1;" horiz-adv-x="507" 
d="M147 901q0 77 49.5 127t126.5 50q58 0 93 -37.5t35 -98.5q0 -77 -49.5 -126.5t-126.5 -49.5q-58 0 -93 37t-35 98zM331 591l-83 -1013l-279 -11l205 1024h157z" />
    <glyph glyph-name="cent" unicode="&#xa2;" horiz-adv-x="983" 
d="M942 993q7 -18 7 -48q0 -58 -32.5 -92t-87.5 -34q-34 0 -58 14.5t-35.5 33t-28.5 41t-35 32.5l-114 -813q117 10 228 105l42 -115q-136 -109 -286 -133l-29 -209h-121l28 201q-170 3 -260.5 111t-90.5 309q0 277 138.5 461.5t366.5 213.5l28 206h121l-28 -202
q143 -9 247 -82zM318 413q0 -224 128 -274l113 802q-104 -39 -172.5 -188t-68.5 -340z" />
    <glyph glyph-name="sterling" unicode="&#xa3;" horiz-adv-x="1220" 
d="M794 1349q-101 0 -158 -81t-82 -260l-27 -192h360l-17 -129h-362q-37 -230 -87.5 -364.5t-125.5 -204.5q105 10 190 10h229q104 0 150 59.5t86 230.5l148 -9q-25 -237 -74 -409h-1041l17 104q111 14 171.5 142t104.5 441h-167l17 129h168l27 189q32 226 151 343.5
t318 117.5q90 0 164 -13t128.5 -26.5t96.5 -13.5l-55 -332l-133 -5q-8 144 -53 208.5t-144 64.5z" />
    <glyph glyph-name="currency" unicode="&#xa4;" horiz-adv-x="1138" 
d="M1009 637q0 -253 -158 -398l115 -169l-138 -90l-104 178q-100 -43 -222 -43q-123 0 -211 44l-157 -179l-111 103l161 165q-67 90 -67 223q0 247 157 391l-116 171l138 89l104 -178q100 44 224 44q122 0 210 -40l152 174l112 -102l-155 -158q66 -87 66 -225zM518 240
q112 0 189.5 120t77.5 291q0 104 -45 158t-131 54q-116 0 -192 -116t-76 -289q0 -103 47 -160.5t130 -57.5z" />
    <glyph glyph-name="yen" unicode="&#xa5;" horiz-adv-x="1411" 
d="M1462 1434l-14 -94l-39 -4q-36 -4 -54.5 -9.5t-44.5 -28t-49 -54.5t-71 -103l-227 -335h243l-15 -112h-304l-64 -96l-7 -47h354l-15 -111h-355l-30 -209q-4 -24 -4 -46q0 -36 19 -51.5t72 -24.5l85 -14l-15 -95h-609l14 95l101 17q47 8 67.5 34t28.5 85l30 209h-355
l16 111h355l7 47l-43 96h-298l15 112h234l-148 335q-32 73 -47 104t-33 53.5t-31 27.5t-41 10l-25 4l6 94h559l-14 -94l-54 -6q-52 -6 -76 -23.5t-24 -50.5q0 -32 24 -86l181 -412l271 412q48 72 48 107q0 44 -83 53l-59 6l14 94h504z" />
    <glyph glyph-name="brokenbar" unicode="&#xa6;" horiz-adv-x="475" 
d="M356 862h-166l99 697h165zM174 -430h-166l98 696h166z" />
    <glyph glyph-name="section" unicode="&#xa7;" horiz-adv-x="1001" 
d="M614 1355q-65 0 -107 -44.5t-42 -112.5q0 -50 24.5 -95.5t63.5 -81t86 -70.5t94 -73t86 -79.5t63.5 -97.5t24.5 -121q0 -128 -76 -217t-215 -124q68 -59 106.5 -123t38.5 -147q0 -154 -111.5 -242.5t-304.5 -88.5q-235 0 -354 99q6 109 35 230l121 6q11 -233 203 -233
q76 0 125 48t49 122q0 51 -24 97.5t-62 83t-84 72.5t-92.5 74t-84.5 79.5t-62 96.5t-24 117q0 130 79.5 217t221.5 117q-75 62 -116.5 127.5t-41.5 149.5q0 146 103.5 231.5t279.5 85.5q87 0 187 -25t149 -25l-44 -258l-116 -6q-10 211 -179 211zM692 514q0 42 -15 79.5
t-46.5 72.5t-60 59.5t-75.5 59.5q-88 -8 -141 -60t-53 -131q0 -35 13.5 -69t29.5 -57.5t50.5 -54.5t55.5 -47t66 -49q81 17 128.5 70t47.5 127z" />
    <glyph glyph-name="dieresis" unicode="&#xa8;" 
d="M192 1354q0 62 40.5 102t104.5 40q46 0 75.5 -31t29.5 -79q0 -62 -41 -102.5t-105 -40.5q-46 0 -75 31.5t-29 79.5zM582 1354q0 62 41 102t105 40q46 0 75 -31t29 -79q0 -62 -40.5 -102.5t-104.5 -40.5q-46 0 -75.5 31.5t-29.5 79.5z" />
    <glyph glyph-name="copyright" unicode="&#xa9;" horiz-adv-x="1736" 
d="M113 717q0 218 103.5 395.5t279.5 276t387 98.5q220 0 396.5 -99t275.5 -275t99 -396q0 -164 -61 -308t-164.5 -245t-245.5 -159t-300 -58q-211 0 -387 98.5t-279.5 276t-103.5 395.5zM257 717q0 -137 49 -256.5t132.5 -203.5t199 -132.5t245.5 -48.5q173 0 316.5 82
t227 229.5t83.5 329.5t-83.5 329.5t-227 229.5t-316.5 82q-130 0 -245.5 -48.5t-199 -132.5t-132.5 -203.5t-49 -256.5zM918 1073q65 0 134.5 -13.5t99.5 -13.5q2 -46 2 -94q0 -51 -2 -87l-96 -6q-7 67 -39.5 98.5t-92.5 31.5q-172 0 -172 -272t172 -272q128 0 143 139
l93 -6v-169q-99 -47 -242 -47q-177 0 -267.5 92t-90.5 263q0 167 100 261.5t258 94.5z" />
    <glyph glyph-name="ordfeminine" unicode="&#xaa;" horiz-adv-x="849" 
d="M773 829q17 0 43 4l-5 -68q-84 -33 -146 -33q-106 0 -106 81q0 58 61 245h-3q-99 -329 -299 -329q-101 0 -145 57.5t-44 184.5q0 129 45.5 240t123.5 176t170 65q110 0 168 -72l3 6q18 39 35.5 52.5t49.5 13.5q48 0 92 -24l-85 -530q-3 -18 -3 -31q0 -22 10 -30t35 -8z
M369 845q55 0 128.5 115t98.5 277l10 62q-33 51 -85 51q-78 0 -138.5 -118t-60.5 -269q0 -63 11 -90.5t36 -27.5zM100 595h651l-14 -103h-652z" />
    <glyph glyph-name="guillemotleft" unicode="&#xab;" horiz-adv-x="1069" 
d="M587 865l-300 -338q106 -210 189 -352l-104 -71q-46 23 -128.5 134t-186.5 288q320 366 434 422zM1021 865l-300 -338q106 -210 189 -352l-103 -71q-46 23 -129.5 134.5t-186.5 287.5q320 366 434 422z" />
    <glyph glyph-name="logicalnot" unicode="&#xac;" horiz-adv-x="1042" 
d="M844 182h-158l46 335h-619l20 138h777z" />
    <glyph glyph-name="registered" unicode="&#xae;" horiz-adv-x="1736" 
d="M883 1487q220 0 396.5 -99t275.5 -275t99 -396q0 -164 -61 -308t-164.5 -245t-245.5 -159t-300 -58q-211 0 -387 98.5t-279.5 276t-103.5 395.5t103.5 395.5t279.5 276t387 98.5zM883 76q173 0 316.5 82t227 229.5t83.5 329.5t-83.5 329.5t-227 229.5t-316.5 82
q-130 0 -245.5 -48.5t-199 -132.5t-132.5 -203.5t-49 -256.5t49 -256.5t132.5 -203.5t199 -132.5t245.5 -48.5zM1170 487q14 -24 24.5 -33t26.5 -12l12 -2l-2 -58q-44 -11 -103 -11q-64 0 -92.5 21.5t-60.5 94.5l-49 112q-17 39 -36 53t-54 14q-10 0 -28 -2v-171
q0 -27 7 -36t32 -13l25 -4l-2 -63h-302l2 63l28 6q23 5 30 13.5t7 33.5v448q0 26 -7.5 34.5t-36.5 14.5l-21 4l-2 63h72q48 0 122.5 2t116.5 2q145 0 214 -43t69 -135q0 -62 -41 -105.5t-114 -60.5q55 -17 86 -74q12 -23 38.5 -79t38.5 -77zM866 747q56 0 87 30t31 87
q0 119 -111 119q-26 0 -66 -4v-229q28 -3 59 -3z" />
    <glyph glyph-name="macron" unicode="&#xaf;" 
d="M772 1294h-540l20 135h540z" />
    <glyph glyph-name="degree" unicode="&#xb0;" horiz-adv-x="712" 
d="M170 1233q0 138 92 229t231 91q112 0 173 -60t61 -172q0 -139 -92 -230t-231 -91q-107 0 -170.5 63t-63.5 170zM473 1432q-67 0 -112.5 -51.5t-45.5 -127.5q0 -63 28.5 -97.5t80.5 -34.5q65 0 111.5 53t46.5 127q0 131 -109 131z" />
    <glyph glyph-name="plusminus" unicode="&#xb1;" horiz-adv-x="1105" 
d="M1014 751l-19 -140h-360l-48 -343h-157l48 343h-360l20 140h360l48 342h157l-48 -342h359zM57 174h877l-20 -140h-876z" />
    <glyph glyph-name="twosuperior" unicode="&#xb2;" horiz-adv-x="677" 
d="M291 866q73 9 186 9h170l-17 -130h-550l15 101q227 178 318.5 295t91.5 230q0 59 -31 91t-87 32q-88 0 -179 -80l-18 117q51 40 125.5 62.5t154.5 22.5q115 0 174.5 -53t59.5 -156q0 -145 -99.5 -275t-313.5 -266z" />
    <glyph glyph-name="threesuperior" unicode="&#xb3;" horiz-adv-x="706" 
d="M529 1196q163 -35 163 -181q0 -133 -97 -208.5t-267 -75.5q-146 0 -244 55q-2 12 -2 25q0 45 21.5 69.5t59.5 24.5q27 0 48 -13t33 -28.5t36 -28.5t58 -13q71 0 113.5 50.5t42.5 133.5q0 131 -196 131q-28 0 -61 -5l7 99q146 0 214.5 41t68.5 128q0 106 -123 106
q-87 0 -177 -69l-18 105q105 74 268 74q120 0 184.5 -47.5t64.5 -135.5q0 -92 -51 -153t-146 -84z" />
    <glyph glyph-name="acute" unicode="&#xb4;" 
d="M279 1300l377 253q63 -74 89 -157l-408 -201q-34 38 -58 105z" />
    <glyph glyph-name="uni00B5" unicode="&#xb5;" horiz-adv-x="1271" 
d="M1059 111q27 0 67 4l-6 -91q-113 -44 -196 -44q-78 0 -115 28t-37 89q0 98 87 379h-3q-154 -501 -456 -501q-27 0 -54 11q-17 -164 -29 -256l-18 -136l-240 -40l177 1261q7 53 7 68q0 25 -8 34t-27 9q-39 0 -87 -16v91q49 31 126 53t139 22q67 0 87 -15.5t20 -66.5
q0 -43 -14 -139l-72 -505q-12 -87 -12 -135q0 -50 14 -69.5t46 -19.5q47 0 105 47.5t114 129t103 205.5t68 262l44 281h236l-131 -828q-5 -33 -5 -51q0 -35 16 -48t54 -13z" />
    <glyph glyph-name="paragraph" unicode="&#xb6;" horiz-adv-x="1189" 
d="M770 1434l-252 -1792h-146l128 909q-179 0 -284.5 105t-105.5 284q0 220 142.5 357t371.5 137h146zM1230 1434l-14 -94l-83 -11q-46 -7 -65.5 -29.5t-26.5 -71.5l-223 -1586h-146l252 1792h306z" />
    <glyph glyph-name="periodcentered" unicode="&#xb7;" horiz-adv-x="514" 
d="M101 565q0 77 49.5 127t126.5 50q58 0 93 -37.5t35 -98.5q0 -77 -49.5 -126.5t-126.5 -49.5q-58 0 -93 37t-35 98z" />
    <glyph glyph-name="cedilla" unicode="&#xb8;" 
d="M632 36l-89 -145q80 0 127.5 -40.5t47.5 -109.5q0 -104 -68 -162t-188 -58q-95 0 -156 58q14 48 42 83q51 -44 117 -44q44 0 68.5 24t24.5 68q0 41 -32 64t-90 23l-18 48l105 191h109z" />
    <glyph glyph-name="onesuperior" unicode="&#xb9;" horiz-adv-x="563" 
d="M559 820l-12 -75h-456l10 75l67 9q42 6 61 19t23 42l80 562q-54 -19 -128 -33l-30 -6l-2 74l256 119h114l-102 -716q-2 -14 -2 -18q0 -20 15 -29t57 -16z" />
    <glyph glyph-name="ordmasculine" unicode="&#xba;" horiz-adv-x="802" 
d="M125 1009q0 199 110 321t291 122q288 0 288 -273q0 -203 -111 -326.5t-293 -123.5q-138 0 -211.5 72.5t-73.5 207.5zM511 1359q-81 0 -135.5 -108.5t-54.5 -267.5q0 -77 28 -118.5t78 -41.5q79 0 135.5 112t56.5 269q0 76 -27.5 115.5t-80.5 39.5zM692 492h-616l14 103
h617z" />
    <glyph glyph-name="guillemotright" unicode="&#xbb;" horiz-adv-x="1069" 
d="M135 876l103 72q46 -23 129.5 -134.5t186.5 -287.5q-320 -366 -434 -422l-96 82l300 338q-106 210 -189 352zM569 876l104 72q46 -23 128.5 -134t186.5 -288q-320 -366 -434 -422l-95 82l299 338q-106 210 -189 352z" />
    <glyph glyph-name="onequarter" unicode="&#xbc;" horiz-adv-x="1671" 
d="M1523 1536l-1295 -1638h-168l1295 1638h168zM525 582h-456l9 74l67 9q42 6 61.5 19.5t23.5 41.5l80 562q-53 -19 -129 -33l-29 -5l-2 73l256 119h114l-103 -716q-1 -7 -1 -17q0 -20 15 -29t57 -16l48 -8zM1560 216h-100l-30 -216h-176l30 216h-377l11 79l461 559h171
l-74 -526h100zM1310 328l48 336l-285 -336h237z" />
    <glyph glyph-name="onehalf" unicode="&#xbd;" horiz-adv-x="1667" 
d="M1523 1536l-1295 -1638h-168l1295 1638h168zM525 582h-456l9 74l67 9q42 6 61.5 19.5t23.5 41.5l80 562q-53 -19 -129 -33l-29 -5l-2 73l256 119h114l-103 -716q-1 -7 -1 -17q0 -20 15 -29t57 -16l48 -8zM1176 121q74 9 186 9h170l-16 -130h-550l14 101
q227 178 318.5 295t91.5 230q0 59 -31 91t-87 32q-87 0 -179 -81l-18 118q51 40 125 62t155 22q115 0 174.5 -53t59.5 -156q0 -145 -99 -274.5t-314 -265.5z" />
    <glyph glyph-name="threequarters" unicode="&#xbe;" horiz-adv-x="1812" 
d="M1665 1536l-1295 -1638h-168l1295 1638h168zM670 852q0 -133 -97 -209t-267 -76q-147 0 -245 55q-2 12 -2 25q0 45 22 70t60 25q22 0 39.5 -8.5t29.5 -21t24.5 -25t33 -21t48.5 -8.5q71 0 113.5 50.5t42.5 133.5q0 132 -197 132q-21 0 -61 -6l7 99q145 0 214 41.5
t69 128.5q0 105 -123 105q-87 0 -177 -69l-18 105q105 74 268 74q120 0 185 -47.5t65 -135.5q0 -92 -51.5 -152.5t-146.5 -83.5q164 -35 164 -181zM1702 216h-100l-30 -216h-176l30 216h-377l11 79l461 559h171l-74 -526h100zM1452 328l48 336l-285 -336h237z" />
    <glyph glyph-name="questiondown" unicode="&#xbf;" horiz-adv-x="968" 
d="M405 901q0 77 49.5 127t126.5 50q58 0 93.5 -37.5t35.5 -98.5q0 -77 -50 -126.5t-127 -49.5q-58 0 -93 37t-35 98zM326 -450q-169 0 -268.5 80.5t-99.5 216.5q0 84 27.5 150.5t71.5 109.5t97.5 79t107 68t97.5 66.5t71.5 84.5t27.5 113q0 30 -5 65l161 19q13 -45 13 -112
t-24 -123.5t-62.5 -96.5t-85 -76.5t-93 -71t-85 -72t-62.5 -88.5t-24 -111q0 -83 45.5 -129.5t126.5 -46.5q82 0 130.5 45.5t71.5 144.5q18 79 51 112.5t93 33.5q40 0 70 -20t43 -55q-35 -180 -168 -283t-328 -103z" />
    <glyph glyph-name="Agrave" unicode="&#xc0;" horiz-adv-x="1376" 
d="M646 1895l378 -253q-24 -67 -59 -106l-408 202q26 83 89 157zM1280 93l-7 -93h-552l14 93l56 9q56 8 78.5 29.5t22.5 69.5q0 34 -11 92l-24 130h-461l-60 -130q-45 -96 -45 -130q0 -28 23 -41t79 -22l42 -7l-14 -93h-504l14 93l56 9q56 9 87.5 43.5t86.5 147.5l556 1147
h179l228 -1147q22 -113 42.5 -146t74.5 -45zM834 548l-110 587l-271 -587h381z" />
    <glyph glyph-name="Aacute" unicode="&#xc1;" horiz-adv-x="1376" 
d="M1094 1738l-408 -202q-35 39 -59 106l377 253q65 -76 90 -157zM1280 93l-7 -93h-552l14 93l56 9q56 8 78.5 29.5t22.5 69.5q0 34 -11 92l-24 130h-461l-60 -130q-45 -96 -45 -130q0 -28 23 -41t79 -22l42 -7l-14 -93h-504l14 93l56 9q56 9 87.5 43.5t86.5 147.5l556 1147
h179l228 -1147q22 -113 42.5 -146t74.5 -45zM834 548l-110 587l-271 -587h381z" />
    <glyph glyph-name="Acircumflex" unicode="&#xc2;" horiz-adv-x="1376" 
d="M835 1699l-253 -147q-38 39 -56 100l334 241l266 -245q-30 -59 -72 -96zM1280 93l-7 -93h-552l14 93l56 9q56 8 78.5 29.5t22.5 69.5q0 34 -11 92l-24 130h-461l-60 -130q-45 -96 -45 -130q0 -28 23 -41t79 -22l42 -7l-14 -93h-504l14 93l56 9q56 9 87.5 43.5t86.5 147.5
l556 1147h179l228 -1147q22 -113 42.5 -146t74.5 -45zM834 548l-110 587l-271 -587h381z" />
    <glyph glyph-name="Atilde" unicode="&#xc3;" horiz-adv-x="1376" 
d="M693 1664q-85 0 -146 -70l-21 95q30 52 88 86t116 34q64 0 134 -30.5t111 -30.5q86 0 147 70l21 -95q-30 -52 -88.5 -86.5t-116.5 -34.5q-64 0 -134 31t-111 31zM1280 93l-7 -93h-552l14 93l56 9q56 8 78.5 29.5t22.5 69.5q0 34 -11 92l-24 130h-461l-60 -130
q-45 -96 -45 -130q0 -28 23 -41t79 -22l42 -7l-14 -93h-504l14 93l56 9q56 9 87.5 43.5t86.5 147.5l556 1147h179l228 -1147q22 -113 42.5 -146t74.5 -45zM834 548l-110 587l-271 -587h381z" />
    <glyph glyph-name="Adieresis" unicode="&#xc4;" horiz-adv-x="1376" 
d="M619 1585q-46 0 -75.5 31t-29.5 79q0 62 40.5 102.5t104.5 40.5q46 0 75.5 -31.5t29.5 -79.5q0 -62 -40.5 -102t-104.5 -40zM1009 1585q-46 0 -75 31t-29 79q0 62 40.5 102.5t104.5 40.5q46 0 75.5 -31.5t29.5 -79.5q0 -62 -41 -102t-105 -40zM1280 93l-7 -93h-552l14 93
l56 9q56 8 78.5 29.5t22.5 69.5q0 34 -11 92l-24 130h-461l-60 -130q-45 -96 -45 -130q0 -28 23 -41t79 -22l42 -7l-14 -93h-504l14 93l56 9q56 9 87.5 43.5t86.5 147.5l556 1147h179l228 -1147q22 -113 42.5 -146t74.5 -45zM834 548l-110 587l-271 -587h381z" />
    <glyph glyph-name="Aring" unicode="&#xc5;" horiz-adv-x="1376" 
d="M809 1538q-77 0 -123.5 46.5t-46.5 124.5q0 98 63.5 160.5t164.5 62.5q77 0 124 -47t47 -125q0 -98 -64 -160t-165 -62zM854 1839q-47 0 -77 -32t-30 -84q0 -92 76 -92q47 0 77 32t30 84q0 92 -76 92zM1280 93l-7 -93h-552l14 93l56 9q56 8 78.5 29.5t22.5 69.5
q0 34 -11 92l-24 130h-461l-60 -130q-45 -96 -45 -130q0 -28 23 -41t79 -22l42 -7l-14 -93h-504l14 93l56 9q56 9 87.5 43.5t86.5 147.5l556 1147h179l228 -1147q22 -113 42.5 -146t74.5 -45zM834 548l-110 587l-271 -587h381z" />
    <glyph glyph-name="AE" unicode="&#xc6;" horiz-adv-x="1884" 
d="M1830 1075l-147 -9q2 82 -3 127t-23.5 74t-49.5 37.5t-87 8.5h-291l-74 -524h237q50 0 72.5 22t45.5 93l14 42l124 4l-64 -455l-122 4l-1 79q0 47 -20.5 68.5t-65.5 21.5h-237l-63 -454q0 -3 -1.5 -12.5t-1.5 -14.5q0 -39 28.5 -52.5t104.5 -13.5h184q45 0 74.5 6
t54 20.5t42 44t32 70.5t30.5 106l144 -9q-19 -193 -66 -359h-1041l14 93l71 14q48 9 66.5 29.5t25.5 68.5l36 255h-398l-115 -188q-55 -90 -55 -122q0 -21 18.5 -32.5t58.5 -17.5l42 -7l-14 -93h-488l15 93l55 9q53 8 85 34t77 97l612 981q35 56 35 78q0 16 -15.5 24
t-52.5 14l-63 10l6 94h1191q-1 -178 -36 -359zM890 587l103 721l-441 -721h338z" />
    <glyph glyph-name="Ccedilla" unicode="&#xc7;" horiz-adv-x="1284" 
d="M860 1337q-146 0 -260.5 -99.5t-178.5 -278t-64 -403.5q0 -220 86.5 -339.5t244.5 -119.5q148 0 230 72.5t123 239.5l133 -9l-46 -328q-197 -92 -411 -103l-48 -78q80 0 127.5 -40.5t47.5 -109.5q0 -104 -68 -162t-188 -58q-95 0 -156 58q14 48 42 83q51 -44 117 -44
q44 0 68 24t24 68q0 41 -31.5 63.5t-89.5 22.5l-19 49l69 124q-250 14 -382 167t-132 428q0 265 98 470.5t274.5 318.5t404.5 113q113 0 238.5 -24.5t191.5 -24.5q-14 -172 -51 -358l-139 -9q0 156 -58.5 221.5t-196.5 65.5z" />
    <glyph glyph-name="Egrave" unicode="&#xc8;" horiz-adv-x="1236" 
d="M608 1895l378 -253q-24 -67 -59 -106l-408 202q26 83 89 157zM1182 1075l-146 -9q2 82 -3 127t-24 74t-50 37.5t-87 8.5h-291l-74 -524h237q50 0 72.5 22t45.5 93l14 42l124 4l-64 -455l-122 4l-1 79q0 47 -20.5 68.5t-65.5 21.5h-237l-63 -454q-2 -20 -2 -27
q0 -39 28 -52.5t104 -13.5h184q45 0 74.5 6t54 20.5t42 44t32 70.5t30.5 106l144 -9q-19 -193 -66 -359h-1046l15 93l71 14q48 9 66.5 29.5t25.5 68.5l144 1023q3 20 3 34q0 31 -19 44.5t-75 25.5l-40 8l6 94h1015q-1 -178 -36 -359z" />
    <glyph glyph-name="Eacute" unicode="&#xc9;" horiz-adv-x="1236" 
d="M1046 1738l-408 -202q-35 39 -59 106l378 253q63 -74 89 -157zM1182 1075l-146 -9q2 82 -3 127t-24 74t-50 37.5t-87 8.5h-291l-74 -524h237q50 0 72.5 22t45.5 93l14 42l124 4l-64 -455l-122 4l-1 79q0 47 -20.5 68.5t-65.5 21.5h-237l-63 -454q-2 -20 -2 -27
q0 -39 28 -52.5t104 -13.5h184q45 0 74.5 6t54 20.5t42 44t32 70.5t30.5 106l144 -9q-19 -193 -66 -359h-1046l15 93l71 14q48 9 66.5 29.5t25.5 68.5l144 1023q3 20 3 34q0 31 -19 44.5t-75 25.5l-40 8l6 94h1015q-1 -178 -36 -359z" />
    <glyph glyph-name="Ecircumflex" unicode="&#xca;" horiz-adv-x="1236" 
d="M786 1699l-253 -147q-38 39 -56 100l334 241l266 -245q-29 -57 -73 -96zM1182 1075l-146 -9q2 82 -3 127t-24 74t-50 37.5t-87 8.5h-291l-74 -524h237q50 0 72.5 22t45.5 93l14 42l124 4l-64 -455l-122 4l-1 79q0 47 -20.5 68.5t-65.5 21.5h-237l-63 -454q-2 -20 -2 -27
q0 -39 28 -52.5t104 -13.5h184q45 0 74.5 6t54 20.5t42 44t32 70.5t30.5 106l144 -9q-19 -193 -66 -359h-1046l15 93l71 14q48 9 66.5 29.5t25.5 68.5l144 1023q3 20 3 34q0 31 -19 44.5t-75 25.5l-40 8l6 94h1015q-1 -178 -36 -359z" />
    <glyph glyph-name="Edieresis" unicode="&#xcb;" horiz-adv-x="1236" 
d="M569 1585q-46 0 -75 31t-29 79q0 62 40.5 102.5t104.5 40.5q46 0 75.5 -31.5t29.5 -79.5q0 -62 -41 -102t-105 -40zM960 1585q-46 0 -75.5 31t-29.5 79q0 62 41 102.5t105 40.5q46 0 75.5 -31.5t29.5 -79.5q0 -62 -41 -102t-105 -40zM1182 1075l-146 -9q2 82 -3 127
t-24 74t-50 37.5t-87 8.5h-291l-74 -524h237q50 0 72.5 22t45.5 93l14 42l124 4l-64 -455l-122 4l-1 79q0 47 -20.5 68.5t-65.5 21.5h-237l-63 -454q-2 -20 -2 -27q0 -39 28 -52.5t104 -13.5h184q45 0 74.5 6t54 20.5t42 44t32 70.5t30.5 106l144 -9q-19 -193 -66 -359
h-1046l15 93l71 14q48 9 66.5 29.5t25.5 68.5l144 1023q3 20 3 34q0 31 -19 44.5t-75 25.5l-40 8l6 94h1015q-1 -178 -36 -359z" />
    <glyph glyph-name="Igrave" unicode="&#xcc;" horiz-adv-x="727" 
d="M337 1895l378 -253q-24 -67 -59 -106l-408 202q26 83 89 157zM744 1340l-83 -11q-46 -7 -65.5 -29.5t-26.5 -71.5l-144 -1023q-3 -19 -3 -34q0 -31 18.5 -43.5t75.5 -23.5l54 -11l-14 -93h-550l15 93l71 14q48 9 66.5 29.5t25.5 68.5l144 1023q3 20 3 34q0 31 -19 44.5
t-75 25.5l-40 8l6 94h555z" />
    <glyph glyph-name="Iacute" unicode="&#xcd;" horiz-adv-x="727" 
d="M289 1642l378 253q63 -74 89 -157l-408 -202q-35 39 -59 106zM744 1340l-83 -11q-46 -7 -65.5 -29.5t-26.5 -71.5l-144 -1023q-3 -19 -3 -34q0 -31 18.5 -43.5t75.5 -23.5l54 -11l-14 -93h-550l15 93l71 14q48 9 66.5 29.5t25.5 68.5l144 1023q3 20 3 34q0 31 -19 44.5
t-75 25.5l-40 8l6 94h555z" />
    <glyph glyph-name="Icircumflex" unicode="&#xce;" horiz-adv-x="727" 
d="M517 1699l-253 -147q-38 39 -56 100l334 241l267 -245q-29 -57 -73 -96zM203 1434h555l-14 -94l-83 -11q-46 -7 -65.5 -29.5t-26.5 -71.5l-144 -1023q-3 -19 -3 -34q0 -31 18.5 -43.5t75.5 -23.5l54 -11l-14 -93h-550l15 93l71 14q48 9 66.5 29.5t25.5 68.5l144 1023
q3 20 3 34q0 31 -19 44.5t-75 25.5l-40 8z" />
    <glyph glyph-name="Idieresis" unicode="&#xcf;" horiz-adv-x="727" 
d="M196 1695q0 62 41 102.5t105 40.5q46 0 75 -31.5t29 -79.5q0 -62 -40.5 -102t-104.5 -40q-46 0 -75.5 31t-29.5 79zM587 1695q0 62 40.5 102.5t104.5 40.5q46 0 75.5 -31.5t29.5 -79.5q0 -62 -40.5 -102t-104.5 -40q-46 0 -75.5 31t-29.5 79zM744 1340l-83 -11
q-46 -7 -65.5 -29.5t-26.5 -71.5l-144 -1023q-3 -19 -3 -34q0 -31 18.5 -43.5t75.5 -23.5l54 -11l-14 -93h-550l15 93l71 14q48 9 66.5 29.5t25.5 68.5l144 1023q3 20 3 34q0 31 -19 44.5t-75 25.5l-40 8l6 94h555z" />
    <glyph glyph-name="Eth" unicode="&#xd0;" horiz-adv-x="1445" 
d="M759 1443q302 0 460.5 -149.5t158.5 -432.5q0 -257 -102.5 -455t-290 -306.5t-430.5 -108.5q-73 0 -211.5 4.5t-226.5 4.5h-111l15 93l71 14q48 9 66.5 29.5t25.5 68.5l66 471h-136l17 119h136l61 433q3 20 3 34q0 31 -19 44.5t-75 25.5l-40 8l6 94h117q88 0 227 4.5
t212 4.5zM545 109q127 0 234 55.5t181.5 154t116.5 238.5t42 305q0 220 -100.5 341t-282.5 121q-92 0 -155 -11l-73 -518h259l-17 -119h-259l-64 -460q-3 -18 -3 -32q0 -42 27 -58.5t94 -16.5z" />
    <glyph glyph-name="Ntilde" unicode="&#xd1;" horiz-adv-x="1495" 
d="M768 1664q-85 0 -146 -70l-21 95q30 52 88 86t116 34q65 0 135 -30.5t111 -30.5q85 0 146 70l21 -95q-30 -52 -88 -86.5t-116 -34.5q-65 0 -135.5 31t-110.5 31zM1545 1434l-15 -94l-83 -11q-46 -7 -65.5 -29.5t-26.5 -71.5l-173 -1228h-226l-373 863q-68 156 -113 342
q-7 -152 -26 -285l-101 -715q-3 -19 -3 -34q0 -31 18.5 -43.5t75.5 -23.5l54 -11l-14 -93h-468l15 93l71 14q48 9 66.5 29.5t25.5 68.5l144 1023q3 20 3 34q0 31 -19 44.5t-75 25.5l-40 8l6 94h390l372 -863q65 -152 105 -309q7 128 25 251l101 715q3 19 3 34q0 31 -19 44.5
t-75 25.5l-40 8l6 94h474z" />
    <glyph glyph-name="Ograve" unicode="&#xd2;" horiz-adv-x="1509" 
d="M736 1895l378 -253q-24 -67 -59 -106l-408 202q26 83 89 157zM874 1466q270 0 418.5 -158t148.5 -445q0 -265 -97 -468.5t-274 -315.5t-407 -112q-262 0 -413 165.5t-151 453.5q0 260 96.5 460t273 310t405.5 110zM854 1337q-143 0 -256.5 -98.5t-176.5 -274.5t-63 -397
q0 -219 86.5 -344.5t237.5 -125.5q140 0 255 102.5t180 282.5t65 400q0 217 -86 336t-242 119z" />
    <glyph glyph-name="Oacute" unicode="&#xd3;" horiz-adv-x="1509" 
d="M700 1642l378 253q63 -74 89 -157l-408 -202q-35 39 -59 106zM874 1466q270 0 418.5 -158t148.5 -445q0 -265 -97 -468.5t-274 -315.5t-407 -112q-262 0 -413 165.5t-151 453.5q0 260 96.5 460t273 310t405.5 110zM854 1337q-143 0 -256.5 -98.5t-176.5 -274.5t-63 -397
q0 -219 86.5 -344.5t237.5 -125.5q140 0 255 102.5t180 282.5t65 400q0 217 -86 336t-242 119z" />
    <glyph glyph-name="Ocircumflex" unicode="&#xd4;" horiz-adv-x="1509" 
d="M909 1699l-253 -147q-38 39 -56 100l334 241l267 -245q-29 -57 -73 -96zM874 1466q270 0 418.5 -158t148.5 -445q0 -265 -97 -468.5t-274 -315.5t-407 -112q-262 0 -413 165.5t-151 453.5q0 260 96.5 460t273 310t405.5 110zM682 97q140 0 255 102.5t180 282.5t65 400
q0 217 -86 336t-242 119q-143 0 -256.5 -98.5t-176.5 -274.5t-63 -397q0 -219 86.5 -344.5t237.5 -125.5z" />
    <glyph glyph-name="Otilde" unicode="&#xd5;" horiz-adv-x="1509" 
d="M1050 1748q85 0 146 70l21 -95q-30 -52 -88.5 -86.5t-116.5 -34.5q-64 0 -134 31t-111 31q-85 0 -146 -70l-21 95q30 52 88 86t116 34q64 0 135 -30.5t111 -30.5zM874 1466q270 0 418.5 -158t148.5 -445q0 -265 -97 -468.5t-274 -315.5t-407 -112q-262 0 -413 165.5
t-151 453.5q0 260 96.5 460t273 310t405.5 110zM854 1337q-143 0 -256.5 -98.5t-176.5 -274.5t-63 -397q0 -219 86.5 -344.5t237.5 -125.5q140 0 255 102.5t180 282.5t65 400q0 217 -86 336t-242 119z" />
    <glyph glyph-name="Odieresis" unicode="&#xd6;" horiz-adv-x="1509" 
d="M588 1695q0 62 40.5 102.5t104.5 40.5q46 0 75.5 -31.5t29.5 -79.5q0 -62 -40.5 -102t-104.5 -40q-46 0 -75.5 31t-29.5 79zM979 1695q0 62 40.5 102.5t104.5 40.5q46 0 75.5 -31.5t29.5 -79.5q0 -62 -41 -102t-105 -40q-46 0 -75 31t-29 79zM874 1466q270 0 418.5 -158
t148.5 -445q0 -265 -97 -468.5t-274 -315.5t-407 -112q-262 0 -413 165.5t-151 453.5q0 260 96.5 460t273 310t405.5 110zM854 1337q-143 0 -256.5 -98.5t-176.5 -274.5t-63 -397q0 -219 86.5 -344.5t237.5 -125.5q140 0 255 102.5t180 282.5t65 400q0 217 -86 336t-242 119
z" />
    <glyph glyph-name="multiply" unicode="&#xd7;" horiz-adv-x="999" 
d="M592 561l264 -317l-112 -102l-263 317l-342 -313l-85 104l341 312l-263 317l111 102l264 -317l342 312l85 -103z" />
    <glyph glyph-name="Oslash" unicode="&#xd8;" horiz-adv-x="1509" 
d="M1325 1513l-93 -151q209 -156 209 -499q0 -265 -97 -468.5t-274 -315.5t-407 -112q-138 0 -249 48l-95 -156l-104 62l96 155q-103 79 -157.5 209.5t-54.5 300.5q0 260 96.5 460t273 310t405.5 110q144 0 253 -45l94 153zM854 1337q-143 0 -256.5 -98.5t-176.5 -274.5
t-63 -397q0 -189 67 -312l612 1024q-76 58 -183 58zM682 97q140 0 255 102.5t180 282.5t65 400q0 188 -64 302l-613 -1027q75 -60 177 -60z" />
    <glyph glyph-name="Ugrave" unicode="&#xd9;" horiz-adv-x="1447" 
d="M679 1895l378 -253q-24 -67 -59 -106l-408 202q26 83 89 157zM718 1340l-83 -11q-46 -7 -65.5 -29.5t-26.5 -71.5l-101 -716q-10 -72 -10 -121q0 -296 263 -296q149 0 233.5 97.5t113.5 304.5l104 731q3 19 3 34q0 32 -20 46t-75 24l-44 8l15 94h484l-14 -94l-83 -11
q-46 -7 -65.5 -29.5t-26.5 -71.5l-106 -750q-35 -252 -178 -381.5t-387 -129.5q-458 0 -458 414q0 64 10 131l101 716q3 20 3 34q0 31 -19 44.5t-75 25.5l-40 8l6 94h555z" />
    <glyph glyph-name="Uacute" unicode="&#xda;" horiz-adv-x="1447" 
d="M716 1642l377 253q63 -74 89 -157l-408 -202q-33 37 -58 106zM718 1340l-83 -11q-46 -7 -65.5 -29.5t-26.5 -71.5l-101 -716q-10 -72 -10 -121q0 -296 263 -296q149 0 233.5 97.5t113.5 304.5l104 731q3 19 3 34q0 32 -20 46t-75 24l-44 8l15 94h484l-14 -94l-83 -11
q-46 -7 -65.5 -29.5t-26.5 -71.5l-106 -750q-35 -252 -178 -381.5t-387 -129.5q-458 0 -458 414q0 64 10 131l101 716q3 20 3 34q0 31 -19 44.5t-75 25.5l-40 8l6 94h555z" />
    <glyph glyph-name="Ucircumflex" unicode="&#xdb;" horiz-adv-x="1447" 
d="M909 1699l-253 -147q-38 39 -56 100l334 241l267 -245q-29 -57 -73 -96zM1509 1434l-14 -94l-83 -11q-46 -7 -65.5 -29.5t-26.5 -71.5l-106 -750q-35 -252 -178 -381.5t-387 -129.5q-458 0 -458 414q0 64 10 131l101 716q3 20 3 34q0 32 -19 45t-75 25l-40 8l6 94h555
l-14 -94l-83 -11q-46 -7 -65.5 -29.5t-26.5 -71.5l-101 -716q-10 -72 -10 -121q0 -296 263 -296q149 0 233.5 97.5t113.5 304.5l104 731q3 19 3 34q0 32 -20 46t-75 24l-44 8l15 94h484z" />
    <glyph glyph-name="Udieresis" unicode="&#xdc;" horiz-adv-x="1447" 
d="M588 1695q0 62 40.5 102.5t104.5 40.5q46 0 75.5 -31.5t29.5 -79.5q0 -62 -40.5 -102t-104.5 -40q-46 0 -75.5 31t-29.5 79zM979 1695q0 62 40.5 102.5t104.5 40.5q46 0 75.5 -31.5t29.5 -79.5q0 -62 -41 -102t-105 -40q-46 0 -75 31t-29 79zM718 1340l-83 -11
q-46 -7 -65.5 -29.5t-26.5 -71.5l-101 -716q-10 -72 -10 -121q0 -296 263 -296q149 0 233.5 97.5t113.5 304.5l104 731q3 19 3 34q0 32 -20 46t-75 24l-44 8l15 94h484l-14 -94l-83 -11q-46 -7 -65.5 -29.5t-26.5 -71.5l-106 -750q-35 -252 -178 -381.5t-387 -129.5
q-458 0 -458 414q0 64 10 131l101 716q3 20 3 34q0 31 -19 44.5t-75 25.5l-40 8l6 94h555z" />
    <glyph glyph-name="Yacute" unicode="&#xdd;" horiz-adv-x="1318" 
d="M1119 1738l-408 -202q-35 39 -59 106l378 253q63 -74 89 -157zM1422 1434l-15 -94l-39 -4q-36 -4 -54.5 -9.5t-44.5 -28t-49 -54.5t-71 -103l-367 -543l-52 -367q-5 -30 -5 -46q0 -36 19.5 -51.5t72.5 -24.5l85 -14l-15 -95h-610l15 95l101 17q47 8 67.5 34t28.5 85
l52 367l-240 543q-33 74 -47 104t-32.5 53.5t-31 28t-40.5 9.5l-26 4l7 94h559l-14 -94l-54 -6q-52 -6 -76.5 -23.5t-24.5 -50.5q0 -32 24 -86l182 -412l271 412q48 72 48 107q0 44 -83 53l-60 6l15 94h504z" />
    <glyph glyph-name="Thorn" unicode="&#xde;" horiz-adv-x="1222" 
d="M438 301l-10 -70q-4 -34 -4 -45q0 -37 19.5 -52.5t73.5 -24.5l83 -14l-14 -95h-580l15 93l71 14q48 9 66.5 29.5t25.5 68.5l144 1023q3 20 3 34q0 31 -19 44.5t-75 25.5l-40 8l6 94h555l-14 -94l-83 -11q-46 -7 -65.5 -29.5t-26.5 -71.5l-11 -76q156 3 160 3
q464 0 464 -342q0 -248 -160 -382.5t-453 -134.5q-76 0 -131 5zM695 1037q-86 0 -155 -12l-84 -601q66 -6 130 -6q162 0 254 102t92 283q0 116 -60.5 175t-176.5 59z" />
    <glyph glyph-name="germandbls" unicode="&#xdf;" horiz-adv-x="1196" 
d="M860 804q0 -47 24.5 -91.5t59 -82.5t69.5 -77.5t59.5 -93.5t24.5 -114q0 -165 -105.5 -267.5t-274.5 -102.5q-174 0 -285 79q5 94 30 197l106 6q11 -91 45 -133t98 -42q70 0 113.5 53t43.5 138q0 55 -24 103t-58 84.5t-67.5 74t-57.5 88t-24 108.5q0 59 23 115.5t56 102
t66 90.5t56 99.5t23 111.5q0 65 -33.5 103.5t-91.5 38.5q-111 0 -173.5 -109.5t-98.5 -367.5l-130 -929q-32 -227 -118 -332t-239 -105q-88 0 -162 41l28 119q48 -25 98 -25q68 0 99.5 58.5t54.5 227.5l134 958h-120l12 109q28 9 137 12q48 243 172.5 356t343.5 113
q148 0 227 -59t79 -169q0 -66 -22.5 -122.5t-55 -97t-65 -79.5t-55 -86.5t-22.5 -100.5z" />
    <glyph glyph-name="agrave" unicode="&#xe0;" horiz-adv-x="1161" 
d="M510 1553l378 -253q-23 -65 -59 -105l-408 201q26 83 89 157zM979 111q26 0 66 4l-6 -91q-113 -44 -195 -44q-79 0 -116 28t-37 89q0 98 87 379h-2q-154 -501 -445 -501q-141 0 -205 87.5t-64 276.5q0 196 70 366.5t188.5 270.5t255.5 100q157 0 240 -112l7 17
q22 53 47 74t66 21q51 0 107 -31l-129 -822q-5 -33 -5 -51q0 -35 16 -48t54 -13zM386 126q42 0 98 47.5t111 128.5t102 205.5t68 262.5l11 70q-25 47 -63.5 74.5t-80.5 27.5q-85 0 -160.5 -85t-121 -227.5t-45.5 -301.5q0 -107 18.5 -154.5t62.5 -47.5z" />
    <glyph glyph-name="aacute" unicode="&#xe1;" horiz-adv-x="1161" 
d="M980 1396l-408 -201q-36 40 -59 105l378 253q63 -74 89 -157zM979 111q26 0 66 4l-6 -91q-113 -44 -195 -44q-79 0 -116 28t-37 89q0 98 87 379h-2q-154 -501 -445 -501q-141 0 -205 87.5t-64 276.5q0 196 70 366.5t188.5 270.5t255.5 100q157 0 240 -112l7 17
q22 53 47 74t66 21q51 0 107 -31l-129 -822q-5 -33 -5 -51q0 -35 16 -48t54 -13zM386 126q42 0 98 47.5t111 128.5t102 205.5t68 262.5l11 70q-25 47 -63.5 74.5t-80.5 27.5q-85 0 -160.5 -85t-121 -227.5t-45.5 -301.5q0 -107 18.5 -154.5t62.5 -47.5z" />
    <glyph glyph-name="acircumflex" unicode="&#xe2;" horiz-adv-x="1161" 
d="M660 1357l-253 -147q-38 39 -56 100l334 241l266 -245q-30 -59 -72 -96zM979 111q26 0 66 4l-6 -91q-113 -44 -195 -44q-79 0 -116 28t-37 89q0 98 87 379h-2q-154 -501 -445 -501q-141 0 -205 87.5t-64 276.5q0 196 70 366.5t188.5 270.5t255.5 100q157 0 240 -112l7 17
q22 53 47 74t66 21q51 0 107 -31l-129 -822q-5 -33 -5 -51q0 -35 16 -48t54 -13zM386 126q42 0 98 47.5t111 128.5t102 205.5t68 262.5l11 70q-25 47 -63.5 74.5t-80.5 27.5q-85 0 -160.5 -85t-121 -227.5t-45.5 -301.5q0 -107 18.5 -154.5t62.5 -47.5z" />
    <glyph glyph-name="atilde" unicode="&#xe3;" horiz-adv-x="1161" 
d="M520 1322q-85 0 -146 -70l-21 95q30 52 88 86.5t116 34.5q65 0 135 -31t110 -31q86 0 147 70l21 -95q-30 -52 -88.5 -86t-116.5 -34q-65 0 -135 30.5t-110 30.5zM979 111q26 0 66 4l-6 -91q-113 -44 -195 -44q-79 0 -116 28t-37 89q0 98 87 379h-2q-154 -501 -445 -501
q-141 0 -205 87.5t-64 276.5q0 196 70 366.5t188.5 270.5t255.5 100q157 0 240 -112l7 17q22 53 47 74t66 21q51 0 107 -31l-129 -822q-5 -33 -5 -51q0 -35 16 -48t54 -13zM386 126q42 0 98 47.5t111 128.5t102 205.5t68 262.5l11 70q-25 47 -63.5 74.5t-80.5 27.5
q-85 0 -160.5 -85t-121 -227.5t-45.5 -301.5q0 -107 18.5 -154.5t62.5 -47.5z" />
    <glyph glyph-name="adieresis" unicode="&#xe4;" horiz-adv-x="1161" 
d="M446 1243q-46 0 -75.5 31.5t-29.5 79.5q0 62 40.5 102t104.5 40q46 0 75.5 -31t29.5 -79q0 -62 -40.5 -102.5t-104.5 -40.5zM836 1243q-46 0 -75 31.5t-29 79.5q0 62 40.5 102t104.5 40q46 0 75.5 -31t29.5 -79q0 -62 -41 -102.5t-105 -40.5zM979 111q26 0 66 4l-6 -91
q-113 -44 -195 -44q-79 0 -116 28t-37 89q0 98 87 379h-2q-154 -501 -445 -501q-141 0 -205 87.5t-64 276.5q0 196 70 366.5t188.5 270.5t255.5 100q157 0 240 -112l7 17q22 53 47 74t66 21q51 0 107 -31l-129 -822q-5 -33 -5 -51q0 -35 16 -48t54 -13zM386 126
q42 0 98 47.5t111 128.5t102 205.5t68 262.5l11 70q-25 47 -63.5 74.5t-80.5 27.5q-85 0 -160.5 -85t-121 -227.5t-45.5 -301.5q0 -107 18.5 -154.5t62.5 -47.5z" />
    <glyph glyph-name="aring" unicode="&#xe5;" horiz-adv-x="1161" 
d="M636 1196q-77 0 -123.5 47t-46.5 125q0 98 63.5 160t164.5 62q77 0 124 -47t47 -125q0 -98 -64 -160t-165 -62zM681 1497q-47 0 -77 -32t-30 -84q0 -92 76 -92q47 0 77 32t30 84q0 92 -76 92zM979 111q26 0 66 4l-6 -91q-113 -44 -195 -44q-79 0 -116 28t-37 89
q0 98 87 379h-2q-154 -501 -445 -501q-141 0 -205 87.5t-64 276.5q0 196 70 366.5t188.5 270.5t255.5 100q157 0 240 -112l7 17q22 53 47 74t66 21q51 0 107 -31l-129 -822q-5 -33 -5 -51q0 -35 16 -48t54 -13zM386 126q42 0 98 47.5t111 128.5t102 205.5t68 262.5l11 70
q-25 47 -63.5 74.5t-80.5 27.5q-85 0 -160.5 -85t-121 -227.5t-45.5 -301.5q0 -107 18.5 -154.5t62.5 -47.5z" />
    <glyph glyph-name="ae" unicode="&#xe6;" horiz-adv-x="1583" 
d="M926 465q-34 0 -62 3q-1 -18 -1 -55q0 -290 231 -290q85 0 151 25t132 82l41 -113q-95 -75 -191 -108.5t-226 -33.5q-253 0 -341 192q-60 -91 -152.5 -141.5t-204.5 -50.5q-137 0 -209.5 64t-72.5 184q0 182 129 288t352 106q84 0 141 -9l19 124q8 54 8 90
q0 149 -111 149q-37 0 -71 -17t-60 -41.5t-51.5 -48.5t-58 -41t-67.5 -17q-87 0 -87 86q0 38 15 72q191 112 406 112q114 0 178 -34.5t86 -110.5q138 145 352 145q163 0 246 -62.5t83 -184.5q0 -174 -158 -269t-446 -95zM1165 953q-99 0 -178 -103.5t-109 -265.5
q32 -2 43 -2q176 0 278 64.5t102 176.5q0 130 -136 130zM391 126q131 0 230 200q-3 34 -3 70q0 51 6 102q-48 6 -102 6q-125 0 -195 -62.5t-70 -174.5q0 -67 35 -104t99 -37z" />
    <glyph glyph-name="ccedilla" unicode="&#xe7;" horiz-adv-x="956" 
d="M938 993q8 -21 8 -48q0 -58 -33 -92t-88 -34q-33 0 -56.5 14t-37 33.5t-26.5 39t-34.5 33.5t-52.5 14q-82 0 -151.5 -73t-110.5 -197.5t-41 -269.5q0 -140 52.5 -214t152.5 -74q74 0 135.5 25.5t127.5 81.5l41 -115q-83 -66 -165 -99.5t-180 -40.5l-53 -86
q80 0 127 -40.5t47 -109.5q0 -104 -68 -162t-188 -58q-94 0 -155 58q14 48 42 83q51 -44 116 -44q44 0 68.5 24t24.5 68q0 41 -32 64t-90 23l-18 48l73 133q-149 16 -228 123t-79 295q0 302 162 491t421 189q171 0 289 -83z" />
    <glyph glyph-name="egrave" unicode="&#xe8;" horiz-adv-x="1030" 
d="M482 1553l378 -253q-23 -65 -59 -105l-408 201q26 83 89 157zM370 437q-32 0 -59 3q0 -4 -0.5 -13t-0.5 -14q0 -150 61 -220t171 -70q85 0 151 25t132 82l41 -113q-95 -75 -191 -108.5t-226 -33.5q-190 0 -286.5 107.5t-96.5 313.5q0 302 162 491t421 189
q163 0 246 -62.5t83 -184.5q0 -186 -160 -289t-448 -103zM613 953q-103 0 -184 -112.5t-108 -284.5q32 -2 45 -2q175 0 279 73t104 196q0 130 -136 130z" />
    <glyph glyph-name="eacute" unicode="&#xe9;" horiz-adv-x="1030" 
d="M932 1396l-408 -201q-36 40 -59 105l378 253q63 -74 89 -157zM370 437q-32 0 -59 3q0 -4 -0.5 -13t-0.5 -14q0 -150 61 -220t171 -70q85 0 151 25t132 82l41 -113q-95 -75 -191 -108.5t-226 -33.5q-190 0 -286.5 107.5t-96.5 313.5q0 302 162 491t421 189
q163 0 246 -62.5t83 -184.5q0 -186 -160 -289t-448 -103zM613 953q-103 0 -184 -112.5t-108 -284.5q32 -2 45 -2q175 0 279 73t104 196q0 130 -136 130z" />
    <glyph glyph-name="ecircumflex" unicode="&#xea;" horiz-adv-x="1030" 
d="M644 1357l-253 -147q-38 39 -56 100l334 241l266 -245q-30 -59 -72 -96zM370 437q-32 0 -59 3q0 -4 -0.5 -13t-0.5 -14q0 -150 61 -220t171 -70q85 0 151 25t132 82l41 -113q-95 -75 -191 -108.5t-226 -33.5q-190 0 -286.5 107.5t-96.5 313.5q0 302 162 491t421 189
q163 0 246 -62.5t83 -184.5q0 -186 -160 -289t-448 -103zM613 953q-103 0 -184 -112.5t-108 -284.5q32 -2 45 -2q175 0 279 73t104 196q0 130 -136 130z" />
    <glyph glyph-name="edieresis" unicode="&#xeb;" horiz-adv-x="1030" 
d="M430 1243q-46 0 -75.5 31.5t-29.5 79.5q0 62 40.5 102t104.5 40q46 0 75.5 -31t29.5 -79q0 -62 -40.5 -102.5t-104.5 -40.5zM820 1243q-46 0 -75 31.5t-29 79.5q0 62 40.5 102t104.5 40q46 0 75.5 -31t29.5 -79q0 -62 -41 -102.5t-105 -40.5zM370 437q-32 0 -59 3
q0 -4 -0.5 -13t-0.5 -14q0 -150 61 -220t171 -70q85 0 151 25t132 82l41 -113q-95 -75 -191 -108.5t-226 -33.5q-190 0 -286.5 107.5t-96.5 313.5q0 302 162 491t421 189q163 0 246 -62.5t83 -184.5q0 -186 -160 -289t-448 -103zM613 953q-103 0 -184 -112.5t-108 -284.5
q32 -2 45 -2q175 0 279 73t104 196q0 130 -136 130z" />
    <glyph glyph-name="igrave" unicode="&#xec;" horiz-adv-x="618" 
d="M213 1553l378 -253q-23 -65 -59 -105l-408 201q26 83 89 157zM380 1076q67 0 87 -15.5t20 -66.5q0 -62 -14 -139l-112 -632q-5 -26 -5 -52q0 -34 16 -47t54 -13q27 0 67 4l-6 -91q-115 -45 -204 -45q-91 0 -130.5 30.5t-39.5 104.5q0 41 8 84l109 617q8 48 8 68
q0 24 -8.5 33.5t-27.5 9.5q-39 0 -87 -16v91q49 31 126 53t139 22z" />
    <glyph glyph-name="iacute" unicode="&#xed;" horiz-adv-x="618" 
d="M188 1300l377 253q63 -74 89 -157l-408 -201q-34 38 -58 105zM380 1076q67 0 87 -15.5t20 -66.5q0 -62 -14 -139l-112 -632q-5 -26 -5 -52q0 -34 16 -47t54 -13q27 0 67 4l-6 -91q-113 -44 -204 -44t-130.5 30t-39.5 104q0 41 8 84l109 617q8 48 8 68q0 24 -8.5 33.5
t-27.5 9.5q-39 0 -87 -16v91q49 31 126 53t139 22z" />
    <glyph glyph-name="icircumflex" unicode="&#xee;" horiz-adv-x="618" 
d="M416 1551l267 -245q-29 -57 -73 -96l-219 147l-253 -147q-38 39 -56 100zM356 171q0 -34 16 -47t54 -13q27 0 67 4l-6 -91q-113 -44 -204 -44t-130.5 30t-39.5 104q0 41 8 84l109 617q8 48 8 68q0 24 -8.5 33.5t-27.5 9.5q-39 0 -87 -16v91q49 31 126 53t139 22
q67 0 87 -15.5t20 -66.5q0 -62 -14 -139l-112 -632q-5 -26 -5 -52z" />
    <glyph glyph-name="idieresis" unicode="&#xef;" horiz-adv-x="618" 
d="M72 1354q0 62 41 102t105 40q46 0 75 -31t29 -79q0 -62 -40.5 -102.5t-104.5 -40.5q-46 0 -75.5 31.5t-29.5 79.5zM463 1354q0 62 40.5 102t104.5 40q46 0 75.5 -31t29.5 -79q0 -62 -40.5 -102.5t-104.5 -40.5q-46 0 -75.5 31.5t-29.5 79.5zM380 1076q67 0 87 -15.5
t20 -66.5q0 -62 -14 -139l-112 -632q-5 -26 -5 -52q0 -34 16 -47t54 -13q27 0 67 4l-6 -91q-113 -44 -204 -44t-130.5 30t-39.5 104q0 41 8 84l109 617q8 48 8 68q0 24 -8.5 33.5t-27.5 9.5q-39 0 -87 -16v91q49 31 126 53t139 22z" />
    <glyph glyph-name="eth" unicode="&#xf0;" horiz-adv-x="1153" 
d="M964 1438l-138 -93q228 -197 228 -574q0 -386 -148 -591t-428 -205q-202 0 -306 108t-104 319q0 290 145 465.5t385 175.5q211 0 272 -172h2q-33 245 -208 384l-183 -123l-61 96l139 94q-96 49 -218 74l55 122q185 -21 327 -101l177 121zM495 98q131 0 214.5 154.5
t83.5 391.5q0 268 -184 268q-134 0 -214 -143t-80 -375q0 -143 46.5 -219.5t133.5 -76.5z" />
    <glyph glyph-name="ntilde" unicode="&#xf1;" horiz-adv-x="1214" 
d="M567 1322q-85 0 -146 -70l-21 95q30 52 88 86.5t116 34.5q64 0 135 -31t111 -31q85 0 146 70l21 -95q-30 -52 -88.5 -86t-116.5 -34q-64 0 -134 30.5t-111 30.5zM1033 111q27 0 67 4l-6 -91q-113 -44 -204 -44t-130.5 30t-39.5 104q0 41 8 84l103 584q7 42 7 63
q0 80 -64 80q-43 0 -101.5 -47.5t-117.5 -128t-109.5 -205.5t-71.5 -262l-43 -282h-236l128 815q7 42 7 68q0 25 -8 34t-27 9q-40 0 -88 -16v91q49 31 124.5 53t133.5 22q48 0 68.5 -17.5t20.5 -61.5q0 -48 -26.5 -172t-62.5 -249h2q35 108 79 194.5t101 157t129 109.5
t153 39q120 0 183.5 -53.5t63.5 -154.5q0 -30 -6 -65l-102 -580q-5 -26 -5 -52q0 -34 16 -47t54 -13z" />
    <glyph glyph-name="ograve" unicode="&#xf2;" horiz-adv-x="1142" 
d="M538 1553l378 -253q-23 -65 -59 -105l-408 201q26 83 89 157zM66 398q0 197 73 351.5t205 240.5t302 86q201 0 304.5 -105t103.5 -309q0 -305 -162 -496t-421 -191q-194 0 -299.5 110t-105.5 313zM627 953q-90 0 -162 -75.5t-112.5 -209t-40.5 -298.5q0 -128 47.5 -200
t131.5 -72q89 0 161.5 78.5t114 214t41.5 298.5q0 129 -46.5 196.5t-134.5 67.5z" />
    <glyph glyph-name="oacute" unicode="&#xf3;" horiz-adv-x="1142" 
d="M465 1300l378 253q63 -74 89 -157l-408 -201q-36 40 -59 105zM66 398q0 197 73 351.5t205 240.5t302 86q201 0 304.5 -105t103.5 -309q0 -305 -162 -496t-421 -191q-194 0 -299.5 110t-105.5 313zM627 953q-90 0 -162 -75.5t-112.5 -209t-40.5 -298.5q0 -128 47.5 -200
t131.5 -72q89 0 161.5 78.5t114 214t41.5 298.5q0 129 -46.5 196.5t-134.5 67.5z" />
    <glyph glyph-name="ocircumflex" unicode="&#xf4;" horiz-adv-x="1142" 
d="M682 1357l-253 -147q-38 39 -56 100l334 241l267 -245q-29 -57 -73 -96zM646 1076q201 0 304.5 -105t103.5 -309q0 -305 -162 -496t-421 -191q-194 0 -299.5 110t-105.5 313q0 197 73 351.5t205 240.5t302 86zM491 98q89 0 161.5 78.5t114 214t41.5 298.5
q0 129 -46.5 196.5t-134.5 67.5q-90 0 -162 -75.5t-112.5 -209t-40.5 -298.5q0 -128 47.5 -200t131.5 -72z" />
    <glyph glyph-name="otilde" unicode="&#xf5;" horiz-adv-x="1142" 
d="M825 1406q85 0 146 70l21 -95q-30 -52 -88 -86t-116 -34q-64 0 -134.5 30.5t-111.5 30.5q-85 0 -146 -70l-21 95q30 52 88 86.5t116 34.5q65 0 135 -31t111 -31zM66 398q0 197 73 351.5t205 240.5t302 86q201 0 304.5 -105t103.5 -309q0 -305 -162 -496t-421 -191
q-194 0 -299.5 110t-105.5 313zM627 953q-90 0 -162 -75.5t-112.5 -209t-40.5 -298.5q0 -128 47.5 -200t131.5 -72q89 0 161.5 78.5t114 214t41.5 298.5q0 129 -46.5 196.5t-134.5 67.5z" />
    <glyph glyph-name="odieresis" unicode="&#xf6;" horiz-adv-x="1142" 
d="M363 1354q0 62 41 102t105 40q46 0 75 -31t29 -79q0 -62 -40.5 -102.5t-104.5 -40.5q-46 0 -75.5 31.5t-29.5 79.5zM754 1354q0 62 40.5 102t104.5 40q46 0 75.5 -31t29.5 -79q0 -62 -40.5 -102.5t-104.5 -40.5q-46 0 -75.5 31.5t-29.5 79.5zM66 398q0 197 73 351.5
t205 240.5t302 86q201 0 304.5 -105t103.5 -309q0 -305 -162 -496t-421 -191q-194 0 -299.5 110t-105.5 313zM627 953q-90 0 -162 -75.5t-112.5 -209t-40.5 -298.5q0 -128 47.5 -200t131.5 -72q89 0 161.5 78.5t114 214t41.5 298.5q0 129 -46.5 196.5t-134.5 67.5z" />
    <glyph glyph-name="divide" unicode="&#xf7;" horiz-adv-x="1130" 
d="M475 936q0 74 45.5 120.5t117.5 46.5q53 0 85 -33.5t32 -87.5q0 -74 -45.5 -120.5t-117.5 -46.5q-53 0 -85 33.5t-32 87.5zM1020 492h-942l20 140h942zM363 141q0 73 45.5 119.5t117.5 46.5q53 0 85 -33t32 -87q0 -74 -45.5 -120.5t-117.5 -46.5q-53 0 -85 33.5t-32 87.5
z" />
    <glyph glyph-name="oslash" unicode="&#xf8;" horiz-adv-x="1142" 
d="M994 1136l-81 -133q141 -103 141 -341q0 -305 -162 -496t-421 -191q-92 0 -165 26l-87 -142l-95 56l84 138q-142 108 -142 345q0 197 73 351.5t205 240.5t302 86q98 0 168 -23l85 139zM628 953q-139 0 -229.5 -166t-90.5 -417q0 -74 17 -133l405 685q-42 31 -102 31z
M490 98q90 0 164 78t116 214t42 299q0 77 -16 129l-406 -686q42 -34 100 -34z" />
    <glyph glyph-name="ugrave" unicode="&#xf9;" horiz-adv-x="1208" 
d="M501 1553l378 -253q-23 -65 -59 -105l-408 201q26 83 89 157zM1024 111q27 0 67 4l-6 -91q-113 -44 -196 -44q-78 0 -115 28t-37 89q0 98 87 379h-3q-155 -501 -460 -501q-244 0 -244 221q0 44 8 87l93 532q8 48 8 68q0 24 -8.5 33.5t-27.5 9.5q-39 0 -87 -16v91
q49 31 126 53t139 22q67 0 87 -15.5t20 -66.5q0 -62 -14 -139l-98 -556q-9 -52 -9 -87q0 -86 61 -86q49 0 108 47.5t115.5 129t103.5 205t68 262.5l44 281h236l-131 -828q-5 -33 -5 -51q0 -35 16 -48t54 -13z" />
    <glyph glyph-name="uacute" unicode="&#xfa;" horiz-adv-x="1208" 
d="M966 1396l-407 -201q-36 40 -59 105l377 253q63 -74 89 -157zM1024 111q27 0 67 4l-6 -91q-113 -44 -196 -44q-78 0 -115 28t-37 89q0 98 87 379h-3q-155 -501 -460 -501q-244 0 -244 221q0 44 8 87l93 532q8 48 8 68q0 24 -8.5 33.5t-27.5 9.5q-39 0 -87 -16v91
q49 31 126 53t139 22q67 0 87 -15.5t20 -66.5q0 -62 -14 -139l-98 -556q-9 -52 -9 -87q0 -86 61 -86q49 0 108 47.5t115.5 129t103.5 205t68 262.5l44 281h236l-131 -828q-5 -33 -5 -51q0 -35 16 -48t54 -13z" />
    <glyph glyph-name="ucircumflex" unicode="&#xfb;" horiz-adv-x="1208" 
d="M698 1357l-253 -147q-38 39 -56 100l334 241l266 -245q-30 -59 -72 -96zM1024 111q27 0 67 4l-6 -91q-113 -44 -196 -44q-78 0 -115 28t-37 89q0 98 87 379h-3q-155 -501 -460 -501q-244 0 -244 221q0 44 8 87l93 532q8 48 8 68q0 24 -8.5 33.5t-27.5 9.5q-39 0 -87 -16
v91q49 31 126 53t139 22q67 0 87 -15.5t20 -66.5q0 -62 -14 -139l-98 -556q-9 -52 -9 -87q0 -86 61 -86q49 0 108 47.5t115.5 129t103.5 205t68 262.5l44 281h236l-131 -828q-5 -33 -5 -51q0 -35 16 -48t54 -13z" />
    <glyph glyph-name="udieresis" unicode="&#xfc;" horiz-adv-x="1208" 
d="M484 1243q-46 0 -75.5 31.5t-29.5 79.5q0 62 40.5 102t104.5 40q46 0 75.5 -31t29.5 -79q0 -62 -40.5 -102.5t-104.5 -40.5zM874 1243q-46 0 -75 31.5t-29 79.5q0 62 40.5 102t104.5 40q46 0 75.5 -31t29.5 -79q0 -62 -41 -102.5t-105 -40.5zM1024 111q27 0 67 4l-6 -91
q-113 -44 -196 -44q-78 0 -115 28t-37 89q0 98 87 379h-3q-155 -501 -460 -501q-244 0 -244 221q0 44 8 87l93 532q8 48 8 68q0 24 -8.5 33.5t-27.5 9.5q-39 0 -87 -16v91q49 31 126 53t139 22q67 0 87 -15.5t20 -66.5q0 -62 -14 -139l-98 -556q-9 -52 -9 -87q0 -86 61 -86
q49 0 108 47.5t115.5 129t103.5 205t68 262.5l44 281h236l-131 -828q-5 -33 -5 -51q0 -35 16 -48t54 -13z" />
    <glyph glyph-name="yacute" unicode="&#xfd;" horiz-adv-x="1101" 
d="M897 1396l-408 -201q-36 40 -59 105l378 253q63 -74 89 -157zM940 1076q58 0 85 -29t27 -90q0 -173 -104.5 -433t-290.5 -548q-148 -229 -282.5 -328t-296.5 -99q-46 0 -88 10q-16 36 -16 77q0 55 30 86t84 31q26 0 60 -11t55 -11q84 0 135 84.5t51 225.5q0 97 -25 236
t-86 381q-30 117 -48.5 171.5t-37 75.5t-47.5 21q-41 0 -86 -16l-7 91q46 31 117.5 53t123.5 22q54 0 84.5 -25t56.5 -91.5t62 -213.5q86 -347 86 -590q0 -44 -2 -64q114 194 188 402t74 336q0 52 -13 74t-43 22q-31 0 -76 -16l-7 91q46 31 116.5 53t120.5 22z" />
    <glyph glyph-name="thorn" unicode="&#xfe;" horiz-adv-x="1155" 
d="M778 1076q151 0 222 -88t71 -275q0 -196 -72 -366.5t-193.5 -271t-262.5 -100.5q-155 0 -239 111q-13 -167 -39 -356l-22 -160h-236l238 1687q6 45 6 68q0 25 -7.5 34t-26.5 9q-40 0 -88 -16v91q49 31 125 53t137 22q66 0 85.5 -15.5t19.5 -66.5q0 -79 -53.5 -361.5
t-111.5 -498.5h3q34 108 75.5 194.5t95.5 157.5t123.5 109.5t149.5 38.5zM485 109q88 0 166.5 85t125.5 227.5t47 301.5q0 105 -24 153.5t-76 48.5q-34 0 -76.5 -29t-88.5 -86.5t-87.5 -133.5t-76 -179.5t-51.5 -214.5l-11 -71q26 -48 66 -75t86 -27z" />
    <glyph glyph-name="ydieresis" unicode="&#xff;" horiz-adv-x="1101" 
d="M434 1243q-46 0 -75 31.5t-29 79.5q0 62 40.5 102t104.5 40q46 0 75.5 -31t29.5 -79q0 -62 -41 -102.5t-105 -40.5zM825 1243q-46 0 -75.5 31.5t-29.5 79.5q0 62 41 102t105 40q46 0 75.5 -31t29.5 -79q0 -62 -41 -102.5t-105 -40.5zM940 1076q58 0 85 -29t27 -90
q0 -173 -104.5 -433t-290.5 -548q-148 -229 -282.5 -328t-296.5 -99q-46 0 -88 10q-16 36 -16 77q0 55 30 86t84 31q26 0 60 -11t55 -11q84 0 135 84.5t51 225.5q0 97 -25 236t-86 381q-30 117 -48.5 171.5t-37 75.5t-47.5 21q-41 0 -86 -16l-7 91q46 31 117.5 53t123.5 22
q54 0 84.5 -25t56.5 -91.5t62 -213.5q86 -347 86 -590q0 -44 -2 -64q114 194 188 402t74 336q0 52 -13 74t-43 22q-31 0 -76 -16l-7 91q46 31 116.5 53t120.5 22z" />
    <glyph glyph-name="Amacron" unicode="&#x100;" horiz-adv-x="1376" 
d="M1094 1636h-539l19 135h540zM1280 93l-7 -93h-552l14 93l56 9q56 8 78.5 29.5t22.5 69.5q0 34 -11 92l-24 130h-461l-60 -130q-45 -96 -45 -130q0 -28 23 -41t79 -22l42 -7l-14 -93h-504l14 93l56 9q56 9 87.5 43.5t86.5 147.5l556 1147h179l228 -1147q22 -113 42.5 -146
t74.5 -45zM834 548l-110 587l-271 -587h381z" />
    <glyph glyph-name="amacron" unicode="&#x101;" horiz-adv-x="1161" 
d="M919 1294h-539l19 135h540zM979 111q26 0 66 4l-6 -91q-113 -44 -195 -44q-79 0 -116 28t-37 89q0 98 87 379h-2q-154 -501 -445 -501q-141 0 -205 87.5t-64 276.5q0 196 70 366.5t188.5 270.5t255.5 100q157 0 240 -112l7 17q22 53 47 74t66 21q51 0 107 -31l-129 -822
q-5 -33 -5 -51q0 -35 16 -48t54 -13zM386 126q42 0 98 47.5t111 128.5t102 205.5t68 262.5l11 70q-25 47 -63.5 74.5t-80.5 27.5q-85 0 -160.5 -85t-121 -227.5t-45.5 -301.5q0 -107 18.5 -154.5t62.5 -47.5z" />
    <glyph glyph-name="Abreve" unicode="&#x102;" horiz-adv-x="1376" 
d="M822 1565q-114 0 -181 60.5t-80 175.5q19 15 53 27t60 12q27 -138 166 -138q64 0 107 31.5t79 106.5q27 0 59 -12t47 -27q-48 -121 -124 -178.5t-186 -57.5zM1280 93l-7 -93h-552l14 93l56 9q56 8 78.5 29.5t22.5 69.5q0 34 -11 92l-24 130h-461l-60 -130
q-45 -96 -45 -130q0 -28 23 -41t79 -22l42 -7l-14 -93h-504l14 93l56 9q56 9 87.5 43.5t86.5 147.5l556 1147h179l228 -1147q22 -113 42.5 -146t74.5 -45zM834 548l-110 587l-271 -587h381z" />
    <glyph glyph-name="abreve" unicode="&#x103;" horiz-adv-x="1161" 
d="M651 1223q-114 0 -181.5 60.5t-80.5 175.5q19 15 53.5 27t60.5 12q27 -138 166 -138q64 0 106.5 31.5t78.5 106.5q27 0 59.5 -12t47.5 -27q-48 -121 -124 -178.5t-186 -57.5zM979 111q26 0 66 4l-6 -91q-113 -44 -195 -44q-79 0 -116 28t-37 89q0 98 87 379h-2
q-154 -501 -445 -501q-141 0 -205 87.5t-64 276.5q0 196 70 366.5t188.5 270.5t255.5 100q157 0 240 -112l7 17q22 53 47 74t66 21q51 0 107 -31l-129 -822q-5 -33 -5 -51q0 -35 16 -48t54 -13zM386 126q42 0 98 47.5t111 128.5t102 205.5t68 262.5l11 70q-25 47 -63.5 74.5
t-80.5 27.5q-85 0 -160.5 -85t-121 -227.5t-45.5 -301.5q0 -107 18.5 -154.5t62.5 -47.5z" />
    <glyph glyph-name="Aogonek" unicode="&#x104;" horiz-adv-x="1376" 
d="M1280 93l-7 -93h-229q-145 0 -231.5 -61t-86.5 -163q0 -52 22 -80t63 -28q59 0 111 50q22 -40 25 -87q-90 -78 -217 -78q-82 0 -132 48.5t-50 127.5q0 72 25.5 129.5t63.5 90.5t83 64t83 53.5t63.5 56.5t25.5 74q0 37 -11 96l-24 130h-461l-60 -130q-45 -96 -45 -130
q0 -28 23 -41t79 -22l42 -7l-14 -93h-504l14 93l56 9q56 9 87.5 43.5t86.5 147.5l556 1147h179l228 -1147q22 -113 42.5 -146t74.5 -45zM834 548l-110 587l-271 -587h381z" />
    <glyph glyph-name="aogonek" unicode="&#x105;" horiz-adv-x="1161" 
d="M1045 115l-6 -97q-127 -35 -201.5 -102t-74.5 -148q0 -46 23.5 -73t62.5 -27q59 0 111 50q22 -40 25 -87q-90 -78 -217 -78q-82 0 -132 48.5t-50 127.5q0 83 50.5 151t140.5 106q-86 21 -86 111q0 98 87 379h-2q-154 -501 -445 -501q-141 0 -205 87.5t-64 276.5
q0 196 70 366.5t188.5 270.5t255.5 100q157 0 240 -112l7 17q22 53 47 74t66 21q51 0 107 -31l-129 -822q-5 -33 -5 -51q0 -35 16 -48t54 -13q26 0 66 4zM386 126q42 0 98 47.5t111 128.5t102 205.5t68 262.5l11 70q-25 47 -63.5 74.5t-80.5 27.5q-85 0 -160.5 -85
t-121 -227.5t-45.5 -301.5q0 -107 18.5 -154.5t62.5 -47.5z" />
    <glyph glyph-name="Cacute" unicode="&#x106;" horiz-adv-x="1284" 
d="M701 1642l378 253q63 -74 89 -157l-408 -202q-35 39 -59 106zM875 1466q113 0 238.5 -24.5t191.5 -24.5q-14 -172 -51 -358l-139 -9q0 156 -58.5 221.5t-196.5 65.5q-146 0 -260.5 -99.5t-178.5 -278t-64 -403.5q0 -220 86.5 -339.5t244.5 -119.5q148 0 230 72.5
t123 239.5l133 -9l-46 -328q-225 -105 -464 -105q-274 0 -420 153.5t-146 443.5q0 265 98 470.5t274.5 318.5t404.5 113z" />
    <glyph glyph-name="cacute" unicode="&#x107;" horiz-adv-x="956" 
d="M461 1300l378 253q63 -74 89 -157l-408 -201q-36 40 -59 105zM426 -25q-175 0 -267.5 108.5t-92.5 312.5q0 302 162 491t421 189q171 0 289 -83q8 -21 8 -48q0 -58 -33 -92t-88 -34q-33 0 -56.5 14t-37 33.5t-26.5 39t-34.5 33.5t-52.5 14q-82 0 -151.5 -73
t-110.5 -197.5t-41 -269.5q0 -140 52.5 -214t152.5 -74q74 0 135.5 25.5t127.5 81.5l41 -115q-94 -75 -188 -108.5t-210 -33.5z" />
    <glyph glyph-name="Ccircumflex" unicode="&#x108;" horiz-adv-x="1284" 
d="M885 1699l-252 -147q-39 41 -57 100l335 241l266 -245q-29 -57 -73 -96zM860 1337q-146 0 -260.5 -99.5t-178.5 -278t-64 -403.5q0 -220 86.5 -339.5t244.5 -119.5q148 0 230 72.5t123 239.5l133 -9l-46 -328q-225 -105 -464 -105q-274 0 -420 153.5t-146 443.5
q0 265 98 470.5t274.5 318.5t404.5 113q113 0 238.5 -24.5t191.5 -24.5q-14 -172 -51 -358l-139 -9q0 156 -58.5 221.5t-196.5 65.5z" />
    <glyph glyph-name="ccircumflex" unicode="&#x109;" horiz-adv-x="956" 
d="M657 1357l-253 -147q-38 39 -56 100l334 241l266 -245q-30 -59 -72 -96zM649 1076q171 0 289 -83q8 -21 8 -48q0 -58 -33 -92t-88 -34q-33 0 -56.5 14t-37 33.5t-26.5 39t-34.5 33.5t-52.5 14q-82 0 -151.5 -73t-110.5 -197.5t-41 -269.5q0 -140 52.5 -214t152.5 -74
q74 0 135.5 25.5t127.5 81.5l41 -115q-94 -75 -188 -108.5t-210 -33.5q-175 0 -267.5 108.5t-92.5 312.5q0 302 162 491t421 189z" />
    <glyph glyph-name="Cdotaccent" unicode="&#x10a;" horiz-adv-x="1284" 
d="M745 1694q0 71 45 115.5t117 44.5q52 0 85 -32.5t33 -82.5q0 -71 -45 -116t-117 -45q-52 0 -85 33t-33 83zM875 1466q113 0 238.5 -24.5t191.5 -24.5q-14 -172 -51 -358l-139 -9q0 156 -58.5 221.5t-196.5 65.5q-146 0 -260.5 -99.5t-178.5 -278t-64 -403.5
q0 -220 86.5 -339.5t244.5 -119.5q148 0 230 72.5t123 239.5l133 -9l-46 -328q-225 -105 -464 -105q-274 0 -420 153.5t-146 443.5q0 265 98 470.5t274.5 318.5t404.5 113z" />
    <glyph glyph-name="cdotaccent" unicode="&#x10b;" horiz-adv-x="956" 
d="M520 1352q0 71 45 115.5t117 44.5q52 0 85 -32.5t33 -82.5q0 -71 -45.5 -115.5t-117.5 -44.5q-52 0 -84.5 32.5t-32.5 82.5zM426 -25q-175 0 -267.5 108.5t-92.5 312.5q0 302 162 491t421 189q171 0 289 -83q8 -21 8 -48q0 -58 -33 -92t-88 -34q-33 0 -56.5 14t-37 33.5
t-26.5 39t-34.5 33.5t-52.5 14q-82 0 -151.5 -73t-110.5 -197.5t-41 -269.5q0 -140 52.5 -214t152.5 -74q74 0 135.5 25.5t127.5 81.5l41 -115q-94 -75 -188 -108.5t-210 -33.5z" />
    <glyph glyph-name="Ccaron" unicode="&#x10c;" horiz-adv-x="1284" 
d="M861 1543l-256 245q29 57 73 96l209 -146l242 146q38 -39 56 -100zM860 1337q-146 0 -260.5 -99.5t-178.5 -278t-64 -403.5q0 -220 86.5 -339.5t244.5 -119.5q148 0 230 72.5t123 239.5l133 -9l-46 -328q-225 -105 -464 -105q-274 0 -420 153.5t-146 443.5
q0 265 98 470.5t274.5 318.5t404.5 113q113 0 238.5 -24.5t191.5 -24.5q-14 -172 -51 -358l-139 -9q0 156 -58.5 221.5t-196.5 65.5z" />
    <glyph glyph-name="ccaron" unicode="&#x10d;" horiz-adv-x="956" 
d="M636 1201l-256 245q29 57 73 96l209 -146l242 146q38 -39 56 -100zM649 1076q171 0 289 -83q8 -21 8 -48q0 -58 -33 -92t-88 -34q-33 0 -56.5 14t-37 33.5t-26.5 39t-34.5 33.5t-52.5 14q-82 0 -151.5 -73t-110.5 -197.5t-41 -269.5q0 -140 52.5 -214t152.5 -74
q74 0 135.5 25.5t127.5 81.5l41 -115q-94 -75 -188 -108.5t-210 -33.5q-175 0 -267.5 108.5t-92.5 312.5q0 302 162 491t421 189z" />
    <glyph glyph-name="Dcaron" unicode="&#x10e;" horiz-adv-x="1445" 
d="M840 1543l-256 245q29 57 73 96l208 -146l243 146q38 -39 56 -100zM759 1443q302 0 460.5 -149.5t158.5 -432.5q0 -257 -102.5 -455t-290 -306.5t-430.5 -108.5q-73 0 -211.5 4.5t-226.5 4.5h-111l15 93l71 14q48 9 66.5 29.5t25.5 68.5l144 1023q3 20 3 34
q0 31 -19 44.5t-75 25.5l-40 8l6 94h117q88 0 227 4.5t212 4.5zM545 109q127 0 234 55.5t181.5 154t116.5 238.5t42 305q0 220 -100.5 341t-282.5 121q-92 0 -155 -11l-154 -1097q-3 -18 -3 -32q0 -42 27 -58.5t94 -16.5z" />
    <glyph glyph-name="dcaron" unicode="&#x10f;" horiz-adv-x="1206" 
d="M1268 1547q86 -3 163 -30q-37 -195 -115 -366q-73 5 -121 30q56 208 73 366zM1014 1518q67 0 87.5 -15.5t20.5 -66.5q0 -47 -15 -139l-170 -1074q-5 -33 -5 -51q0 -35 15.5 -48t53.5 -13q27 0 67 4l-6 -91q-113 -44 -195 -44q-79 0 -116 28t-37 89q0 98 87 379h-2
q-154 -501 -445 -501q-151 0 -222.5 88.5t-71.5 275.5q0 196 72 366.5t193.5 270.5t262.5 100q155 0 239 -110q9 119 37 291q8 48 8 68q0 24 -8 33.5t-27 9.5q-40 0 -88 -16v91q49 31 126 53t139 22zM408 126q42 0 98 47.5t111 128.5t102.5 205.5t68.5 262.5l11 70
q-26 48 -66 75t-86 27q-88 0 -166.5 -85t-125.5 -227.5t-47 -301.5q0 -105 24 -153.5t76 -48.5z" />
    <glyph glyph-name="Dcroat" unicode="&#x110;" horiz-adv-x="1445" 
d="M759 1443q302 0 460.5 -149.5t158.5 -432.5q0 -257 -102.5 -455t-290 -306.5t-430.5 -108.5q-73 0 -211.5 4.5t-226.5 4.5h-111l15 93l71 14q48 9 66.5 29.5t25.5 68.5l66 471h-136l17 119h136l61 433q3 20 3 34q0 31 -19 44.5t-75 25.5l-40 8l6 94h117q88 0 227 4.5
t212 4.5zM545 109q127 0 234 55.5t181.5 154t116.5 238.5t42 305q0 220 -100.5 341t-282.5 121q-92 0 -155 -11l-73 -518h259l-17 -119h-259l-64 -460q-3 -18 -3 -32q0 -42 27 -58.5t94 -16.5z" />
    <glyph glyph-name="dcroat" unicode="&#x111;" horiz-adv-x="1185" 
d="M1088 1180l-151 -957q-5 -33 -5 -51q0 -35 15.5 -48t53.5 -13q27 0 67 4l-6 -91q-113 -44 -195 -44q-79 0 -116 28t-37 89q0 98 87 379h-2q-154 -501 -445 -501q-151 0 -222.5 88.5t-71.5 275.5q0 196 72 366.5t193.5 270.5t262.5 100q155 0 239 -110q8 92 26 216h-252
l14 98h253l2 10q5 29 5 54q0 23 -7.5 32.5t-24.5 9.5q-36 0 -86 -16v73q50 31 123 53t134 22q67 0 87.5 -15.5t20.5 -66.5q0 -47 -15 -139l-2 -14h119l-14 -103h-122zM408 126q42 0 98 47.5t111 128.5t102.5 205.5t68.5 262.5l11 70q-26 48 -66 75t-86 27q-88 0 -166.5 -85
t-125.5 -227.5t-47 -301.5q0 -105 24 -153.5t76 -48.5z" />
    <glyph glyph-name="Emacron" unicode="&#x112;" horiz-adv-x="1236" 
d="M1045 1636h-539l19 135h540zM1182 1075l-146 -9q2 82 -3 127t-24 74t-50 37.5t-87 8.5h-291l-74 -524h237q50 0 72.5 22t45.5 93l14 42l124 4l-64 -455l-122 4l-1 79q0 47 -20.5 68.5t-65.5 21.5h-237l-63 -454q-2 -20 -2 -27q0 -39 28 -52.5t104 -13.5h184q45 0 74.5 6
t54 20.5t42 44t32 70.5t30.5 106l144 -9q-19 -193 -66 -359h-1046l15 93l71 14q48 9 66.5 29.5t25.5 68.5l144 1023q3 20 3 34q0 31 -19 44.5t-75 25.5l-40 8l6 94h1015q-1 -178 -36 -359z" />
    <glyph glyph-name="emacron" unicode="&#x113;" horiz-adv-x="1030" 
d="M903 1294h-539l19 135h540zM370 437q-32 0 -59 3q0 -4 -0.5 -13t-0.5 -14q0 -150 61 -220t171 -70q85 0 151 25t132 82l41 -113q-95 -75 -191 -108.5t-226 -33.5q-190 0 -286.5 107.5t-96.5 313.5q0 302 162 491t421 189q163 0 246 -62.5t83 -184.5q0 -186 -160 -289
t-448 -103zM613 953q-103 0 -184 -112.5t-108 -284.5q32 -2 45 -2q175 0 279 73t104 196q0 130 -136 130z" />
    <glyph glyph-name="Ebreve" unicode="&#x114;" horiz-adv-x="1236" 
d="M773 1565q-114 0 -181.5 60.5t-80.5 175.5q19 15 53.5 27t60.5 12q27 -138 166 -138q64 0 107 31.5t79 106.5q27 0 59 -12t47 -27q-48 -121 -124 -178.5t-186 -57.5zM1182 1075l-146 -9q2 82 -3 127t-24 74t-50 37.5t-87 8.5h-291l-74 -524h237q50 0 72.5 22t45.5 93
l14 42l124 4l-64 -455l-122 4l-1 79q0 47 -20.5 68.5t-65.5 21.5h-237l-63 -454q-2 -20 -2 -27q0 -39 28 -52.5t104 -13.5h184q45 0 74.5 6t54 20.5t42 44t32 70.5t30.5 106l144 -9q-19 -193 -66 -359h-1046l15 93l71 14q48 9 66.5 29.5t25.5 68.5l144 1023q3 20 3 34
q0 31 -19 44.5t-75 25.5l-40 8l6 94h1015q-1 -178 -36 -359z" />
    <glyph glyph-name="ebreve" unicode="&#x115;" horiz-adv-x="1030" 
d="M635 1223q-114 0 -181.5 60.5t-80.5 175.5q19 15 53.5 27t60.5 12q27 -138 166 -138q64 0 106.5 31.5t78.5 106.5q27 0 59.5 -12t47.5 -27q-48 -121 -124 -178.5t-186 -57.5zM370 437q-32 0 -59 3q0 -4 -0.5 -13t-0.5 -14q0 -150 61 -220t171 -70q85 0 151 25t132 82
l41 -113q-95 -75 -191 -108.5t-226 -33.5q-190 0 -286.5 107.5t-96.5 313.5q0 302 162 491t421 189q163 0 246 -62.5t83 -184.5q0 -186 -160 -289t-448 -103zM613 953q-103 0 -184 -112.5t-108 -284.5q32 -2 45 -2q175 0 279 73t104 196q0 130 -136 130z" />
    <glyph glyph-name="Edotaccent" unicode="&#x116;" horiz-adv-x="1236" 
d="M763 1578q-52 0 -85 33t-33 83q0 71 45.5 115.5t117.5 44.5q52 0 84.5 -32.5t32.5 -82.5q0 -71 -45 -116t-117 -45zM1182 1075l-146 -9q2 82 -3 127t-24 74t-50 37.5t-87 8.5h-291l-74 -524h237q50 0 72.5 22t45.5 93l14 42l124 4l-64 -455l-122 4l-1 79q0 47 -20.5 68.5
t-65.5 21.5h-237l-63 -454q-2 -20 -2 -27q0 -39 28 -52.5t104 -13.5h184q45 0 74.5 6t54 20.5t42 44t32 70.5t30.5 106l144 -9q-19 -193 -66 -359h-1046l15 93l71 14q48 9 66.5 29.5t25.5 68.5l144 1023q3 20 3 34q0 31 -19 44.5t-75 25.5l-40 8l6 94h1015q-1 -178 -36 -359
z" />
    <glyph glyph-name="edotaccent" unicode="&#x117;" horiz-adv-x="1030" 
d="M624 1237q-52 0 -84.5 32.5t-32.5 82.5q0 71 45 115.5t117 44.5q52 0 85 -32.5t33 -82.5q0 -71 -45.5 -115.5t-117.5 -44.5zM370 437q-32 0 -59 3q0 -4 -0.5 -13t-0.5 -14q0 -150 61 -220t171 -70q85 0 151 25t132 82l41 -113q-95 -75 -191 -108.5t-226 -33.5
q-190 0 -286.5 107.5t-96.5 313.5q0 302 162 491t421 189q163 0 246 -62.5t83 -184.5q0 -186 -160 -289t-448 -103zM613 953q-103 0 -184 -112.5t-108 -284.5q32 -2 45 -2q175 0 279 73t104 196q0 130 -136 130z" />
    <glyph glyph-name="Eogonek" unicode="&#x118;" horiz-adv-x="1236" 
d="M1182 1075l-146 -9q2 82 -3 127t-24 74t-50 37.5t-87 8.5h-291l-74 -524h237q50 0 72.5 22t45.5 93l14 42l124 4l-64 -455l-122 4l-1 79q0 47 -20.5 68.5t-65.5 21.5h-237l-63 -454q-2 -20 -2 -27q0 -39 28 -52.5t104 -13.5h184q45 0 74.5 6t54 20.5t42 44t32 70.5
t30.5 106l144 -9q-19 -193 -66 -359q-115 0 -199.5 -69t-84.5 -163q0 -46 23 -73t62 -27q59 0 111 50q22 -40 25 -87q-90 -78 -217 -78q-82 0 -132 48.5t-50 127.5q0 92 58 164.5t159 106.5h-801l15 93l71 14q48 9 66.5 29.5t25.5 68.5l144 1023q3 20 3 34q0 31 -19 44.5
t-75 25.5l-40 8l6 94h1015q-1 -178 -36 -359z" />
    <glyph glyph-name="eogonek" unicode="&#x119;" horiz-adv-x="1030" 
d="M370 437q-32 0 -59 3q0 -4 -0.5 -13t-0.5 -14q0 -150 61 -220t171 -70q85 0 151 25t132 82l43 -119q-295 -177 -295 -337q0 -51 22 -78.5t63 -27.5q59 0 111 50q22 -40 25 -87q-90 -78 -216 -78q-82 0 -132.5 48.5t-50.5 127.5q0 80 43.5 147.5t118.5 105.5
q-59 -7 -108 -7q-190 0 -286.5 107.5t-96.5 313.5q0 302 162 491t421 189q163 0 246 -62.5t83 -184.5q0 -186 -160 -289t-448 -103zM613 953q-103 0 -184 -112.5t-108 -284.5q32 -2 45 -2q175 0 279 73t104 196q0 130 -136 130z" />
    <glyph glyph-name="Ecaron" unicode="&#x11a;" horiz-adv-x="1236" 
d="M762 1543l-256 245q29 57 73 96l208 -146l242 146q39 -41 57 -100zM1182 1075l-146 -9q2 82 -3 127t-24 74t-50 37.5t-87 8.5h-291l-74 -524h237q50 0 72.5 22t45.5 93l14 42l124 4l-64 -455l-122 4l-1 79q0 47 -20.5 68.5t-65.5 21.5h-237l-63 -454q-2 -20 -2 -27
q0 -39 28 -52.5t104 -13.5h184q45 0 74.5 6t54 20.5t42 44t32 70.5t30.5 106l144 -9q-19 -193 -66 -359h-1046l15 93l71 14q48 9 66.5 29.5t25.5 68.5l144 1023q3 20 3 34q0 31 -19 44.5t-75 25.5l-40 8l6 94h1015q-1 -178 -36 -359z" />
    <glyph glyph-name="ecaron" unicode="&#x11b;" horiz-adv-x="1030" 
d="M624 1201l-257 245q29 57 73 96l209 -146l242 146q39 -41 57 -100zM370 437q-32 0 -59 3q0 -4 -0.5 -13t-0.5 -14q0 -150 61 -220t171 -70q85 0 151 25t132 82l41 -113q-95 -75 -191 -108.5t-226 -33.5q-190 0 -286.5 107.5t-96.5 313.5q0 302 162 491t421 189
q163 0 246 -62.5t83 -184.5q0 -186 -160 -289t-448 -103zM613 953q-103 0 -184 -112.5t-108 -284.5q32 -2 45 -2q175 0 279 73t104 196q0 130 -136 130z" />
    <glyph glyph-name="Gcircumflex" unicode="&#x11c;" horiz-adv-x="1425" 
d="M898 1699l-253 -147q-38 39 -56 100l334 241l266 -245q-29 -57 -73 -96zM1399 704l-14 -93l-66 -12q-47 -8 -66 -29.5t-26 -70.5l-63 -446q-244 -86 -500 -86q-274 0 -420 153.5t-146 443.5q0 265 98.5 470.5t278 318.5t413.5 113q121 0 256.5 -24.5t199.5 -24.5
q-14 -172 -51 -358l-139 -9q0 155 -66 221t-216 66q-151 0 -269 -100t-182 -277.5t-64 -403.5q0 -214 87 -333t245 -119q144 0 259 48l49 347q3 19 3 34q0 31 -19 44.5t-75 25.5l-40 8l6 93h527z" />
    <glyph glyph-name="gcircumflex" unicode="&#x11d;" horiz-adv-x="1079" 
d="M635 1357l-253 -147q-38 39 -56 100l334 241l267 -245q-29 -57 -73 -96zM1104 1059q7 -24 7 -50q0 -103 -108 -103q-65 0 -188 47q52 -31 83.5 -89.5t31.5 -126.5q0 -161 -129.5 -266.5t-327.5 -105.5q-90 0 -158 25q-54 -38 -54 -88q0 -41 33.5 -63t112.5 -33l191 -27
q177 -25 251.5 -79.5t74.5 -157.5q0 -177 -153.5 -285t-406.5 -108q-198 0 -309.5 67.5t-111.5 188.5q0 205 260 267q-126 49 -126 164q0 133 161 193q-126 85 -126 247q0 181 126.5 290.5t335.5 109.5q111 0 193 -42q156 1 337 25zM490 479q98 0 159.5 82.5t61.5 214.5
q0 88 -40 136.5t-114 48.5q-100 0 -161 -78.5t-61 -207.5q0 -88 42.5 -142t112.5 -54zM695 -126q0 51 -31.5 80.5t-111 49.5t-237.5 38q-163 -66 -163 -208q0 -81 64 -129.5t171 -48.5q135 0 221.5 61t86.5 157z" />
    <glyph glyph-name="Gbreve" unicode="&#x11e;" horiz-adv-x="1425" 
d="M885 1565q-114 0 -181.5 60.5t-80.5 175.5q19 15 53.5 27t60.5 12q27 -138 166 -138q64 0 107 31.5t79 106.5q27 0 59 -12t47 -27q-48 -121 -124 -178.5t-186 -57.5zM1399 704l-14 -93l-66 -12q-47 -8 -66 -29.5t-26 -70.5l-63 -446q-244 -86 -500 -86q-274 0 -420 153.5
t-146 443.5q0 265 98.5 470.5t278 318.5t413.5 113q121 0 256.5 -24.5t199.5 -24.5q-14 -172 -51 -358l-139 -9q0 155 -66 221t-216 66q-151 0 -269 -100t-182 -277.5t-64 -403.5q0 -214 87 -333t245 -119q144 0 259 48l49 347q3 19 3 34q0 31 -19 44.5t-75 25.5l-40 8l6 93
h527z" />
    <glyph glyph-name="gbreve" unicode="&#x11f;" horiz-adv-x="1079" 
d="M626 1223q-114 0 -181.5 60.5t-80.5 175.5q19 15 53.5 27t60.5 12q27 -138 166 -138q64 0 107 31.5t79 106.5q27 0 59 -12t47 -27q-48 -121 -124 -178.5t-186 -57.5zM1104 1059q7 -24 7 -50q0 -103 -108 -103q-65 0 -188 47q52 -31 83.5 -89.5t31.5 -126.5
q0 -161 -129.5 -266.5t-327.5 -105.5q-90 0 -158 25q-54 -38 -54 -88q0 -41 33.5 -63t112.5 -33l191 -27q177 -25 251.5 -79.5t74.5 -157.5q0 -177 -153.5 -285t-406.5 -108q-198 0 -309.5 67.5t-111.5 188.5q0 205 260 267q-126 49 -126 164q0 133 161 193
q-126 85 -126 247q0 181 126.5 290.5t335.5 109.5q111 0 193 -42q156 1 337 25zM490 479q98 0 159.5 82.5t61.5 214.5q0 88 -40 136.5t-114 48.5q-100 0 -161 -78.5t-61 -207.5q0 -88 42.5 -142t112.5 -54zM695 -126q0 51 -31.5 80.5t-111 49.5t-237.5 38
q-163 -66 -163 -208q0 -81 64 -129.5t171 -48.5q135 0 221.5 61t86.5 157z" />
    <glyph glyph-name="Gdotaccent" unicode="&#x120;" horiz-adv-x="1425" 
d="M875 1578q-52 0 -85 33t-33 83q0 71 45.5 115.5t117.5 44.5q52 0 84.5 -32.5t32.5 -82.5q0 -71 -45 -116t-117 -45zM1399 704l-14 -93l-66 -12q-47 -8 -66 -29.5t-26 -70.5l-63 -446q-244 -86 -500 -86q-274 0 -420 153.5t-146 443.5q0 265 98.5 470.5t278 318.5
t413.5 113q121 0 256.5 -24.5t199.5 -24.5q-14 -172 -51 -358l-139 -9q0 155 -66 221t-216 66q-151 0 -269 -100t-182 -277.5t-64 -403.5q0 -214 87 -333t245 -119q144 0 259 48l49 347q3 19 3 34q0 31 -19 44.5t-75 25.5l-40 8l6 93h527z" />
    <glyph glyph-name="gdotaccent" unicode="&#x121;" horiz-adv-x="1079" 
d="M615 1237q-52 0 -84.5 32.5t-32.5 82.5q0 71 45 115.5t117 44.5q52 0 85 -32.5t33 -82.5q0 -71 -45.5 -115.5t-117.5 -44.5zM1104 1059q7 -24 7 -50q0 -103 -108 -103q-65 0 -188 47q52 -31 83.5 -89.5t31.5 -126.5q0 -161 -129.5 -266.5t-327.5 -105.5q-90 0 -158 25
q-54 -38 -54 -88q0 -41 33.5 -63t112.5 -33l191 -27q177 -25 251.5 -79.5t74.5 -157.5q0 -177 -153.5 -285t-406.5 -108q-198 0 -309.5 67.5t-111.5 188.5q0 205 260 267q-126 49 -126 164q0 133 161 193q-126 85 -126 247q0 181 126.5 290.5t335.5 109.5q111 0 193 -42
q156 1 337 25zM490 479q98 0 159.5 82.5t61.5 214.5q0 88 -40 136.5t-114 48.5q-100 0 -161 -78.5t-61 -207.5q0 -88 42.5 -142t112.5 -54zM695 -126q0 51 -31.5 80.5t-111 49.5t-237.5 38q-163 -66 -163 -208q0 -81 64 -129.5t171 -48.5q135 0 221.5 61t86.5 157z" />
    <glyph glyph-name="Gcommaaccent" unicode="&#x122;" horiz-adv-x="1425" 
d="M1399 704l-14 -93l-66 -12q-47 -8 -66 -29.5t-26 -70.5l-63 -446q-244 -86 -500 -86q-274 0 -420 153.5t-146 443.5q0 265 98.5 470.5t278 318.5t413.5 113q121 0 256.5 -24.5t199.5 -24.5q-14 -172 -51 -358l-139 -9q0 155 -66 221t-216 66q-151 0 -269 -100
t-182 -277.5t-64 -403.5q0 -214 87 -333t245 -119q144 0 259 48l49 347q3 19 3 34q0 31 -19 44.5t-75 25.5l-40 8l6 93h527zM654 -83q47 0 73.5 -31.5t26.5 -89.5q0 -110 -66.5 -189t-182.5 -107q-23 18 -29 51q94 41 115 135q-32 10 -50.5 38.5t-18.5 67.5q0 56 36.5 90.5
t95.5 34.5z" />
    <glyph glyph-name="gcommaaccent" unicode="&#x123;" horiz-adv-x="1079" 
d="M616 1209q-47 0 -73.5 32t-26.5 90q0 110 66.5 189t182.5 107q23 -18 29 -52q-50 -22 -77 -53.5t-38 -80.5q32 -10 50.5 -38.5t18.5 -68.5q0 -56 -36.5 -90.5t-95.5 -34.5zM1104 1059q7 -24 7 -50q0 -103 -108 -103q-65 0 -188 47q52 -31 83.5 -89.5t31.5 -126.5
q0 -161 -129.5 -266.5t-327.5 -105.5q-90 0 -158 25q-54 -38 -54 -88q0 -41 33.5 -63t112.5 -33l191 -27q177 -25 251.5 -79.5t74.5 -157.5q0 -177 -153.5 -285t-406.5 -108q-198 0 -309.5 67.5t-111.5 188.5q0 205 260 267q-126 49 -126 164q0 133 161 193
q-126 85 -126 247q0 181 126.5 290.5t335.5 109.5q111 0 193 -42q156 1 337 25zM490 479q98 0 159.5 82.5t61.5 214.5q0 88 -40 136.5t-114 48.5q-100 0 -161 -78.5t-61 -207.5q0 -88 42.5 -142t112.5 -54zM695 -126q0 51 -31.5 80.5t-111 49.5t-237.5 38
q-163 -66 -163 -208q0 -81 64 -129.5t171 -48.5q135 0 221.5 61t86.5 157z" />
    <glyph glyph-name="Hcircumflex" unicode="&#x124;" horiz-adv-x="1513" 
d="M914 1699l-252 -147q-39 41 -57 100l334 241l267 -245q-29 -57 -73 -96zM1546 1434l-14 -94l-83 -11q-46 -7 -65.5 -29.5t-26.5 -71.5l-144 -1023q-3 -20 -3 -34q0 -31 18.5 -43.5t75.5 -23.5l54 -11l-14 -93h-548l15 93l71 14q46 9 64.5 29.5t25.5 68.5l65 465h-547
l-65 -465q-3 -19 -3 -34q0 -31 18.5 -44t73.5 -23l54 -11l-14 -93h-548l15 93l71 14q48 9 66.5 29.5t25.5 68.5l144 1023q3 20 3 34q0 31 -19 44.5t-75 25.5l-40 8l6 94h553l-14 -94l-81 -11q-45 -7 -65 -29.5t-27 -71.5l-61 -429h547l61 429q3 19 3 34q0 32 -19.5 46.5
t-74.5 24.5l-42 7l14 94h549z" />
    <glyph glyph-name="hcircumflex" unicode="&#x125;" horiz-adv-x="1183" 
d="M388 1699l-252 -147q-38 39 -56 100l334 241l266 -245q-29 -57 -73 -96zM1003 111q26 0 66 4l-6 -91q-113 -44 -204 -44t-130.5 30t-39.5 104q0 36 9 84l103 584q6 34 6 61q0 43 -17 62.5t-55 19.5q-43 0 -101 -47.5t-116 -128t-106.5 -205.5t-67.5 -262l-39 -282h-237
l177 1257q6 45 6 68q0 25 -7.5 34t-26.5 9q-40 0 -88 -16v91q49 31 125 53t137 22q66 0 85.5 -15.5t19.5 -66.5q0 -80 -52.5 -363t-110.5 -497h3q35 108 77.5 194.5t98 157t126.5 109.5t151 39q125 0 191 -54t66 -155q0 -29 -6 -64l-102 -580q-6 -31 -6 -52q0 -34 16.5 -47
t54.5 -13z" />
    <glyph glyph-name="Hbar" unicode="&#x126;" horiz-adv-x="1513" 
d="M1532 1340l-83 -11q-46 -7 -65.5 -29.5t-26.5 -71.5l-14 -100h145l-16 -114h-145l-114 -809q-3 -20 -3 -34q0 -31 18.5 -43.5t75.5 -23.5l54 -11l-14 -93h-548l15 93l71 14q46 9 64.5 29.5t25.5 68.5l64 457h-547l-64 -457q-3 -19 -3 -34q0 -31 18.5 -44t73.5 -23l54 -11
l-14 -93h-548l15 93l71 14q48 9 66.5 29.5t25.5 68.5l114 809h-147l16 114h147l14 100q3 20 3 34q0 31 -19 44.5t-75 25.5l-40 8l6 94h553l-14 -94l-81 -11q-45 -7 -65 -29.5t-27 -71.5l-14 -100h547l14 100q3 19 3 34q0 32 -19.5 46.5t-74.5 24.5l-42 7l14 94h549z
M1086 1014h-547l-32 -224h547z" />
    <glyph glyph-name="hbar" unicode="&#x127;" horiz-adv-x="1183" 
d="M1003 111q26 0 66 4l-6 -91q-113 -44 -204 -44t-130.5 30t-39.5 104q0 36 9 84l103 584q6 34 6 61q0 43 -17 62.5t-55 19.5q-43 0 -101 -47.5t-116 -128t-106.5 -205.5t-67.5 -262l-39 -282h-236l165 1180h-120l14 100h121l1 10q5 37 5 54q0 24 -7 33t-24 9
q-36 0 -86 -16v73q50 32 121 53.5t132 21.5q66 0 85.5 -15.5t19.5 -66.5q0 -50 -16 -153h248l-13 -101h-252q-61 -352 -130 -606h3q35 108 77.5 194.5t98 157t126.5 109.5t151 39q125 0 191 -54t66 -155q0 -29 -6 -64l-102 -580q-6 -31 -6 -52q0 -34 16.5 -47t54.5 -13z" />
    <glyph glyph-name="Itilde" unicode="&#x128;" horiz-adv-x="727" 
d="M658 1748q85 0 146 70l21 -95q-30 -52 -88 -86.5t-116 -34.5q-65 0 -135 31t-111 31q-85 0 -146 -70l-21 95q30 52 88 86t116 34q64 0 134.5 -30.5t111.5 -30.5zM744 1340l-83 -11q-46 -7 -65.5 -29.5t-26.5 -71.5l-144 -1023q-3 -19 -3 -34q0 -31 18.5 -43.5t75.5 -23.5
l54 -11l-14 -93h-550l15 93l71 14q48 9 66.5 29.5t25.5 68.5l144 1023q3 20 3 34q0 31 -19 44.5t-75 25.5l-40 8l6 94h555z" />
    <glyph glyph-name="itilde" unicode="&#x129;" horiz-adv-x="618" 
d="M534 1406q85 0 146 70l21 -95q-30 -52 -88 -86t-116 -34q-65 0 -135.5 30.5t-110.5 30.5q-85 0 -146 -70l-21 95q30 52 88.5 86.5t116.5 34.5q65 0 135 -31t110 -31zM380 1076q67 0 87 -15.5t20 -66.5q0 -62 -14 -139l-112 -632q-5 -26 -5 -52q0 -34 16 -47t54 -13
q27 0 67 4l-6 -91q-113 -44 -204 -44t-130.5 30t-39.5 104q0 41 8 84l109 617q8 48 8 68q0 24 -8.5 33.5t-27.5 9.5q-39 0 -87 -16v91q49 31 126 53t139 22z" />
    <glyph glyph-name="Imacron" unicode="&#x12a;" horiz-adv-x="727" 
d="M780 1636h-540l20 135h539zM744 1340l-83 -11q-46 -7 -65.5 -29.5t-26.5 -71.5l-144 -1023q-3 -19 -3 -34q0 -31 18.5 -43.5t75.5 -23.5l54 -11l-14 -93h-550l15 93l71 14q48 9 66.5 29.5t25.5 68.5l144 1023q3 20 3 34q0 31 -19 44.5t-75 25.5l-40 8l6 94h555z" />
    <glyph glyph-name="imacron" unicode="&#x12b;" horiz-adv-x="618" 
d="M651 1294h-540l19 135h540zM380 1076q67 0 87 -15.5t20 -66.5q0 -62 -14 -139l-112 -632q-5 -26 -5 -52q0 -34 16 -47t54 -13q27 0 67 4l-6 -91q-113 -44 -204 -44t-130.5 30t-39.5 104q0 41 8 84l109 617q8 48 8 68q0 24 -8.5 33.5t-27.5 9.5q-39 0 -87 -16v91
q49 31 126 53t139 22z" />
    <glyph glyph-name="Ibreve" unicode="&#x12c;" horiz-adv-x="727" 
d="M357 1840q27 -138 165 -138q64 0 107 31.5t79 106.5q27 0 59.5 -12t47.5 -27q-48 -121 -124.5 -178.5t-186.5 -57.5q-114 0 -181 60.5t-80 175.5q19 15 53.5 27t60.5 12zM744 1340l-83 -11q-46 -7 -65.5 -29.5t-26.5 -71.5l-144 -1023q-3 -19 -3 -34q0 -31 18.5 -43.5
t75.5 -23.5l54 -11l-14 -93h-550l15 93l71 14q48 9 66.5 29.5t25.5 68.5l144 1023q3 20 3 34q0 31 -19 44.5t-75 25.5l-40 8l6 94h555z" />
    <glyph glyph-name="ibreve" unicode="&#x12d;" horiz-adv-x="618" 
d="M234 1498q27 -138 166 -138q64 0 107 31.5t79 106.5q27 0 59 -12t47 -27q-48 -121 -124 -178.5t-186 -57.5q-114 0 -181 60.5t-80 175.5q19 15 53 27t60 12zM380 1076q67 0 87 -15.5t20 -66.5q0 -62 -14 -139l-112 -632q-5 -26 -5 -52q0 -34 16 -47t54 -13q27 0 67 4
l-6 -91q-113 -44 -204 -44t-130.5 30t-39.5 104q0 41 8 84l109 617q8 48 8 68q0 24 -8.5 33.5t-27.5 9.5q-39 0 -87 -16v91q49 31 126 53t139 22z" />
    <glyph glyph-name="Iogonek" unicode="&#x12e;" horiz-adv-x="727" 
d="M758 1434l-14 -94l-83 -11q-46 -7 -65.5 -29.5t-26.5 -71.5l-144 -1023q-3 -19 -3 -34q0 -31 18.5 -43.5t75.5 -23.5l54 -11l-14 -93q-115 0 -200 -69t-85 -163q0 -46 23.5 -73t62.5 -27q59 0 111 50q22 -40 25 -87q-90 -78 -217 -78q-82 0 -132 48.5t-50 127.5
q0 92 58 164.5t159 106.5h-305l15 93l71 14q48 9 66.5 29.5t25.5 68.5l144 1023q3 20 3 34q0 31 -19 44.5t-75 25.5l-40 8l6 94h555z" />
    <glyph glyph-name="iogonek" unicode="&#x12f;" horiz-adv-x="618" 
d="M372 1234q-53 0 -86.5 33t-33.5 85q0 73 45.5 118t118.5 45q53 0 86.5 -33t33.5 -85q0 -73 -45.5 -118t-118.5 -45zM356 171q0 -34 16 -47t54 -13q27 0 67 4l-6 -97q-127 -35 -201.5 -102t-74.5 -148q0 -46 23 -73t62 -27q59 0 111 50q22 -40 25 -87q-90 -78 -217 -78
q-82 0 -132 48.5t-50 127.5q0 82 49.5 149.5t137.5 105.5q-56 9 -81.5 39.5t-25.5 90.5q0 41 8 84l109 617q8 48 8 68q0 24 -8.5 33.5t-27.5 9.5q-39 0 -87 -16v91q49 31 126 53t139 22q67 0 87 -15.5t20 -66.5q0 -62 -14 -139l-112 -632q-5 -26 -5 -52z" />
    <glyph glyph-name="Idotaccent" unicode="&#x130;" horiz-adv-x="727" 
d="M377 1694q0 71 45 115.5t117 44.5q52 0 85 -32.5t33 -82.5q0 -71 -45.5 -116t-117.5 -45q-52 0 -84.5 33t-32.5 83zM744 1340l-83 -11q-46 -7 -65.5 -29.5t-26.5 -71.5l-144 -1023q-3 -19 -3 -34q0 -31 18.5 -43.5t75.5 -23.5l54 -11l-14 -93h-550l15 93l71 14
q48 9 66.5 29.5t25.5 68.5l144 1023q3 20 3 34q0 31 -19 44.5t-75 25.5l-40 8l6 94h555z" />
    <glyph glyph-name="dotlessi" unicode="&#x131;" horiz-adv-x="618" 
d="M380 1076q67 0 87 -15.5t20 -66.5q0 -62 -14 -139l-112 -632q-5 -26 -5 -52q0 -34 16 -47t54 -13q27 0 67 4l-6 -91q-113 -44 -204 -44t-130.5 30t-39.5 104q0 41 8 84l109 617q8 48 8 68q0 24 -8.5 33.5t-27.5 9.5q-39 0 -87 -16v91q49 31 126 53t139 22z" />
    <glyph glyph-name="IJ" unicode="&#x132;" horiz-adv-x="1421" 
d="M744 1340l-83 -11q-46 -7 -65.5 -29.5t-26.5 -71.5l-144 -1023q-3 -19 -3 -34q0 -31 18.5 -43.5t75.5 -23.5l54 -11l-14 -93h-550l15 93l71 14q48 9 66.5 29.5t25.5 68.5l144 1023q3 20 3 34q0 31 -19 44.5t-75 25.5l-40 8l6 94h555zM612 -406q-29 34 -29 87q0 77 79 103
q18 6 64.5 14t68.5 22q23 15 36.5 49t27.5 112.5t40 260.5l140 986q3 19 3 35q0 31 -19 44.5t-73 24.5l-40 8l6 94h556l-15 -94l-83 -11q-46 -7 -65.5 -29.5t-26.5 -71.5l-126 -898q-34 -246 -78.5 -368.5t-129.5 -210.5q-54 -56 -144.5 -98t-191.5 -59z" />
    <glyph glyph-name="ij" unicode="&#x133;" horiz-adv-x="1200" 
d="M252 1352q0 73 45.5 118t118.5 45q53 0 86.5 -33t33.5 -85q0 -73 -45.5 -118t-118.5 -45q-53 0 -86.5 33t-33.5 85zM863 1352q0 73 45.5 118t119.5 45q53 0 86 -33t33 -85q0 -73 -45.5 -118t-118.5 -45q-53 0 -86.5 33t-33.5 85zM380 1076q67 0 87 -15.5t20 -66.5
q0 -62 -14 -139l-112 -632q-5 -26 -5 -52q0 -34 16 -47t54 -13q27 0 67 4l-6 -91q-113 -44 -204 -44t-130.5 30t-39.5 104q0 41 8 84l109 617q8 48 8 68q0 24 -8.5 33.5t-27.5 9.5q-39 0 -87 -16v91q49 31 126 53t139 22zM726 910v91q49 31 126 53t139 22q67 0 87 -15.5
t20 -66.5q0 -43 -14 -139l-78 -550q-35 -252 -79 -382.5t-127 -216.5q-54 -56 -143.5 -98.5t-190.5 -58.5q-29 34 -29 87q0 73 79 99q18 6 64 13.5t68 21.5q23 15 36.5 50.5t28 115.5t39.5 261l87 618q7 52 7 69q0 24 -7 33t-25 9q-40 0 -88 -16z" />
    <glyph glyph-name="Jcircumflex" unicode="&#x134;" horiz-adv-x="696" 
d="M504 1699l-253 -147q-38 39 -56 100l334 241l267 -245q-29 -57 -73 -96zM190 1434h556l-15 -94l-83 -11q-46 -7 -65.5 -29.5t-26.5 -71.5l-126 -898q-34 -246 -78.5 -368.5t-129.5 -210.5q-54 -56 -144.5 -98t-191.5 -59q-29 34 -29 87q0 77 79 103q18 6 64.5 14t68.5 22
q23 15 36.5 49t27.5 112.5t40 260.5l140 986q3 20 3 35q0 31 -19 44.5t-73 24.5l-40 8z" />
    <glyph glyph-name="jcircumflex" unicode="&#x135;" horiz-adv-x="581" 
d="M410 1551l266 -245q-29 -57 -73 -96l-219 147l-252 -147q-38 39 -56 100zM374 1076q67 0 87 -15.5t20 -66.5q0 -36 -15 -139l-77 -550q-35 -252 -79.5 -382.5t-127.5 -216.5q-54 -56 -143.5 -98.5t-190.5 -58.5q-29 34 -29 87q0 73 79 99q18 6 64 13.5t68 21.5
q33 22 51 96t54 331l86 618q7 53 7 69q0 24 -7 33t-25 9q-40 0 -88 -16v91q49 31 126.5 53t139.5 22z" />
    <glyph glyph-name="Kcommaaccent" unicode="&#x136;" horiz-adv-x="1294" 
d="M551 0h-545l15 93l71 14q48 9 66.5 29.5t25.5 68.5l144 1023q3 20 3 34q0 31 -19 44.5t-75 25.5l-40 8l6 94h555l-14 -94l-83 -11q-46 -7 -65.5 -29.5t-26.5 -71.5l-144 -1023q-3 -19 -3 -34q0 -31 18.5 -44t71.5 -23l54 -11zM1385 1434l-14 -94q-77 -20 -124 -53.5
t-167 -153.5l-336 -338q41 -58 74 -120l230 -439q66 -127 167 -144l-14 -88q-56 -17 -123 -17q-106 0 -167 47t-129 181l-130 257q-72 143 -149 256l430 449q79 83 79 118q0 32 -60 41l-29 4l6 94h456zM651 -83q47 0 74 -32t27 -89q0 -110 -66.5 -189t-182.5 -107
q-23 18 -29 51q94 41 115 135q-32 10 -51 38.5t-19 67.5q0 56 36.5 90.5t95.5 34.5z" />
    <glyph glyph-name="kcommaaccent" unicode="&#x137;" horiz-adv-x="1067" 
d="M502 1436q0 -36 -15 -139l-182 -1297h-237l177 1257q6 45 6 68q0 25 -7.5 34t-26.5 9q-40 0 -88 -16v91q49 31 126.5 53t139.5 22q67 0 87 -15.5t20 -66.5zM857 890q-33 0 -81 -46t-174 -200q35 -60 109 -205l111 -220q29 -59 55.5 -83.5t60.5 -24.5q22 0 42 4l-6 -91
q-77 -44 -165 -44q-83 0 -129 44.5t-117 195.5l-93 194q-38 78 -82 153l271 339q79 99 134 134.5t130 35.5q69 0 122 -23q15 -37 15 -73q0 -55 -29 -88t-76 -33q-26 0 -52 15.5t-46 15.5zM486 -83q47 0 74 -32t27 -89q0 -110 -66.5 -189t-182.5 -107q-23 18 -29 51
q94 41 115 135q-32 10 -50.5 38.5t-18.5 67.5q0 56 36 90.5t95 34.5z" />
    <glyph glyph-name="Lacute" unicode="&#x139;" horiz-adv-x="1181" 
d="M347 1642l377 253q63 -74 89 -157l-408 -202q-33 37 -58 106zM744 1340l-83 -11q-46 -7 -65.5 -29.5t-26.5 -71.5l-142 -1014q-2 -20 -2 -27q0 -39 28 -52.5t104 -13.5h159q54 0 89.5 14.5t62.5 52.5t45 89.5t39 140.5l148 -9q-25 -242 -73 -409h-1021l15 93l71 14
q48 9 66.5 29.5t25.5 68.5l144 1023q3 20 3 34q0 31 -19 44.5t-75 25.5l-40 8l6 94h555z" />
    <glyph glyph-name="lacute" unicode="&#x13a;" horiz-adv-x="585" 
d="M186 1706l414 189q51 -85 64 -170l-437 -133q-28 46 -41 114zM412 1518q67 0 87.5 -15.5t20.5 -66.5q0 -47 -15 -139l-170 -1074q-5 -33 -5 -51q0 -35 15.5 -48t53.5 -13q27 0 67 4l-6 -91q-113 -44 -204 -44t-130 30.5t-39 105.5q0 32 8 82l167 1059q8 48 8 68
q0 24 -8 33.5t-27 9.5q-40 0 -88 -16v91q49 31 126 53t139 22z" />
    <glyph glyph-name="Lcommaaccent" unicode="&#x13b;" horiz-adv-x="1181" 
d="M952 418l148 -9q-25 -242 -73 -409h-1021l15 93l71 14q48 9 66.5 29.5t25.5 68.5l144 1023q3 20 3 34q0 31 -19 44.5t-75 25.5l-40 8l6 94h555l-14 -94l-83 -11q-46 -7 -65.5 -29.5t-26.5 -71.5l-142 -1014q-2 -20 -2 -27q0 -39 28 -52.5t104 -13.5h159q54 0 89.5 14.5
t62.5 52.5t45 89.5t39 140.5zM539 -83q47 0 74 -32t27 -89q0 -110 -66.5 -189t-182.5 -107q-23 18 -29 51q94 41 115 135q-32 10 -50.5 38.5t-18.5 67.5q0 56 36 90.5t95 34.5z" />
    <glyph glyph-name="lcommaaccent" unicode="&#x13c;" horiz-adv-x="585" 
d="M505 1297l-170 -1074q-5 -33 -5 -51q0 -35 15.5 -48t53.5 -13q27 0 67 4l-6 -91q-113 -44 -204 -44t-130 30.5t-39 105.5q0 32 8 82l167 1059q8 48 8 68q0 24 -8 33.5t-27 9.5q-40 0 -88 -16v91q49 31 126 53t139 22q67 0 87.5 -15.5t20.5 -66.5q0 -47 -15 -139zM221 -83
q47 0 73.5 -31.5t26.5 -89.5q0 -110 -66 -189t-182 -107q-24 19 -30 51q50 22 77.5 54t38.5 81q-32 10 -51 38.5t-19 67.5q0 56 36.5 90.5t95.5 34.5z" />
    <glyph glyph-name="Lcaron" unicode="&#x13d;" horiz-adv-x="1181" 
d="M885 1547q86 -3 163 -30q-36 -192 -116 -366q-72 5 -120 30q56 208 73 366zM744 1340l-83 -11q-46 -7 -65.5 -29.5t-26.5 -71.5l-142 -1014q-2 -20 -2 -27q0 -39 28 -52.5t104 -13.5h159q54 0 89.5 14.5t62.5 52.5t45 89.5t39 140.5l148 -9q-25 -242 -73 -409h-1021
l15 93l71 14q48 9 66.5 29.5t25.5 68.5l144 1023q3 20 3 34q0 31 -19 44.5t-75 25.5l-40 8l6 94h555z" />
    <glyph glyph-name="lcaron" unicode="&#x13e;" horiz-adv-x="606" 
d="M666 1547q86 -3 163 -30q-37 -195 -115 -366q-73 5 -121 30q56 208 73 366zM412 1518q67 0 87.5 -15.5t20.5 -66.5q0 -47 -15 -139l-170 -1074q-5 -33 -5 -51q0 -35 15.5 -48t53.5 -13q27 0 67 4l-6 -91q-113 -44 -204 -44t-130 30.5t-39 105.5q0 32 8 82l167 1059
q8 48 8 68q0 24 -8 33.5t-27 9.5q-40 0 -88 -16v91q49 31 126 53t139 22z" />
    <glyph glyph-name="Ldot" unicode="&#x13f;" horiz-adv-x="1216" 
d="M744 1340l-83 -11q-46 -7 -65.5 -29.5t-26.5 -71.5l-142 -1014q-2 -20 -2 -27q0 -39 28 -52.5t104 -13.5h159q54 0 89.5 14.5t62.5 52.5t45 89.5t39 140.5l148 -9q-25 -242 -73 -409h-1021l15 93l71 14q48 9 66.5 29.5t25.5 68.5l144 1023q3 20 3 34q0 31 -19 44.5
t-75 25.5l-40 8l6 94h555zM838 786q0 71 45 116t117 45q52 0 84.5 -32.5t32.5 -83.5q0 -71 -45 -115.5t-117 -44.5q-52 0 -84.5 32.5t-32.5 82.5z" />
    <glyph glyph-name="ldot" unicode="&#x140;" horiz-adv-x="788" 
d="M412 1518q67 0 87.5 -15.5t20.5 -66.5q0 -47 -15 -139l-170 -1074q-5 -33 -5 -51q0 -35 15.5 -48t53.5 -13q27 0 67 4l-6 -91q-113 -44 -204 -44t-130 30.5t-39 105.5q0 32 8 82l167 1059q8 48 8 68q0 24 -8 33.5t-27 9.5q-40 0 -88 -16v91q49 31 126 53t139 22zM545 680
q0 71 45.5 115.5t117.5 44.5q52 0 84.5 -32.5t32.5 -82.5q0 -71 -45 -116t-117 -45q-52 0 -85 33t-33 83z" />
    <glyph glyph-name="Lslash" unicode="&#x141;" horiz-adv-x="1181" 
d="M952 418l148 -9q-25 -242 -73 -409h-1021l15 93l71 14q48 9 66.5 29.5t25.5 68.5l25 183q9 69 24 131l-151 -63l19 137l146 60l81 575q3 20 3 34q0 31 -19 44.5t-75 25.5l-40 8l6 94h555l-14 -94l-83 -11q-46 -7 -65.5 -29.5t-26.5 -71.5l-49 -351q-10 -71 -24 -132
l436 184l-19 -136l-431 -182l-55 -397q-2 -20 -2 -27q0 -39 28 -52.5t104 -13.5h159q54 0 89.5 14.5t62.5 52.5t45 89.5t39 140.5z" />
    <glyph glyph-name="lslash" unicode="&#x142;" horiz-adv-x="610" 
d="M437 727l-79 -504q-5 -33 -5 -51q0 -35 15.5 -48t53.5 -13q27 0 67 4l-6 -91q-113 -44 -204 -44t-130 30.5t-39 105.5q0 32 8 82l49 309q14 90 25 130l-143 -60l21 129l137 58l78 493q8 48 8 68q0 24 -8 33.5t-27 9.5q-40 0 -88 -16v91q49 31 126 53t139 22
q67 0 87.5 -15.5t20.5 -66.5q0 -47 -15 -139l-50 -313q-13 -80 -26 -131l163 68l-20 -128z" />
    <glyph glyph-name="Nacute" unicode="&#x143;" horiz-adv-x="1495" 
d="M1201 1738l-408 -202q-35 39 -59 106l378 253q63 -74 89 -157zM1545 1434l-15 -94l-83 -11q-46 -7 -65.5 -29.5t-26.5 -71.5l-173 -1228h-226l-373 863q-68 156 -113 342q-7 -152 -26 -285l-101 -715q-3 -19 -3 -34q0 -31 18.5 -43.5t75.5 -23.5l54 -11l-14 -93h-468
l15 93l71 14q48 9 66.5 29.5t25.5 68.5l144 1023q3 20 3 34q0 31 -19 44.5t-75 25.5l-40 8l6 94h390l372 -863q65 -152 105 -309q7 128 25 251l101 715q3 19 3 34q0 31 -19 44.5t-75 25.5l-40 8l6 94h474z" />
    <glyph glyph-name="nacute" unicode="&#x144;" horiz-adv-x="1214" 
d="M1018 1396l-408 -201q-36 40 -59 105l378 253q63 -74 89 -157zM1033 111q27 0 67 4l-6 -91q-113 -44 -204 -44t-130.5 30t-39.5 104q0 41 8 84l103 584q7 42 7 63q0 80 -64 80q-43 0 -101.5 -47.5t-117.5 -128t-109.5 -205.5t-71.5 -262l-43 -282h-236l128 815q7 42 7 68
q0 25 -8 34t-27 9q-40 0 -88 -16v91q49 31 124.5 53t133.5 22q48 0 68.5 -17.5t20.5 -61.5q0 -48 -26.5 -172t-62.5 -249h2q35 108 79 194.5t101 157t129 109.5t153 39q120 0 183.5 -53.5t63.5 -154.5q0 -30 -6 -65l-102 -580q-5 -26 -5 -52q0 -34 16 -47t54 -13z" />
    <glyph glyph-name="Ncommaaccent" unicode="&#x145;" horiz-adv-x="1495" 
d="M1545 1434l-15 -94l-83 -11q-46 -7 -65.5 -29.5t-26.5 -71.5l-173 -1228h-226l-373 863q-68 156 -113 342q-7 -152 -26 -285l-101 -715q-3 -19 -3 -34q0 -31 18.5 -43.5t75.5 -23.5l54 -11l-14 -93h-468l15 93l71 14q48 9 66.5 29.5t25.5 68.5l144 1023q3 20 3 34
q0 31 -19 44.5t-75 25.5l-40 8l6 94h390l372 -863q65 -152 105 -309q7 128 25 251l101 715q3 19 3 34q0 31 -19 44.5t-75 25.5l-40 8l6 94h474zM646 -83q47 0 74 -32t27 -89q0 -110 -66.5 -189t-182.5 -107q-24 19 -30 51q50 22 77.5 54t38.5 81q-32 10 -51 38.5t-19 67.5
q0 56 36.5 90.5t95.5 34.5z" />
    <glyph glyph-name="ncommaaccent" unicode="&#x146;" horiz-adv-x="1214" 
d="M1033 111q27 0 67 4l-6 -91q-113 -44 -204 -44t-130.5 30t-39.5 104q0 41 8 84l103 584q7 42 7 63q0 80 -64 80q-43 0 -101.5 -47.5t-117.5 -128t-109.5 -205.5t-71.5 -262l-43 -282h-236l128 815q7 42 7 68q0 25 -8 34t-27 9q-40 0 -88 -16v91q49 31 124.5 53t133.5 22
q48 0 68.5 -17.5t20.5 -61.5q0 -48 -26.5 -172t-62.5 -249h2q35 108 79 194.5t101 157t129 109.5t153 39q120 0 183.5 -53.5t63.5 -154.5q0 -30 -6 -65l-102 -580q-5 -26 -5 -52q0 -34 16 -47t54 -13zM528 -83q47 0 74 -32t27 -89q0 -110 -66.5 -189t-182.5 -107
q-23 18 -29 51q94 41 115 135q-32 10 -50.5 38.5t-18.5 67.5q0 56 36 90.5t95 34.5z" />
    <glyph glyph-name="Ncaron" unicode="&#x147;" horiz-adv-x="1495" 
d="M886 1543l-256 245q29 57 73 96l209 -146l242 146q38 -39 56 -100zM1545 1434l-15 -94l-83 -11q-46 -7 -65.5 -29.5t-26.5 -71.5l-173 -1228h-226l-373 863q-68 156 -113 342q-7 -152 -26 -285l-101 -715q-3 -19 -3 -34q0 -31 18.5 -43.5t75.5 -23.5l54 -11l-14 -93h-468
l15 93l71 14q48 9 66.5 29.5t25.5 68.5l144 1023q3 20 3 34q0 31 -19 44.5t-75 25.5l-40 8l6 94h390l372 -863q65 -152 105 -309q7 128 25 251l101 715q3 19 3 34q0 31 -19 44.5t-75 25.5l-40 8l6 94h474z" />
    <glyph glyph-name="ncaron" unicode="&#x148;" horiz-adv-x="1214" 
d="M711 1201l-256 245q29 57 73 96l209 -146l242 146q38 -39 56 -100zM1033 111q27 0 67 4l-6 -91q-113 -44 -204 -44t-130.5 30t-39.5 104q0 41 8 84l103 584q7 42 7 63q0 80 -64 80q-43 0 -101.5 -47.5t-117.5 -128t-109.5 -205.5t-71.5 -262l-43 -282h-236l128 815
q7 42 7 68q0 25 -8 34t-27 9q-40 0 -88 -16v91q49 31 124.5 53t133.5 22q48 0 68.5 -17.5t20.5 -61.5q0 -48 -26.5 -172t-62.5 -249h2q35 108 79 194.5t101 157t129 109.5t153 39q120 0 183.5 -53.5t63.5 -154.5q0 -30 -6 -65l-102 -580q-5 -26 -5 -52q0 -34 16 -47t54 -13z
" />
    <glyph glyph-name="napostrophe" unicode="&#x149;" horiz-adv-x="1214" 
d="M314 1461q0 -110 -66 -189t-182 -107q-24 19 -30 51q94 41 115 135q-32 10 -50.5 38.5t-18.5 67.5q0 56 36.5 90.5t95.5 34.5q47 0 73.5 -31.5t26.5 -89.5zM1033 111q27 0 67 4l-6 -91q-113 -44 -204 -44t-130.5 30t-39.5 104q0 41 8 84l103 584q7 42 7 63q0 80 -64 80
q-43 0 -101.5 -47.5t-117.5 -128t-109.5 -205.5t-71.5 -262l-43 -282h-236l128 815q7 42 7 68q0 25 -8 34t-27 9q-40 0 -88 -16v91q49 31 124.5 53t133.5 22q48 0 68 -17.5t20 -61.5q0 -48 -26 -173t-62 -248h2q35 108 79 194.5t100.5 157t128.5 109.5t153 39
q120 0 184 -53.5t64 -154.5q0 -30 -6 -65l-102 -580q-5 -26 -5 -52q0 -34 16 -47t54 -13z" />
    <glyph glyph-name="Eng" unicode="&#x14a;" horiz-adv-x="1495" 
d="M1545 1434l-15 -94l-83 -11q-46 -7 -65.5 -29.5t-26.5 -71.5l-127 -898q-34 -246 -78 -368.5t-129 -210.5q-54 -56 -141 -97.5t-183 -58.5q-28 33 -28 86q0 76 77 103q18 6 63.5 14t69.5 22q36 21 59 56.5t41 102.5q-28 44 -89 184l-305 694q-70 159 -115 347
q-8 -153 -26 -284l-101 -715q-3 -19 -3 -34q0 -31 18.5 -43.5t75.5 -23.5l54 -11l-14 -93h-468l15 93l71 14q48 9 66.5 29.5t25.5 68.5l144 1023q3 20 3 34q0 31 -19 44.5t-75 25.5l-40 8l6 94h390l372 -863q65 -152 105 -309q7 128 25 251l101 715q3 19 3 34q0 31 -19 44.5
t-75 25.5l-40 8l6 94h474z" />
    <glyph glyph-name="eng" unicode="&#x14b;" horiz-adv-x="1179" 
d="M829 1076q120 0 183 -54.5t63 -157.5q0 -24 -5 -61l-79 -498q-40 -253 -85 -383t-128 -216q-54 -56 -143.5 -98.5t-190.5 -58.5q-29 34 -29 87q0 73 79 99q18 6 64 13.5t68 21.5q32 22 50.5 94.5t60.5 332.5l94 585q6 36 6 62q0 81 -63 81q-43 0 -101.5 -47.5
t-117.5 -128t-109.5 -205.5t-71.5 -262l-43 -282h-236l128 815q7 42 7 68q0 25 -8 34t-27 9q-40 0 -88 -16v91q49 31 124.5 53t133.5 22q48 0 68.5 -17.5t20.5 -61.5q0 -48 -26.5 -172t-62.5 -249h2q35 108 79 194.5t101 157t129 109.5t153 39z" />
    <glyph glyph-name="Omacron" unicode="&#x14c;" horiz-adv-x="1509" 
d="M1169 1636h-540l19 135h540zM874 1466q270 0 418.5 -158t148.5 -445q0 -265 -97 -468.5t-274 -315.5t-407 -112q-262 0 -413 165.5t-151 453.5q0 260 96.5 460t273 310t405.5 110zM854 1337q-143 0 -256.5 -98.5t-176.5 -274.5t-63 -397q0 -219 86.5 -344.5t237.5 -125.5
q140 0 255 102.5t180 282.5t65 400q0 217 -86 336t-242 119z" />
    <glyph glyph-name="omacron" unicode="&#x14d;" horiz-adv-x="1142" 
d="M942 1294h-540l19 135h540zM66 398q0 197 73 351.5t205 240.5t302 86q201 0 304.5 -105t103.5 -309q0 -305 -162 -496t-421 -191q-194 0 -299.5 110t-105.5 313zM627 953q-90 0 -162 -75.5t-112.5 -209t-40.5 -298.5q0 -128 47.5 -200t131.5 -72q89 0 161.5 78.5t114 214
t41.5 298.5q0 129 -46.5 196.5t-134.5 67.5z" />
    <glyph glyph-name="Obreve" unicode="&#x14e;" horiz-adv-x="1509" 
d="M748 1840q27 -138 166 -138q64 0 107 31.5t79 106.5q27 0 59 -12t47 -27q-48 -121 -124 -178.5t-186 -57.5q-114 0 -181 60.5t-80 175.5q19 15 53 27t60 12zM874 1466q270 0 418.5 -158t148.5 -445q0 -265 -97 -468.5t-274 -315.5t-407 -112q-262 0 -413 165.5
t-151 453.5q0 260 96.5 460t273 310t405.5 110zM854 1337q-143 0 -256.5 -98.5t-176.5 -274.5t-63 -397q0 -219 86.5 -344.5t237.5 -125.5q140 0 255 102.5t180 282.5t65 400q0 217 -86 336t-242 119z" />
    <glyph glyph-name="obreve" unicode="&#x14f;" horiz-adv-x="1142" 
d="M525 1498q27 -138 166 -138q64 0 107 31.5t79 106.5q27 0 59 -12t47 -27q-48 -121 -124 -178.5t-186 -57.5q-114 0 -181 60.5t-80 175.5q19 15 53 27t60 12zM66 398q0 197 73 351.5t205 240.5t302 86q201 0 304.5 -105t103.5 -309q0 -305 -162 -496t-421 -191
q-194 0 -299.5 110t-105.5 313zM627 953q-90 0 -162 -75.5t-112.5 -209t-40.5 -298.5q0 -128 47.5 -200t131.5 -72q89 0 161.5 78.5t114 214t41.5 298.5q0 129 -46.5 196.5t-134.5 67.5z" />
    <glyph glyph-name="Ohungarumlaut" unicode="&#x150;" horiz-adv-x="1509" 
d="M681 1577l129 354q81 -17 150 -67l-170 -335q-59 13 -109 48zM980 1587l160 344q82 -24 143 -81l-200 -321q-55 17 -103 58zM874 1466q270 0 418.5 -158t148.5 -445q0 -265 -97 -468.5t-274 -315.5t-407 -112q-262 0 -413 165.5t-151 453.5q0 260 96.5 460t273 310
t405.5 110zM854 1337q-143 0 -256.5 -98.5t-176.5 -274.5t-63 -397q0 -219 86.5 -344.5t237.5 -125.5q140 0 255 102.5t180 282.5t65 400q0 217 -86 336t-242 119z" />
    <glyph glyph-name="ohungarumlaut" unicode="&#x151;" horiz-adv-x="1142" 
d="M745 1245l159 344q83 -25 143 -80l-199 -322q-55 17 -103 58zM446 1235l128 354q81 -17 150 -67l-170 -335q-58 13 -108 48zM66 398q0 197 73 351.5t205 240.5t302 86q201 0 304.5 -105t103.5 -309q0 -305 -162 -496t-421 -191q-194 0 -299.5 110t-105.5 313zM627 953
q-90 0 -162 -75.5t-112.5 -209t-40.5 -298.5q0 -128 47.5 -200t131.5 -72q89 0 161.5 78.5t114 214t41.5 298.5q0 129 -46.5 196.5t-134.5 67.5z" />
    <glyph glyph-name="OE" unicode="&#x152;" horiz-adv-x="1970" 
d="M1916 1075l-146 -9q2 82 -3 127t-23.5 74t-49.5 37.5t-87 8.5h-291l-74 -524h237q50 0 72.5 22t45.5 93l14 42l124 4l-64 -455l-122 4l-1 79q0 47 -20.5 68.5t-65.5 21.5h-237l-63 -454q0 -3 -1.5 -12.5t-1.5 -14.5q0 -39 28.5 -52.5t104.5 -13.5h184q45 0 74.5 6
t54 20.5t42 44t32 70.5t30.5 106l144 -9q-19 -193 -66 -359h-952q-82 -8 -168 -8q-264 0 -416 158.5t-152 435.5q0 254 95 448t270.5 301t404.5 107q87 0 169 -8h915q-1 -173 -37 -359zM935 294l119 845q4 25 4 51q0 68 -41 95t-141 27q-160 0 -278 -96t-179 -263.5
t-61 -385.5q0 -213 90 -329.5t265 -116.5q114 0 161 37t61 136z" />
    <glyph glyph-name="oe" unicode="&#x153;" horiz-adv-x="1757" 
d="M1096 437q-32 0 -59 3v-27q0 -290 231 -290q85 0 151 25t132 82l41 -113q-95 -75 -191 -108.5t-226 -33.5q-230 0 -310 189q-152 -189 -394 -189q-194 0 -299.5 110t-105.5 313q0 197 73 351.5t205 240.5t302 86q247 0 333 -189q152 189 396 189q163 0 246 -62.5
t83 -184.5q0 -186 -160 -289t-448 -103zM491 98q89 0 161.5 78.5t114 214t41.5 298.5q0 129 -46.5 196.5t-134.5 67.5q-90 0 -162 -75.5t-112.5 -209t-40.5 -298.5q0 -128 47.5 -200t131.5 -72zM1339 953q-103 0 -184 -112.5t-108 -284.5q32 -2 45 -2q175 0 279 73t104 196
q0 130 -136 130z" />
    <glyph glyph-name="Racute" unicode="&#x154;" horiz-adv-x="1300" 
d="M1062 1738l-408 -202q-33 37 -58 106l377 253q63 -74 89 -157zM1089 173q20 -42 47.5 -59t77.5 -20l-14 -88q-54 -19 -144 -19q-109 0 -154 35.5t-79 147.5l-95 316q-26 86 -63 117t-114 31q-25 0 -69 -4l-59 -425q-3 -19 -3 -34q0 -31 18 -44t71 -23l55 -11l-15 -93
h-543l15 93l71 14q48 9 66.5 29.5t25.5 68.5l144 1023q3 20 3 34q0 31 -19 44.5t-75 25.5l-40 8l6 94h117q88 0 227 4.5t212 4.5q223 0 332 -78t109 -238q0 -171 -98.5 -282.5t-276.5 -143.5q49 -18 82.5 -62t67.5 -131q23 -58 58.5 -176t55.5 -159zM634 759q141 0 229.5 95
t88.5 248q0 222 -219 222q-91 0 -154 -11l-78 -549q56 -5 133 -5z" />
    <glyph glyph-name="racute" unicode="&#x155;" horiz-adv-x="862" 
d="M851 1396l-407 -201q-36 40 -59 105l377 253q63 -74 89 -157zM877 1034q7 -22 7 -55q0 -70 -29.5 -107.5t-84.5 -37.5q-40 0 -71 22t-55 22q-43 0 -96 -83t-97.5 -217.5t-64.5 -275.5l-44 -302h-233l114 815q6 45 6 68q0 25 -7.5 34t-26.5 9q-40 0 -88 -16v91
q49 31 124.5 53t133.5 22q48 0 68.5 -17.5t20.5 -61.5q0 -49 -25.5 -174.5t-60.5 -246.5h3q30 104 64 189t77 157.5t96 113t111 40.5q91 0 158 -42z" />
    <glyph glyph-name="Rcommaaccent" unicode="&#x156;" horiz-adv-x="1300" 
d="M1089 173q20 -42 47.5 -59t77.5 -20l-14 -88q-54 -19 -144 -19q-109 0 -154 35.5t-79 147.5l-95 316q-26 86 -63 117t-114 31q-25 0 -69 -4l-59 -425q-3 -19 -3 -34q0 -31 18 -44t71 -23l55 -11l-15 -93h-543l15 93l71 14q48 9 66.5 29.5t25.5 68.5l144 1023q3 20 3 34
q0 31 -19 44.5t-75 25.5l-40 8l6 94h117q88 0 227 4.5t212 4.5q223 0 332 -78t109 -238q0 -171 -98.5 -282.5t-276.5 -143.5q49 -18 82.5 -62t67.5 -131q23 -58 58.5 -176t55.5 -159zM634 759q141 0 229.5 95t88.5 248q0 222 -219 222q-91 0 -154 -11l-78 -549q56 -5 133 -5
zM649 -83q47 0 74 -32t27 -89q0 -110 -66.5 -189t-182.5 -107q-24 19 -30 51q50 22 77.5 54t38.5 81q-32 10 -51 38.5t-19 67.5q0 56 36.5 90.5t95.5 34.5z" />
    <glyph glyph-name="rcommaaccent" unicode="&#x157;" horiz-adv-x="862" 
d="M877 1034q7 -22 7 -55q0 -70 -29.5 -107.5t-84.5 -37.5q-40 0 -71 22t-55 22q-43 0 -96 -83t-97.5 -217.5t-64.5 -275.5l-44 -302h-233l114 815q6 45 6 68q0 25 -7.5 34t-26.5 9q-40 0 -88 -16v91q49 31 124.5 53t133.5 22q48 0 68.5 -17.5t20.5 -61.5
q0 -49 -25.5 -174.5t-60.5 -246.5h3q30 104 64 189t77 157.5t96 113t111 40.5q91 0 158 -42zM212 -83q47 0 73.5 -31.5t26.5 -89.5q0 -110 -66.5 -189t-182.5 -107q-23 18 -29 51q94 41 115 135q-32 10 -50.5 38.5t-18.5 67.5q0 56 36.5 90.5t95.5 34.5z" />
    <glyph glyph-name="Rcaron" unicode="&#x158;" horiz-adv-x="1300" 
d="M775 1543l-256 245q30 59 72 96l209 -146l242 146q39 -41 57 -100zM1089 173q20 -42 47.5 -59t77.5 -20l-14 -88q-54 -19 -144 -19q-109 0 -154 35.5t-79 147.5l-95 316q-26 86 -63 117t-114 31q-25 0 -69 -4l-59 -425q-3 -19 -3 -34q0 -31 18 -44t71 -23l55 -11l-15 -93
h-543l15 93l71 14q48 9 66.5 29.5t25.5 68.5l144 1023q3 20 3 34q0 31 -19 44.5t-75 25.5l-40 8l6 94h117q88 0 227 4.5t212 4.5q223 0 332 -78t109 -238q0 -171 -98.5 -282.5t-276.5 -143.5q49 -18 82.5 -62t67.5 -131q23 -58 58.5 -176t55.5 -159zM634 759q141 0 229.5 95
t88.5 248q0 222 -219 222q-91 0 -154 -11l-78 -549q56 -5 133 -5z" />
    <glyph glyph-name="rcaron" unicode="&#x159;" horiz-adv-x="862" 
d="M517 1201l-256 245q29 57 73 96l209 -146l242 146q38 -39 56 -100zM877 1034q7 -22 7 -55q0 -70 -29.5 -107.5t-84.5 -37.5q-40 0 -71 22t-55 22q-43 0 -96 -83t-97.5 -217.5t-64.5 -275.5l-44 -302h-233l114 815q6 45 6 68q0 25 -7.5 34t-26.5 9q-40 0 -88 -16v91
q49 31 124.5 53t133.5 22q48 0 68.5 -17.5t20.5 -61.5q0 -49 -25.5 -174.5t-60.5 -246.5h3q30 104 64 189t77 157.5t96 113t111 40.5q91 0 158 -42z" />
    <glyph glyph-name="Sacute" unicode="&#x15a;" horiz-adv-x="1103" 
d="M511 1642l377 253q65 -76 90 -157l-408 -202q-35 39 -59 106zM661 1466q129 0 258 -26.5t168 -26.5l-54 -332l-133 -5q-7 142 -64 207.5t-173 65.5q-104 0 -167 -67t-63 -178q0 -61 30.5 -111.5t79 -86.5t107.5 -70t118 -72.5t107.5 -83t79 -111.5t30.5 -150
q0 -209 -137 -330.5t-371 -121.5q-138 0 -259 31.5t-195 86.5q8 155 45 312l139 5q-5 -154 61.5 -236t196.5 -82q119 0 197 75.5t78 192.5q0 65 -30 118t-78.5 90.5t-107 72.5t-116.5 72.5t-106.5 81t-78.5 108t-30 143.5q0 193 128.5 310.5t339.5 117.5z" />
    <glyph glyph-name="sacute" unicode="&#x15b;" horiz-adv-x="911" 
d="M350 1300l378 253q63 -74 89 -157l-408 -201q-36 40 -59 105zM807 768l-116 -6q-10 211 -179 211q-65 0 -107.5 -44.5t-42.5 -112.5q0 -45 23.5 -81.5t61 -63.5t82.5 -52.5t90 -54.5t82.5 -62.5t61 -83.5t23.5 -111q0 -154 -111.5 -243t-304.5 -89q-234 0 -354 100
q6 109 35 230l121 6q11 -233 203 -233q76 0 125 48t49 122q0 45 -23 83t-60 66t-81.5 54.5t-88.5 55.5t-81 62.5t-60 82t-23 107.5q0 146 103.5 231.5t279.5 85.5q87 0 187 -25t149 -25z" />
    <glyph glyph-name="Scircumflex" unicode="&#x15c;" horiz-adv-x="1103" 
d="M688 1699l-253 -147q-38 39 -56 100l334 241l267 -245q-29 -57 -73 -96zM663 1349q-104 0 -167 -67t-63 -178q0 -61 30.5 -111.5t79 -86.5t107.5 -70t118 -72.5t107.5 -83t79 -111.5t30.5 -150q0 -209 -137 -330.5t-371 -121.5q-138 0 -259 31.5t-195 86.5q8 155 45 312
l139 5q-5 -154 61.5 -236t196.5 -82q119 0 197 75.5t78 192.5q0 65 -30 118t-78.5 90.5t-107 72.5t-116.5 72.5t-106.5 81t-78.5 108t-30 143.5q0 193 128.5 310.5t339.5 117.5q129 0 258 -26.5t168 -26.5l-54 -332l-133 -5q-7 142 -64 207.5t-173 65.5z" />
    <glyph glyph-name="scircumflex" unicode="&#x15d;" horiz-adv-x="911" 
d="M543 1357l-253 -147q-38 39 -56 100l334 241l266 -245q-30 -59 -72 -96zM512 973q-65 0 -107.5 -44.5t-42.5 -112.5q0 -45 23.5 -81.5t61 -63.5t82.5 -52.5t90 -54.5t82.5 -62.5t61 -83.5t23.5 -111q0 -154 -111.5 -243t-304.5 -89q-234 0 -354 100q6 109 35 230l121 6
q11 -233 203 -233q76 0 125 48t49 122q0 45 -23 83t-60 66t-81.5 54.5t-88.5 55.5t-81 62.5t-60 82t-23 107.5q0 146 103.5 231.5t279.5 85.5q87 0 187 -25t149 -25l-44 -258l-116 -6q-10 211 -179 211z" />
    <glyph glyph-name="Scedilla" unicode="&#x15e;" horiz-adv-x="1103" 
d="M663 1349q-104 0 -167 -67t-63 -178q0 -61 30.5 -111.5t79 -86.5t107.5 -70t118 -72.5t107.5 -83t79 -111.5t30.5 -150q0 -196 -122 -316t-333 -134l-48 -78q80 0 127 -40.5t47 -109.5q0 -104 -67.5 -162t-187.5 -58q-95 0 -156 58q14 48 42 83q51 -44 117 -44
q44 0 68 24t24 68q0 41 -32 64t-90 23l-18 48l68 123q-260 13 -401 117q8 155 45 312l139 5q-5 -154 61.5 -236t196.5 -82q119 0 197 75.5t78 192.5q0 65 -30 118t-78.5 90.5t-107 72.5t-116.5 72.5t-106.5 81t-78.5 108t-30 143.5q0 193 128.5 310.5t339.5 117.5
q129 0 258 -26.5t168 -26.5l-54 -332l-133 -5q-7 142 -64 207.5t-173 65.5z" />
    <glyph glyph-name="scedilla" unicode="&#x15f;" horiz-adv-x="911" 
d="M512 973q-65 0 -107.5 -44.5t-42.5 -112.5q0 -45 23.5 -81.5t61 -63.5t82.5 -52.5t90 -54.5t82.5 -62.5t61 -83.5t23.5 -111q0 -142 -96.5 -229.5t-265.5 -100.5l-53 -86q80 0 127 -40.5t47 -109.5q0 -104 -67.5 -162t-187.5 -58q-95 0 -156 58q14 48 42 83
q51 -44 116 -44q44 0 68.5 24t24.5 68q0 41 -32 64t-90 23l-18 48l73 132q-198 11 -302 98q6 109 35 230l121 6q11 -233 203 -233q76 0 125 48t49 122q0 45 -23 83t-60 66t-81.5 54.5t-88.5 55.5t-81 62.5t-60 82t-23 107.5q0 146 103.5 231.5t279.5 85.5q87 0 187 -25
t149 -25l-44 -258l-116 -6q-10 211 -179 211z" />
    <glyph glyph-name="Scaron" unicode="&#x160;" horiz-adv-x="1103" 
d="M664 1543l-256 245q29 57 73 96l209 -146l242 146q38 -39 56 -100zM663 1349q-104 0 -167 -67t-63 -178q0 -61 30.5 -111.5t79 -86.5t107.5 -70t118 -72.5t107.5 -83t79 -111.5t30.5 -150q0 -209 -137 -330.5t-371 -121.5q-138 0 -259 31.5t-195 86.5q8 155 45 312l139 5
q-5 -154 61.5 -236t196.5 -82q119 0 197 75.5t78 192.5q0 65 -30 118t-78.5 90.5t-107 72.5t-116.5 72.5t-106.5 81t-78.5 108t-30 143.5q0 193 128.5 310.5t339.5 117.5q129 0 258 -26.5t168 -26.5l-54 -332l-133 -5q-7 142 -64 207.5t-173 65.5z" />
    <glyph glyph-name="scaron" unicode="&#x161;" horiz-adv-x="911" 
d="M523 1201l-257 245q29 57 73 96l209 -146l242 146q39 -41 57 -100zM512 973q-65 0 -107.5 -44.5t-42.5 -112.5q0 -45 23.5 -81.5t61 -63.5t82.5 -52.5t90 -54.5t82.5 -62.5t61 -83.5t23.5 -111q0 -154 -111.5 -243t-304.5 -89q-234 0 -354 100q6 109 35 230l121 6
q11 -233 203 -233q76 0 125 48t49 122q0 45 -23 83t-60 66t-81.5 54.5t-88.5 55.5t-81 62.5t-60 82t-23 107.5q0 146 103.5 231.5t279.5 85.5q87 0 187 -25t149 -25l-44 -258l-116 -6q-10 211 -179 211z" />
    <glyph glyph-name="Tcedilla" unicode="&#x162;" horiz-adv-x="1310" 
d="M188 1434h1168q-2 -184 -37 -373l-151 -9q5 65 0.5 111.5t-11.5 75.5t-27 45.5t-47 22.5t-72 6h-136l-152 -1082q-4 -24 -4 -46q0 -36 19 -51.5t72 -24.5l85 -14l-15 -95h-256l-67 -109q80 0 127 -40.5t47 -109.5q0 -104 -67.5 -162t-187.5 -58q-95 0 -156 58
q14 48 42 83q51 -44 116 -44q44 0 68.5 24t24.5 68q0 41 -32 64t-90 23l-18 48l86 155h-246l14 95l101 17q47 8 67.5 33.5t28.5 85.5l152 1082h-135q-107 0 -148.5 -47.5t-82.5 -213.5l-148 9q19 202 68 373z" />
    <glyph glyph-name="tcedilla" unicode="&#x163;" horiz-adv-x="747" 
d="M470 928l-98 -657q-4 -30 -4 -40q0 -105 106 -105q75 0 156 58l28 -106q-120 -87 -259 -100l-53 -87q80 0 127 -40.5t47 -109.5q0 -104 -68 -162t-188 -58q-94 0 -155 58q14 48 42 83q51 -44 116 -44q44 0 68.5 24t24.5 68q0 41 -32 64t-90 23l-18 48l73 133
q-88 9 -130 53.5t-42 129.5q0 32 6 71l106 696h-126l11 100q19 6 75.5 15t75.5 9q42 105 95 194q24 41 41.5 53.5t48.5 12.5q20 0 70 -10l-38 -251h299l-18 -123h-297z" />
    <glyph glyph-name="Tcaron" unicode="&#x164;" horiz-adv-x="1310" 
d="M788 1543l-256 245q30 59 72 96l209 -146l242 146q39 -41 57 -100zM188 1434h1168q-2 -184 -37 -373l-151 -9q5 65 0.5 111.5t-11.5 75.5t-27 45.5t-47 22.5t-72 6h-136l-152 -1082q-4 -24 -4 -46q0 -36 19 -51.5t72 -24.5l85 -14l-15 -95h-609l14 95l101 17
q47 8 67.5 33.5t28.5 85.5l152 1082h-135q-107 0 -148.5 -47.5t-82.5 -213.5l-148 9q19 202 68 373z" />
    <glyph glyph-name="tcaron" unicode="&#x165;" horiz-adv-x="747" 
d="M856 1517q-36 -192 -116 -366q-72 5 -120 30q56 208 73 366q86 -3 163 -30zM486 1051h299l-18 -123h-297l-98 -657q-4 -28 -4 -40q0 -105 106 -105q75 0 156 58l28 -106q-142 -103 -312 -103q-116 0 -170.5 45t-54.5 141q0 32 6 71l106 696h-126l11 100q19 6 75.5 15
t75.5 9q42 105 95 194q24 41 41.5 53.5t48.5 12.5q20 0 70 -10z" />
    <glyph glyph-name="Tbar" unicode="&#x166;" horiz-adv-x="1327" 
d="M196 1434h1168q-1 -179 -38 -373l-150 -9q3 87 -1 134t-22 78t-48.5 40t-86.5 9h-135l-73 -518h308l-17 -119h-308l-63 -445q-4 -24 -4 -46q0 -36 19.5 -51.5t72.5 -24.5l84 -14l-14 -95h-610l15 95l101 17q47 8 67 33.5t28 85.5l63 445h-309l17 119h309l73 518h-136
q-107 0 -148 -47.5t-82 -213.5l-148 9q19 202 68 373z" />
    <glyph glyph-name="tbar" unicode="&#x167;" horiz-adv-x="753" 
d="M470 928l-32 -215h297l-17 -119h-298l-48 -323q-3 -21 -3 -40q0 -105 105 -105q76 0 157 58l28 -106q-142 -103 -312 -103q-116 0 -170.5 45t-54.5 141q0 32 6 71l55 362h-126l17 119h129l32 215h-128l11 100q19 6 75.5 15t75.5 9q42 105 95 194q24 41 41.5 53.5
t48.5 12.5q20 0 70 -10l-38 -251h299l-17 -123h-298z" />
    <glyph glyph-name="Utilde" unicode="&#x168;" horiz-adv-x="1447" 
d="M1050 1748q85 0 146 70l21 -95q-30 -52 -88.5 -86.5t-116.5 -34.5q-64 0 -134 31t-111 31q-85 0 -146 -70l-21 95q30 52 88 86t116 34q64 0 135 -30.5t111 -30.5zM718 1340l-83 -11q-46 -7 -65.5 -29.5t-26.5 -71.5l-101 -716q-10 -72 -10 -121q0 -296 263 -296
q149 0 233.5 97.5t113.5 304.5l104 731q3 19 3 34q0 32 -20 46t-75 24l-44 8l15 94h484l-14 -94l-83 -11q-46 -7 -65.5 -29.5t-26.5 -71.5l-106 -750q-35 -252 -178 -381.5t-387 -129.5q-458 0 -458 414q0 64 10 131l101 716q3 20 3 34q0 31 -19 44.5t-75 25.5l-40 8l6 94
h555z" />
    <glyph glyph-name="utilde" unicode="&#x169;" horiz-adv-x="1208" 
d="M558 1322q-85 0 -146 -70l-21 95q30 52 88 86.5t116 34.5q65 0 135 -31t110 -31q86 0 147 70l21 -95q-30 -52 -88.5 -86t-116.5 -34q-65 0 -135 30.5t-110 30.5zM1024 111q27 0 67 4l-6 -91q-113 -44 -196 -44q-78 0 -115 28t-37 89q0 98 87 379h-3q-155 -501 -460 -501
q-244 0 -244 221q0 44 8 87l93 532q8 48 8 68q0 24 -8.5 33.5t-27.5 9.5q-39 0 -87 -16v91q49 31 126 53t139 22q67 0 87 -15.5t20 -66.5q0 -62 -14 -139l-98 -556q-9 -52 -9 -87q0 -86 61 -86q49 0 108 47.5t115.5 129t103.5 205t68 262.5l44 281h236l-131 -828
q-5 -33 -5 -51q0 -35 16 -48t54 -13z" />
    <glyph glyph-name="Umacron" unicode="&#x16a;" horiz-adv-x="1447" 
d="M1169 1636h-540l19 135h540zM718 1340l-83 -11q-46 -7 -65.5 -29.5t-26.5 -71.5l-101 -716q-10 -72 -10 -121q0 -296 263 -296q149 0 233.5 97.5t113.5 304.5l104 731q3 19 3 34q0 32 -20 46t-75 24l-44 8l15 94h484l-14 -94l-83 -11q-46 -7 -65.5 -29.5t-26.5 -71.5
l-106 -750q-35 -252 -178 -381.5t-387 -129.5q-458 0 -458 414q0 64 10 131l101 716q3 20 3 34q0 31 -19 44.5t-75 25.5l-40 8l6 94h555z" />
    <glyph glyph-name="umacron" unicode="&#x16b;" horiz-adv-x="1208" 
d="M957 1294h-539l19 135h540zM1024 111q27 0 67 4l-6 -91q-113 -44 -196 -44q-78 0 -115 28t-37 89q0 98 87 379h-3q-155 -501 -460 -501q-244 0 -244 221q0 44 8 87l93 532q8 48 8 68q0 24 -8.5 33.5t-27.5 9.5q-39 0 -87 -16v91q49 31 126 53t139 22q67 0 87 -15.5
t20 -66.5q0 -62 -14 -139l-98 -556q-9 -52 -9 -87q0 -86 61 -86q49 0 108 47.5t115.5 129t103.5 205t68 262.5l44 281h236l-131 -828q-5 -33 -5 -51q0 -35 16 -48t54 -13z" />
    <glyph glyph-name="Ubreve" unicode="&#x16c;" horiz-adv-x="1447" 
d="M748 1840q27 -138 166 -138q64 0 107 31.5t79 106.5q27 0 59 -12t47 -27q-48 -121 -124 -178.5t-186 -57.5q-114 0 -181 60.5t-80 175.5q19 15 53 27t60 12zM718 1340l-83 -11q-46 -7 -65.5 -29.5t-26.5 -71.5l-101 -716q-10 -72 -10 -121q0 -296 263 -296
q149 0 233.5 97.5t113.5 304.5l104 731q3 19 3 34q0 32 -20 46t-75 24l-44 8l15 94h484l-14 -94l-83 -11q-46 -7 -65.5 -29.5t-26.5 -71.5l-106 -750q-35 -252 -178 -381.5t-387 -129.5q-458 0 -458 414q0 64 10 131l101 716q3 20 3 34q0 31 -19 44.5t-75 25.5l-40 8l6 94
h555z" />
    <glyph glyph-name="ubreve" unicode="&#x16d;" horiz-adv-x="1208" 
d="M689 1223q-114 0 -181.5 60.5t-80.5 175.5q19 15 53.5 27t60.5 12q27 -138 166 -138q64 0 106.5 31.5t78.5 106.5q27 0 59.5 -12t47.5 -27q-48 -121 -124 -178.5t-186 -57.5zM1024 111q27 0 67 4l-6 -91q-113 -44 -196 -44q-78 0 -115 28t-37 89q0 98 87 379h-3
q-155 -501 -460 -501q-244 0 -244 221q0 44 8 87l93 532q8 48 8 68q0 24 -8.5 33.5t-27.5 9.5q-39 0 -87 -16v91q49 31 126 53t139 22q67 0 87 -15.5t20 -66.5q0 -62 -14 -139l-98 -556q-9 -52 -9 -87q0 -86 61 -86q49 0 108 47.5t115.5 129t103.5 205t68 262.5l44 281h236
l-131 -828q-5 -33 -5 -51q0 -35 16 -48t54 -13z" />
    <glyph glyph-name="Uring" unicode="&#x16e;" horiz-adv-x="1447" 
d="M713 1709q0 98 64 160.5t165 62.5q77 0 123.5 -47t46.5 -125q0 -98 -64 -160t-165 -62q-77 0 -123.5 46.5t-46.5 124.5zM928 1839q-47 0 -77 -32t-30 -84q0 -92 76 -92q47 0 77 32t30 84q0 92 -76 92zM718 1340l-83 -11q-46 -7 -65.5 -29.5t-26.5 -71.5l-101 -716
q-10 -72 -10 -121q0 -296 263 -296q149 0 233.5 97.5t113.5 304.5l104 731q3 19 3 34q0 32 -20 46t-75 24l-44 8l15 94h484l-14 -94l-83 -11q-46 -7 -65.5 -29.5t-26.5 -71.5l-106 -750q-35 -252 -178 -381.5t-387 -129.5q-458 0 -458 414q0 64 10 131l101 716q3 20 3 34
q0 31 -19 44.5t-75 25.5l-40 8l6 94h555z" />
    <glyph glyph-name="uring" unicode="&#x16f;" horiz-adv-x="1208" 
d="M674 1196q-77 0 -123.5 47t-46.5 125q0 98 64 160t165 62q77 0 123.5 -47t46.5 -125q0 -98 -64 -160t-165 -62zM719 1497q-47 0 -77 -32t-30 -84q0 -92 76 -92q47 0 77 32t30 84q0 92 -76 92zM1024 111q27 0 67 4l-6 -91q-113 -44 -196 -44q-78 0 -115 28t-37 89
q0 98 87 379h-3q-155 -501 -460 -501q-244 0 -244 221q0 44 8 87l93 532q8 48 8 68q0 24 -8.5 33.5t-27.5 9.5q-39 0 -87 -16v91q49 31 126 53t139 22q67 0 87 -15.5t20 -66.5q0 -62 -14 -139l-98 -556q-9 -52 -9 -87q0 -86 61 -86q49 0 108 47.5t115.5 129t103.5 205
t68 262.5l44 281h236l-131 -828q-5 -33 -5 -51q0 -35 16 -48t54 -13z" />
    <glyph glyph-name="Uhungarumlaut" unicode="&#x170;" horiz-adv-x="1447" 
d="M664 1577l128 354q81 -17 150 -67l-170 -335q-58 13 -108 48zM962 1587l160 344q82 -24 143 -81l-199 -321q-57 17 -104 58zM718 1340l-83 -11q-46 -7 -65.5 -29.5t-26.5 -71.5l-101 -716q-10 -72 -10 -121q0 -296 263 -296q149 0 233.5 97.5t113.5 304.5l104 731
q3 19 3 34q0 32 -20 46t-75 24l-44 8l15 94h484l-14 -94l-83 -11q-46 -7 -65.5 -29.5t-26.5 -71.5l-106 -750q-35 -252 -178 -381.5t-387 -129.5q-458 0 -458 414q0 64 10 131l101 716q3 20 3 34q0 31 -19 44.5t-75 25.5l-40 8l6 94h555z" />
    <glyph glyph-name="uhungarumlaut" unicode="&#x171;" horiz-adv-x="1208" 
d="M718 1522l-171 -335q-58 13 -108 48l129 354q81 -17 150 -67zM1041 1509l-200 -322q-55 17 -103 58l160 344q83 -25 143 -80zM1024 111q27 0 67 4l-6 -91q-113 -44 -196 -44q-78 0 -115 28t-37 89q0 98 87 379h-3q-155 -501 -460 -501q-244 0 -244 221q0 44 8 87l93 532
q8 48 8 68q0 24 -8.5 33.5t-27.5 9.5q-39 0 -87 -16v91q49 31 126 53t139 22q67 0 87 -15.5t20 -66.5q0 -62 -14 -139l-98 -556q-9 -52 -9 -87q0 -86 61 -86q49 0 108 47.5t115.5 129t103.5 205t68 262.5l44 281h236l-131 -828q-5 -33 -5 -51q0 -35 16 -48t54 -13z" />
    <glyph glyph-name="Uogonek" unicode="&#x172;" horiz-adv-x="1447" 
d="M1509 1434l-14 -94l-83 -11q-46 -7 -65.5 -29.5t-26.5 -71.5l-106 -750q-57 -413 -396 -493q-197 -67 -197 -211q0 -51 22 -78.5t63 -27.5q59 0 111 50q22 -40 25 -87q-90 -78 -217 -78q-82 0 -132 48.5t-50 127.5q0 75 39.5 137.5t110.5 102.5q-402 24 -402 412
q0 64 10 131l101 716q3 20 3 34q0 32 -19 45t-75 25l-40 8l6 94h555l-14 -94l-83 -11q-46 -7 -65.5 -29.5t-26.5 -71.5l-101 -716q-10 -72 -10 -121q0 -296 263 -296q149 0 233.5 97.5t113.5 304.5l104 731q3 19 3 34q0 32 -20 46t-75 24l-44 8l15 94h484z" />
    <glyph glyph-name="uogonek" unicode="&#x173;" horiz-adv-x="1208" 
d="M1085 18q-127 -35 -201.5 -102t-74.5 -148q0 -46 23 -73t62 -27q59 0 111 50q22 -40 25 -87q-90 -78 -217 -78q-82 0 -132 48.5t-50 127.5q0 83 50.5 151t140.5 106q-85 21 -85 111q0 98 87 379h-3q-155 -501 -460 -501q-244 0 -244 221q0 44 8 87l93 532q8 48 8 68
q0 24 -8.5 33.5t-27.5 9.5q-39 0 -87 -16v91q49 31 126 53t139 22q67 0 87 -15.5t20 -66.5q0 -62 -14 -139l-98 -556q-9 -52 -9 -87q0 -86 61 -86q49 0 108 47.5t115.5 129t103.5 205t68 262.5l44 281h236l-131 -828q-5 -33 -5 -51q0 -35 16 -48t54 -13q27 0 67 4z" />
    <glyph glyph-name="Wcircumflex" unicode="&#x174;" horiz-adv-x="2039" 
d="M1210 1699l-253 -147q-38 39 -56 100l334 241l267 -245q-29 -57 -73 -96zM2155 1434l-15 -94l-55 -6q-57 -7 -90.5 -44t-84.5 -149l-520 -1146h-162l-146 1017l-457 -1017h-162l-176 1146q-17 112 -39 147.5t-78 45.5l-39 6l6 94h549l-14 -94l-56 -6q-56 -7 -77.5 -27
t-21.5 -73q0 -25 9 -93l105 -786l466 1079h154l145 -1079l338 786q45 104 45 137q0 28 -23 39.5t-79 17.5l-43 5l15 94h506z" />
    <glyph glyph-name="wcircumflex" unicode="&#x175;" horiz-adv-x="1691" 
d="M966 1357l-253 -147q-38 39 -56 100l334 241l266 -245q-30 -59 -72 -96zM1540 1076q58 0 85 -29t27 -91q0 -146 -136.5 -414t-355.5 -552q-71 3 -151 20l-90 515q-22 131 -29 188q-142 -412 -355 -723q-91 3 -168 20l-119 698q-24 140 -43 179t-59 39q-41 0 -86 -16
l-7 91q46 31 117.5 53t123.5 22q42 0 66.5 -9.5t45 -40.5t33.5 -83.5t27 -144.5l39 -265q26 -171 33 -287q93 181 173.5 392.5t129.5 403.5q97 21 197 21q31 -85 62 -280l42 -262q32 -201 39 -275q113 169 187 342t74 268q0 70 -56 70q-31 0 -76 -16l-7 91q46 31 116.5 53
t120.5 22z" />
    <glyph glyph-name="Ycircumflex" unicode="&#x176;" horiz-adv-x="1318" 
d="M825 1699l-253 -147q-38 39 -56 100l334 241l267 -245q-29 -57 -73 -96zM1422 1434l-15 -94l-39 -4q-36 -4 -54.5 -9.5t-44.5 -28t-49 -54.5t-71 -103l-367 -543l-52 -367q-5 -30 -5 -46q0 -36 19.5 -51.5t72.5 -24.5l85 -14l-15 -95h-610l15 95l101 17q47 8 67.5 34
t28.5 85l52 367l-240 543q-33 74 -47 104t-32.5 53.5t-31 28t-40.5 9.5l-26 4l7 94h559l-14 -94l-54 -6q-52 -6 -76.5 -23.5t-24.5 -50.5q0 -32 24 -86l182 -412l271 412q48 72 48 107q0 44 -83 53l-60 6l15 94h504z" />
    <glyph glyph-name="ycircumflex" unicode="&#x177;" horiz-adv-x="1101" 
d="M648 1357l-252 -147q-38 39 -56 100l334 241l266 -245q-29 -57 -73 -96zM940 1076q58 0 85 -29t27 -90q0 -173 -104.5 -433t-290.5 -548q-148 -229 -282.5 -328t-296.5 -99q-46 0 -88 10q-16 36 -16 77q0 55 30 86t84 31q26 0 60 -11t55 -11q84 0 135 84.5t51 225.5
q0 97 -25 236t-86 381q-30 117 -48.5 171.5t-37 75.5t-47.5 21q-41 0 -86 -16l-7 91q46 31 117.5 53t123.5 22q54 0 84.5 -25t56.5 -91.5t62 -213.5q86 -347 86 -590q0 -44 -2 -64q114 194 188 402t74 336q0 52 -13 74t-43 22q-31 0 -76 -16l-7 91q46 31 116.5 53t120.5 22z
" />
    <glyph glyph-name="Ydieresis" unicode="&#x178;" horiz-adv-x="1318" 
d="M609 1585q-46 0 -75.5 31t-29.5 79q0 62 41 102.5t105 40.5q46 0 75 -31.5t29 -79.5q0 -62 -40.5 -102t-104.5 -40zM1000 1585q-46 0 -75.5 31t-29.5 79q0 62 40.5 102.5t104.5 40.5q46 0 75.5 -31.5t29.5 -79.5q0 -62 -40.5 -102t-104.5 -40zM1422 1434l-15 -94l-39 -4
q-36 -4 -54.5 -9.5t-44.5 -28t-49 -54.5t-71 -103l-367 -543l-52 -367q-5 -30 -5 -46q0 -36 19.5 -51.5t72.5 -24.5l85 -14l-15 -95h-610l15 95l101 17q47 8 67.5 34t28.5 85l52 367l-240 543q-33 74 -47 104t-32.5 53.5t-31 28t-40.5 9.5l-26 4l7 94h559l-14 -94l-54 -6
q-52 -6 -76.5 -23.5t-24.5 -50.5q0 -32 24 -86l182 -412l271 412q48 72 48 107q0 44 -83 53l-60 6l15 94h504z" />
    <glyph glyph-name="Zacute" unicode="&#x179;" horiz-adv-x="1220" 
d="M1059 1738l-408 -202q-35 39 -59 106l378 253q63 -74 89 -157zM1232 1332l-936 -1211h426q103 0 148 55t83 211l148 -9q-20 -210 -68 -378h-1038l4 102l936 1211h-392q-107 0 -148.5 -47.5t-82.5 -213.5l-148 9q19 202 68 373h1004z" />
    <glyph glyph-name="zacute" unicode="&#x17a;" horiz-adv-x="1007" 
d="M883 1396l-408 -201q-36 40 -59 105l378 253q63 -74 89 -157zM255 104h318q70 0 107.5 46.5t69.5 163.5l129 -9q-8 -144 -50 -305q-101 -3 -305 -3q-60 0 -150 4t-142 4q-110 0 -159 -25q-58 44 -79 128q174 183 369 428l330 411h-270q-72 0 -108.5 -42.5t-68.5 -164.5
l-129 9q8 141 50 302h776q26 -36 30 -95l-450 -559q-146 -180 -268 -293z" />
    <glyph glyph-name="Zdotaccent" unicode="&#x17b;" horiz-adv-x="1220" 
d="M747 1578q-51 0 -84 33t-33 83q0 71 45 115.5t117 44.5q52 0 85 -32.5t33 -82.5q0 -71 -45.5 -116t-117.5 -45zM1232 1332l-936 -1211h426q103 0 148 55t83 211l148 -9q-20 -210 -68 -378h-1038l4 102l936 1211h-392q-107 0 -148.5 -47.5t-82.5 -213.5l-148 9
q19 202 68 373h1004z" />
    <glyph glyph-name="zdotaccent" unicode="&#x17c;" horiz-adv-x="1007" 
d="M594 1237q-52 0 -85 32.5t-33 82.5q0 71 45.5 115.5t117.5 44.5q52 0 84.5 -32.5t32.5 -82.5q0 -71 -45 -115.5t-117 -44.5zM255 104h318q70 0 107.5 46.5t69.5 163.5l129 -9q-8 -144 -50 -305q-101 -3 -305 -3q-60 0 -150 4t-142 4q-110 0 -159 -25q-58 44 -79 128
q174 183 369 428l330 411h-270q-72 0 -108.5 -42.5t-68.5 -164.5l-129 9q8 141 50 302h776q26 -36 30 -95l-450 -559q-146 -180 -268 -293z" />
    <glyph glyph-name="Zcaron" unicode="&#x17d;" horiz-adv-x="1220" 
d="M746 1543l-256 245q29 57 73 96l209 -146l242 146q38 -39 56 -100zM1232 1332l-936 -1211h426q103 0 148 55t83 211l148 -9q-20 -210 -68 -378h-1038l4 102l936 1211h-392q-107 0 -148.5 -47.5t-82.5 -213.5l-148 9q19 202 68 373h1004z" />
    <glyph glyph-name="zcaron" unicode="&#x17e;" horiz-adv-x="1007" 
d="M593 1201l-256 245q29 57 73 96l209 -146l242 146q38 -39 56 -100zM255 104h318q70 0 107.5 46.5t69.5 163.5l129 -9q-8 -144 -50 -305q-101 -3 -305 -3q-60 0 -150 4t-142 4q-110 0 -159 -25q-58 44 -79 128q174 183 369 428l330 411h-270q-72 0 -108.5 -42.5
t-68.5 -164.5l-129 9q8 141 50 302h776q26 -36 30 -95l-450 -559q-146 -180 -268 -293z" />
    <glyph glyph-name="longs" unicode="&#x17f;" horiz-adv-x="579" 
d="M937 1482q6 -20 6 -42q0 -56 -27.5 -86t-78.5 -30q-33 0 -61.5 12.5t-45.5 28t-43 28t-56 12.5q-94 0 -117 -160l-176 -1259q-31 -227 -117 -332t-239 -105q-88 0 -162 41l27 119q48 -25 98 -25q68 0 99.5 58.5t55.5 227.5l134 958h-131l11 100q47 16 140 22l15 110
q25 181 129.5 269.5t291.5 88.5q127 0 247 -36z" />
    <glyph glyph-name="Schwa" unicode="&#x18f;" horiz-adv-x="1345" 
d="M736 1466q261 0 400 -156.5t139 -447.5q0 -268 -93 -471t-264.5 -313.5t-398.5 -110.5q-220 0 -342 123.5t-122 344.5q0 133 26.5 190.5t88.5 57.5h841q10 85 10 159q0 220 -95 345t-262 125q-109 0 -199 -35.5t-206 -125.5l-52 120q137 109 253.5 152t275.5 43zM558 97
q150 0 265.5 126t165.5 336h-607q-50 0 -72 -36.5t-22 -119.5q0 -137 74.5 -221.5t195.5 -84.5z" />
    <glyph glyph-name="florin" unicode="&#x192;" horiz-adv-x="1017" 
d="M1102 1482q2 -11 2 -33q0 -58 -32.5 -91.5t-88.5 -33.5q-32 0 -57.5 12.5t-40.5 28t-40 28t-55 12.5q-45 0 -79.5 -42t-51.5 -118l-71 -317h270l-28 -123h-268l-186 -819q-52 -229 -146.5 -333t-251.5 -104q-87 0 -158 41l39 119q45 -25 94 -25q66 0 103.5 59.5
t75.5 226.5l189 835h-131l19 100q18 5 68 12.5t75 9.5l52 233q42 184 152.5 271t301.5 87q127 0 244 -36z" />
    <glyph glyph-name="AEacute" unicode="&#x1fc;" horiz-adv-x="1884" 
d="M1607 1738l-408 -202q-35 39 -59 106l378 253q63 -74 89 -157zM1830 1075l-147 -9q2 82 -3 127t-23.5 74t-49.5 37.5t-87 8.5h-291l-74 -524h237q50 0 72.5 22t45.5 93l14 42l124 4l-64 -455l-122 4l-1 79q0 47 -20.5 68.5t-65.5 21.5h-237l-63 -454q0 -3 -1.5 -12.5
t-1.5 -14.5q0 -39 28.5 -52.5t104.5 -13.5h184q45 0 74.5 6t54 20.5t42 44t32 70.5t30.5 106l144 -9q-19 -193 -66 -359h-1041l14 93l71 14q48 9 66.5 29.5t25.5 68.5l36 255h-398l-115 -188q-55 -90 -55 -122q0 -21 18.5 -32.5t58.5 -17.5l42 -7l-14 -93h-488l15 93l55 9
q53 8 85 34t77 97l612 981q35 56 35 78q0 16 -15.5 24t-52.5 14l-63 10l6 94h1191q-1 -178 -36 -359zM890 587l103 721l-441 -721h338z" />
    <glyph glyph-name="aeacute" unicode="&#x1fd;" horiz-adv-x="1583" 
d="M1156 1396l-408 -201q-36 40 -59 105l378 253q63 -74 89 -157zM926 465q-34 0 -62 3q-1 -18 -1 -55q0 -290 231 -290q85 0 151 25t132 82l41 -113q-95 -75 -191 -108.5t-226 -33.5q-253 0 -341 192q-60 -91 -152.5 -141.5t-204.5 -50.5q-137 0 -209.5 64t-72.5 184
q0 182 129 288t352 106q84 0 141 -9l19 124q8 54 8 90q0 149 -111 149q-37 0 -71 -17t-60 -41.5t-51.5 -48.5t-58 -41t-67.5 -17q-87 0 -87 86q0 38 15 72q191 112 406 112q114 0 178 -34.5t86 -110.5q138 145 352 145q163 0 246 -62.5t83 -184.5q0 -174 -158 -269t-446 -95
zM1165 953q-99 0 -178 -103.5t-109 -265.5q32 -2 43 -2q176 0 278 64.5t102 176.5q0 130 -136 130zM391 126q131 0 230 200q-3 34 -3 70q0 51 6 102q-48 6 -102 6q-125 0 -195 -62.5t-70 -174.5q0 -67 35 -104t99 -37z" />
    <glyph glyph-name="Oslashacute" unicode="&#x1fe;" horiz-adv-x="1509" 
d="M1167 1738l-408 -202q-35 39 -59 106l378 253q63 -74 89 -157zM1325 1513l-93 -151q209 -156 209 -499q0 -265 -97 -468.5t-274 -315.5t-407 -112q-138 0 -249 48l-95 -156l-104 62l96 155q-103 79 -157.5 209.5t-54.5 300.5q0 260 96.5 460t273 310t405.5 110
q144 0 253 -45l94 153zM854 1337q-143 0 -256.5 -98.5t-176.5 -274.5t-63 -397q0 -189 67 -312l612 1024q-76 58 -183 58zM682 97q140 0 255 102.5t180 282.5t65 400q0 188 -64 302l-613 -1027q75 -60 177 -60z" />
    <glyph glyph-name="oslashacute" unicode="&#x1ff;" horiz-adv-x="1142" 
d="M932 1396l-408 -201q-36 40 -59 105l378 253q63 -74 89 -157zM994 1136l-81 -133q141 -103 141 -341q0 -305 -162 -496t-421 -191q-92 0 -165 26l-87 -142l-95 56l84 138q-142 108 -142 345q0 197 73 351.5t205 240.5t302 86q98 0 168 -23l85 139zM628 953
q-139 0 -229.5 -166t-90.5 -417q0 -74 17 -133l405 685q-42 31 -102 31zM490 98q90 0 164 78t116 214t42 299q0 77 -16 129l-406 -686q42 -34 100 -34z" />
    <glyph glyph-name="Scommaaccent" unicode="&#x218;" horiz-adv-x="1103" 
d="M663 1349q-104 0 -167 -67t-63 -178q0 -61 30.5 -111.5t79 -86.5t107.5 -70t118 -72.5t107.5 -83t79 -111.5t30.5 -150q0 -209 -137 -330.5t-371 -121.5q-138 0 -259 31.5t-195 86.5q8 155 45 312l139 5q-5 -154 61.5 -236t196.5 -82q119 0 197 75.5t78 192.5
q0 65 -30 118t-78.5 90.5t-107 72.5t-116.5 72.5t-106.5 81t-78.5 108t-30 143.5q0 193 128.5 310.5t339.5 117.5q129 0 258 -26.5t168 -26.5l-54 -332l-133 -5q-7 142 -64 207.5t-173 65.5zM493 -83q47 0 74 -32t27 -89q0 -110 -66.5 -189t-182.5 -107q-23 18 -29 51
q94 41 115 135q-32 10 -50.5 38.5t-18.5 67.5q0 56 36 90.5t95 34.5z" />
    <glyph glyph-name="scommaaccent" unicode="&#x219;" horiz-adv-x="911" 
d="M512 973q-65 0 -107.5 -44.5t-42.5 -112.5q0 -45 23.5 -81.5t61 -63.5t82.5 -52.5t90 -54.5t82.5 -62.5t61 -83.5t23.5 -111q0 -154 -111.5 -243t-304.5 -89q-234 0 -354 100q6 109 35 230l121 6q11 -233 203 -233q76 0 125 48t49 122q0 45 -23 83t-60 66t-81.5 54.5
t-88.5 55.5t-81 62.5t-60 82t-23 107.5q0 146 103.5 231.5t279.5 85.5q87 0 187 -25t149 -25l-44 -258l-116 -6q-10 211 -179 211zM386 -83q47 0 73.5 -31.5t26.5 -89.5q0 -110 -66 -189t-182 -107q-24 19 -30 51q50 22 77.5 54t38.5 81q-32 10 -51 38.5t-19 67.5
q0 56 36.5 90.5t95.5 34.5z" />
    <glyph glyph-name="uni021A" unicode="&#x21a;" horiz-adv-x="1310" 
d="M188 1434h1168q-2 -184 -37 -373l-151 -9q5 65 0.5 111.5t-11.5 75.5t-27 45.5t-47 22.5t-72 6h-136l-152 -1082q-4 -24 -4 -46q0 -36 19 -51.5t72 -24.5l85 -14l-15 -95h-609l14 95l101 17q47 8 67.5 33.5t28.5 85.5l152 1082h-135q-107 0 -148.5 -47.5t-82.5 -213.5
l-148 9q19 202 68 373zM555 -83q47 0 74 -32t27 -89q0 -110 -66.5 -189t-182.5 -107q-24 19 -30 51q50 22 77.5 54t38.5 81q-32 10 -51 38.5t-19 67.5q0 56 36.5 90.5t95.5 34.5z" />
    <glyph glyph-name="uni021B" unicode="&#x21b;" horiz-adv-x="747" 
d="M470 928l-98 -657q-4 -28 -4 -40q0 -105 106 -105q75 0 156 58l28 -106q-142 -103 -312 -103q-116 0 -170.5 45t-54.5 141q0 32 6 71l106 696h-126l11 100q19 6 75.5 15t75.5 9q42 105 95 194q24 41 41.5 53.5t48.5 12.5q20 0 70 -10l-38 -251h299l-18 -123h-297z
M336 -83q47 0 73.5 -31.5t26.5 -89.5q0 -110 -66.5 -189t-182.5 -107q-23 18 -29 51q94 41 115 135q-32 10 -50.5 38.5t-18.5 67.5q0 56 36.5 90.5t95.5 34.5z" />
    <glyph glyph-name="dotlessj" unicode="&#x237;" horiz-adv-x="581" 
d="M108 910v91q49 31 126.5 53t139.5 22q67 0 87 -15.5t20 -66.5q0 -36 -15 -139l-77 -550q-35 -252 -79.5 -382.5t-127.5 -216.5q-54 -56 -143.5 -98.5t-190.5 -58.5q-29 34 -29 87q0 73 79 99q18 6 64 13.5t68 21.5q33 22 51 96t54 331l86 618q7 53 7 69q0 24 -7 33t-25 9
q-40 0 -88 -16z" />
    <glyph glyph-name="schwa" unicode="&#x259;" horiz-adv-x="1021" 
d="M549 1076q190 0 286.5 -107.5t96.5 -313.5q0 -149 -42 -275.5t-116.5 -215.5t-180.5 -139t-232 -50q-168 0 -254.5 62.5t-86.5 184.5q0 186 160 289t448 103q33 0 62 -3v27q0 290 -234 290q-78 0 -139 -25t-127 -82l-41 114q96 76 186.5 108.5t213.5 32.5zM385 98
q104 0 185.5 112.5t108.5 284.5q-17 2 -47 2q-176 0 -279.5 -72.5t-103.5 -195.5q0 -64 34.5 -97.5t101.5 -33.5z" />
    <glyph glyph-name="circumflex" unicode="&#x2c6;" 
d="M546 1551l266 -245q-29 -57 -73 -96l-219 147l-252 -147q-38 39 -56 100z" />
    <glyph glyph-name="caron" unicode="&#x2c7;" 
d="M504 1396l242 146q38 -39 56 -100l-324 -241l-256 245q29 57 73 96z" />
    <glyph glyph-name="breve" unicode="&#x2d8;" 
d="M340 1498q27 -138 166 -138q64 0 107 31.5t79 106.5q27 0 59 -12t47 -27q-48 -121 -124 -178.5t-186 -57.5q-114 0 -181.5 60.5t-80.5 175.5q19 15 53.5 27t60.5 12z" />
    <glyph glyph-name="dotaccent" unicode="&#x2d9;" 
d="M372 1352q0 71 45.5 115.5t117.5 44.5q52 0 84.5 -32.5t32.5 -82.5q0 -71 -45 -115.5t-117 -44.5q-52 0 -85 32.5t-33 82.5z" />
    <glyph glyph-name="ring" unicode="&#x2da;" 
d="M312 1368q0 98 64 160t165 62q77 0 124 -47t47 -125q0 -98 -64 -160t-165 -62q-77 0 -124 47t-47 125zM528 1497q-47 0 -77 -32t-30 -84q0 -92 75 -92q47 0 77 32t30 84q0 92 -75 92z" />
    <glyph glyph-name="ogonek" unicode="&#x2db;" 
d="M552 8l177 -8q-125 -31 -190.5 -88.5t-65.5 -137.5q0 -50 22.5 -78t63.5 -28q58 0 110 50q22 -40 25 -87q-90 -78 -216 -78q-82 0 -132.5 48.5t-50.5 127.5q0 98 69.5 173t187.5 106z" />
    <glyph glyph-name="tilde" unicode="&#x2dc;" 
d="M653 1406q85 0 146 70l21 -95q-30 -52 -88 -86t-116 -34q-64 0 -134 30.5t-111 30.5q-85 0 -146 -70l-21 95q30 52 88 86.5t116 34.5q64 0 134 -31t111 -31z" />
    <glyph glyph-name="hungarumlaut" unicode="&#x2dd;" 
d="M510 1245l160 344q83 -25 143 -80l-200 -322q-55 17 -103 58zM211 1235l129 354q81 -17 150 -67l-171 -335q-58 13 -108 48z" />
    <glyph glyph-name="gravecomb" unicode="&#x300;" horiz-adv-x="0" 
d="M368 1553l377 -253q-24 -67 -58 -105l-408 201q26 83 89 157z" />
    <glyph glyph-name="acutecomb" unicode="&#x301;" horiz-adv-x="0" 
d="M279 1300l377 253q63 -74 89 -157l-408 -201q-34 38 -58 105z" />
    <glyph glyph-name="uni0302" unicode="&#x302;" horiz-adv-x="0" 
d="M546 1551l266 -245q-29 -57 -73 -96l-219 147l-252 -147q-38 39 -56 100z" />
    <glyph glyph-name="tildecomb" unicode="&#x303;" horiz-adv-x="0" 
d="M653 1406q85 0 146 70l21 -95q-30 -52 -88 -86t-116 -34q-64 0 -134 30.5t-111 30.5q-85 0 -146 -70l-21 95q30 52 88 86.5t116 34.5q64 0 134 -31t111 -31z" />
    <glyph glyph-name="uni0304" unicode="&#x304;" horiz-adv-x="0" 
d="M772 1294h-540l20 135h540z" />
    <glyph glyph-name="uni0306" unicode="&#x306;" horiz-adv-x="0" 
d="M340 1498q27 -138 166 -138q64 0 107 31.5t79 106.5q27 0 59 -12t47 -27q-48 -121 -124 -178.5t-186 -57.5q-114 0 -181.5 60.5t-80.5 175.5q19 15 53.5 27t60.5 12z" />
    <glyph glyph-name="uni0307" unicode="&#x307;" horiz-adv-x="0" 
d="M372 1352q0 71 45.5 115.5t117.5 44.5q52 0 84.5 -32.5t32.5 -82.5q0 -71 -45 -115.5t-117 -44.5q-52 0 -85 32.5t-33 82.5z" />
    <glyph glyph-name="uni0308" unicode="&#x308;" horiz-adv-x="0" 
d="M192 1354q0 62 40.5 102t104.5 40q46 0 75.5 -31t29.5 -79q0 -62 -41 -102.5t-105 -40.5q-46 0 -75 31.5t-29 79.5zM582 1354q0 62 41 102t105 40q46 0 75 -31t29 -79q0 -62 -40.5 -102.5t-104.5 -40.5q-46 0 -75.5 31.5t-29.5 79.5z" />
    <glyph glyph-name="uni030A" unicode="&#x30a;" horiz-adv-x="0" 
d="M312 1368q0 98 64 160t165 62q77 0 124 -47t47 -125q0 -98 -64 -160t-165 -62q-77 0 -124 47t-47 125zM528 1497q-47 0 -77 -32t-30 -84q0 -92 75 -92q47 0 77 32t30 84q0 92 -75 92z" />
    <glyph glyph-name="uni030B" unicode="&#x30b;" horiz-adv-x="0" 
d="M510 1245l160 344q83 -25 143 -80l-200 -322q-55 17 -103 58zM211 1235l129 354q81 -17 150 -67l-171 -335q-58 13 -108 48z" />
    <glyph glyph-name="uni030C" unicode="&#x30c;" horiz-adv-x="0" 
d="M504 1396l242 146q38 -39 56 -100l-324 -241l-256 245q29 57 73 96z" />
    <glyph glyph-name="uni0312" unicode="&#x312;" horiz-adv-x="0" 
d="M536 1441q32 -10 50.5 -38.5t18.5 -68.5q0 -56 -36 -90.5t-95 -34.5q-47 0 -74 32t-27 90q0 110 66.5 189t182.5 107q23 -18 29 -52q-50 -22 -77 -53.5t-38 -80.5z" />
    <glyph glyph-name="uni0326" unicode="&#x326;" horiz-adv-x="0" 
d="M550 -83q47 0 74 -32t27 -89q0 -110 -66.5 -189t-182.5 -107q-23 18 -29 51q94 41 115 135q-32 10 -50.5 38.5t-18.5 67.5q0 56 36 90.5t95 34.5z" />
    <glyph glyph-name="uni0327" unicode="&#x327;" horiz-adv-x="0" 
d="M632 36l-89 -145q80 0 127.5 -40.5t47.5 -109.5q0 -104 -68 -162t-188 -58q-95 0 -156 58q14 48 42 83q51 -44 117 -44q44 0 68.5 24t24.5 68q0 41 -32 64t-90 23l-18 48l105 191h109z" />
    <glyph glyph-name="Delta" unicode="&#x394;" horiz-adv-x="1425" 
d="M1292 0h-1322l788 1438h151zM751 1108l-534 -980h794z" />
    <glyph glyph-name="Omega" unicode="&#x3a9;" horiz-adv-x="1589" 
d="M959 138h150q103 0 148.5 37.5t76.5 148.5l122 -10q-10 -145 -60 -314h-614l21 154q111 36 202 154.5t143 289t52 355.5q0 188 -77.5 286t-226.5 98q-207 0 -330.5 -193t-123.5 -512q0 -194 58 -322t157 -156l-21 -154h-614q-2 171 31 314l121 10q2 -112 37 -149t139 -37
h147q-141 65 -226 218t-85 346q0 348 198 556t531 208q261 0 402.5 -138t141.5 -394q0 -273 -138.5 -492t-361.5 -304z" />
    <glyph glyph-name="mu" unicode="&#x3bc;" horiz-adv-x="1271" 
d="M1059 111q27 0 67 4l-6 -91q-113 -44 -196 -44q-78 0 -115 28t-37 89q0 98 87 379h-3q-154 -501 -456 -501q-27 0 -54 11q-17 -164 -29 -256l-18 -136l-240 -40l177 1261q7 53 7 68q0 25 -8 34t-27 9q-39 0 -87 -16v91q49 31 126 53t139 22q67 0 87 -15.5t20 -66.5
q0 -43 -14 -139l-72 -505q-12 -87 -12 -135q0 -50 14 -69.5t46 -19.5q47 0 105 47.5t114 129t103 205.5t68 262l44 281h236l-131 -828q-5 -33 -5 -51q0 -35 16 -48t54 -13z" />
    <glyph glyph-name="pi" unicode="&#x3c0;" horiz-adv-x="1275" 
d="M1073 931l-113 -708q-5 -33 -5 -50q0 -33 15.5 -44.5t54.5 -11.5t79 4l-6 -97q-113 -44 -216 -44q-91 0 -130 30.5t-39 105.5q0 39 7 82l117 733h-342l-148 -931h-236l148 931h-162l-22 32l29 109h1192l-23 -141h-200z" />
    <glyph glyph-name="Wgrave" unicode="&#x1e80;" horiz-adv-x="2039" 
d="M1004 1895l378 -253q-24 -67 -59 -106l-408 202q26 83 89 157zM2155 1434l-15 -94l-55 -6q-57 -7 -90.5 -44t-84.5 -149l-520 -1146h-162l-146 1017l-457 -1017h-162l-176 1146q-17 112 -39 147.5t-78 45.5l-39 6l6 94h549l-14 -94l-56 -6q-56 -7 -77.5 -27t-21.5 -73
q0 -25 9 -93l105 -786l466 1079h154l145 -1079l338 786q45 104 45 137q0 28 -23 39.5t-79 17.5l-43 5l15 94h506z" />
    <glyph glyph-name="wgrave" unicode="&#x1e81;" horiz-adv-x="1691" 
d="M793 1553l378 -253q-23 -65 -59 -105l-408 201q26 83 89 157zM1540 1076q58 0 85 -29t27 -91q0 -146 -136.5 -414t-355.5 -552q-71 3 -151 20l-90 515q-22 131 -29 188q-142 -412 -355 -723q-91 3 -168 20l-119 698q-24 140 -43 179t-59 39q-41 0 -86 -16l-7 91
q46 31 117.5 53t123.5 22q42 0 66.5 -9.5t45 -40.5t33.5 -83.5t27 -144.5l39 -265q26 -171 33 -287q93 181 173.5 392.5t129.5 403.5q97 21 197 21q31 -85 62 -280l42 -262q32 -201 39 -275q113 169 187 342t74 268q0 70 -56 70q-31 0 -76 -16l-7 91q46 31 116.5 53
t120.5 22z" />
    <glyph glyph-name="Wacute" unicode="&#x1e82;" horiz-adv-x="2039" 
d="M1453 1738l-408 -202q-35 39 -59 106l377 253q65 -76 90 -157zM2155 1434l-15 -94l-55 -6q-57 -7 -90.5 -44t-84.5 -149l-520 -1146h-162l-146 1017l-457 -1017h-162l-176 1146q-17 112 -39 147.5t-78 45.5l-39 6l6 94h549l-14 -94l-56 -6q-56 -7 -77.5 -27t-21.5 -73
q0 -25 9 -93l105 -786l466 1079h154l145 -1079l338 786q45 104 45 137q0 28 -23 39.5t-79 17.5l-43 5l15 94h506z" />
    <glyph glyph-name="wacute" unicode="&#x1e83;" horiz-adv-x="1691" 
d="M1189 1396l-408 -201q-36 40 -59 105l378 253q63 -74 89 -157zM1540 1076q58 0 85 -29t27 -91q0 -146 -136.5 -414t-355.5 -552q-71 3 -151 20l-90 515q-22 131 -29 188q-142 -412 -355 -723q-91 3 -168 20l-119 698q-24 140 -43 179t-59 39q-41 0 -86 -16l-7 91
q46 31 117.5 53t123.5 22q42 0 66.5 -9.5t45 -40.5t33.5 -83.5t27 -144.5l39 -265q26 -171 33 -287q93 181 173.5 392.5t129.5 403.5q97 21 197 21q31 -85 62 -280l42 -262q32 -201 39 -275q113 169 187 342t74 268q0 70 -56 70q-31 0 -76 -16l-7 91q46 31 116.5 53
t120.5 22z" />
    <glyph glyph-name="Wdieresis" unicode="&#x1e84;" horiz-adv-x="2039" 
d="M994 1585q-46 0 -75.5 31t-29.5 79q0 62 41 102.5t105 40.5q46 0 75 -31.5t29 -79.5q0 -62 -40.5 -102t-104.5 -40zM1385 1585q-46 0 -75.5 31t-29.5 79q0 62 40.5 102.5t104.5 40.5q46 0 75.5 -31.5t29.5 -79.5q0 -62 -40.5 -102t-104.5 -40zM2155 1434l-15 -94l-55 -6
q-57 -7 -90.5 -44t-84.5 -149l-520 -1146h-162l-146 1017l-457 -1017h-162l-176 1146q-17 112 -39 147.5t-78 45.5l-39 6l6 94h549l-14 -94l-56 -6q-56 -7 -77.5 -27t-21.5 -73q0 -25 9 -93l105 -786l466 1079h154l145 -1079l338 786q45 104 45 137q0 28 -23 39.5t-79 17.5
l-43 5l15 94h506z" />
    <glyph glyph-name="wdieresis" unicode="&#x1e85;" horiz-adv-x="1691" 
d="M752 1243q-46 0 -75.5 31.5t-29.5 79.5q0 62 40.5 102t104.5 40q46 0 75.5 -31t29.5 -79q0 -62 -40.5 -102.5t-104.5 -40.5zM1142 1243q-46 0 -75 31.5t-29 79.5q0 62 40.5 102t104.5 40q46 0 75.5 -31t29.5 -79q0 -62 -41 -102.5t-105 -40.5zM1540 1076q58 0 85 -29
t27 -91q0 -146 -136.5 -414t-355.5 -552q-71 3 -151 20l-90 515q-22 131 -29 188q-142 -412 -355 -723q-91 3 -168 20l-119 698q-24 140 -43 179t-59 39q-41 0 -86 -16l-7 91q46 31 117.5 53t123.5 22q42 0 66.5 -9.5t45 -40.5t33.5 -83.5t27 -144.5l39 -265
q26 -171 33 -287q93 181 173.5 392.5t129.5 403.5q97 21 197 21q31 -85 62 -280l42 -262q32 -201 39 -275q113 169 187 342t74 268q0 70 -56 70q-31 0 -76 -16l-7 91q46 31 116.5 53t120.5 22z" />
    <glyph glyph-name="Ygrave" unicode="&#x1ef2;" horiz-adv-x="1318" 
d="M615 1895l378 -253q-24 -67 -59 -106l-408 202q26 83 89 157zM1422 1434l-15 -94l-39 -4q-36 -4 -54.5 -9.5t-44.5 -28t-49 -54.5t-71 -103l-367 -543l-52 -367q-5 -30 -5 -46q0 -36 19.5 -51.5t72.5 -24.5l85 -14l-15 -95h-610l15 95l101 17q47 8 67.5 34t28.5 85
l52 367l-240 543q-33 74 -47 104t-32.5 53.5t-31 28t-40.5 9.5l-26 4l7 94h559l-14 -94l-54 -6q-52 -6 -76.5 -23.5t-24.5 -50.5q0 -32 24 -86l182 -412l271 412q48 72 48 107q0 44 -83 53l-60 6l15 94h504z" />
    <glyph glyph-name="ygrave" unicode="&#x1ef3;" horiz-adv-x="1101" 
d="M428 1553l378 -253q-23 -65 -59 -105l-408 201q26 83 89 157zM940 1076q58 0 85 -29t27 -90q0 -173 -104.5 -433t-290.5 -548q-148 -229 -282.5 -328t-296.5 -99q-46 0 -88 10q-16 36 -16 77q0 55 30 86t84 31q26 0 60 -11t55 -11q84 0 135 84.5t51 225.5q0 97 -25 236
t-86 381q-30 117 -48.5 171.5t-37 75.5t-47.5 21q-41 0 -86 -16l-7 91q46 31 117.5 53t123.5 22q54 0 84.5 -25t56.5 -91.5t62 -213.5q86 -347 86 -590q0 -44 -2 -64q114 194 188 402t74 336q0 52 -13 74t-43 22q-31 0 -76 -16l-7 91q46 31 116.5 53t120.5 22z" />
    <glyph glyph-name="enspace" unicode="&#x2002;" 
 />
    <glyph glyph-name="uni2003" unicode="&#x2003;" horiz-adv-x="2048" 
 />
    <glyph glyph-name="uni2004" unicode="&#x2004;" horiz-adv-x="681" 
 />
    <glyph glyph-name="uni2005" unicode="&#x2005;" horiz-adv-x="512" 
 />
    <glyph glyph-name="uni2006" unicode="&#x2006;" horiz-adv-x="339" 
 />
    <glyph glyph-name="uni2007" unicode="&#x2007;" horiz-adv-x="1155" 
 />
    <glyph glyph-name="uni2008" unicode="&#x2008;" horiz-adv-x="577" 
 />
    <glyph glyph-name="uni2009" unicode="&#x2009;" horiz-adv-x="256" 
 />
    <glyph glyph-name="uni200A" unicode="&#x200a;" horiz-adv-x="153" 
 />
    <glyph glyph-name="zerowidthspace" unicode="&#x200b;" horiz-adv-x="0" 
 />
    <glyph glyph-name="endash" unicode="&#x2013;" horiz-adv-x="1284" 
d="M1158 636l-22 -149h-1024l22 149h1024z" />
    <glyph glyph-name="emdash" unicode="&#x2014;" horiz-adv-x="2308" 
d="M2182 636l-22 -149h-2048l22 149h2048z" />
    <glyph glyph-name="quoteleft" unicode="&#x2018;" horiz-adv-x="501" 
d="M370 1291q44 -10 69 -45t25 -87q0 -77 -49.5 -126.5t-126.5 -49.5q-61 0 -93.5 41.5t-32.5 118.5q0 99 47 192t127 157t173 81q34 -21 37 -67q-143 -61 -176 -215z" />
    <glyph glyph-name="quoteright" unicode="&#x2019;" horiz-adv-x="505" 
d="M404 1549q61 0 93.5 -42t32.5 -119q0 -99 -47 -192t-127 -157t-173 -81q-34 21 -37 68q143 61 176 215q-44 10 -69 45t-25 87q0 77 49.5 126.5t126.5 49.5z" />
    <glyph glyph-name="quotesinglbase" unicode="&#x201a;" horiz-adv-x="497" 
d="M203 286q61 0 93.5 -42t32.5 -119q0 -99 -47 -192t-127 -157t-173 -81q-34 21 -37 67q143 61 176 215q-44 10 -69 45t-25 87q0 77 49.5 127t126.5 50z" />
    <glyph glyph-name="quotedblleft" unicode="&#x201c;" horiz-adv-x="925" 
d="M546 1506q-143 -61 -176 -215q44 -10 69 -45t25 -87q0 -77 -49.5 -126.5t-126.5 -49.5q-61 0 -93.5 41.5t-32.5 118.5q0 99 47 192t127 157t173 81q34 -21 37 -67zM794 1291q44 -10 69.5 -45t25.5 -87q0 -77 -49.5 -126.5t-126.5 -49.5q-61 0 -93.5 41.5t-32.5 118.5
q0 99 47 192t127 157t173 81q34 -21 37 -67q-144 -61 -177 -215z" />
    <glyph glyph-name="quotedblright" unicode="&#x201d;" horiz-adv-x="929" 
d="M404 1549q61 0 93.5 -42t32.5 -119q0 -99 -47 -192t-127 -157t-173 -81q-34 21 -37 68q143 61 176 215q-44 10 -69 45t-25 87q0 77 49.5 126.5t126.5 49.5zM828 1549q61 0 93.5 -42t32.5 -119q0 -151 -102 -277.5t-244 -152.5q-35 22 -38 68q144 61 177 215
q-44 10 -69.5 45t-25.5 87q0 77 49.5 126.5t126.5 49.5z" />
    <glyph glyph-name="quotedblbase" unicode="&#x201e;" horiz-adv-x="921" 
d="M203 286q61 0 93.5 -42t32.5 -119q0 -99 -47 -192t-127 -157t-173 -81q-34 21 -37 67q143 61 176 215q-44 10 -69 45t-25 87q0 77 49.5 127t126.5 50zM627 286q61 0 93.5 -42t32.5 -119q0 -99 -47 -192t-127 -157t-173 -81q-34 21 -37 67q144 61 177 215q-44 10 -69.5 45
t-25.5 87q0 77 49.5 127t126.5 50z" />
    <glyph glyph-name="dagger" unicode="&#x2020;" horiz-adv-x="1003" 
d="M998 977l-26 -182l-81 -4l-16 10q-29 19 -76 19h-179l-87 -618q-40 -284 -110 -560h-113q6 273 46 560l87 618h-179q-55 0 -84 -19l-16 -10l-80 4l25 182l81 4l16 -10q29 -19 76 -19h180l45 322q2 20 2 26q0 31 -23 43l-22 13l15 78h278l-6 -78l-25 -13
q-20 -10 -29 -24.5t-13 -44.5l-45 -322h179q54 0 83 19l17 10z" />
    <glyph glyph-name="daggerdbl" unicode="&#x2021;" horiz-adv-x="1103" 
d="M673 820l-80 -565h179q55 0 84 19l16 10l80 -4l-26 -181l-80 -5l-17 11q-28 18 -75 18h-180l-45 -321q-2 -20 -2 -27q0 -31 23 -43l22 -12l-15 -78h-279l7 78l25 12q20 10 29 24.5t13 45.5l45 321h-179q-55 0 -83 -18l-17 -11l-80 5l26 181l81 4l16 -10q29 -19 76 -19
h179l80 565h-179q-55 0 -84 -19l-17 -10l-80 4l26 182l81 4l16 -10q29 -19 76 -19h179l46 322q2 20 2 26q0 30 -24 43l-21 13l14 78h279l-6 -78l-26 -13q-20 -10 -28.5 -24t-12.5 -45l-46 -322h179q55 0 84 19l17 10l80 -4l-26 -182l-81 -4l-16 10q-29 19 -76 19h-179z" />
    <glyph glyph-name="bullet" unicode="&#x2022;" horiz-adv-x="835" 
d="M134 641q0 145 97 242t243 97q110 0 177.5 -72t67.5 -189q0 -145 -97 -242t-243 -97q-110 0 -177.5 72t-67.5 189z" />
    <glyph glyph-name="ellipsis" unicode="&#x2026;" horiz-adv-x="1452" 
d="M27 109q0 77 50 127t127 50q58 0 93 -37.5t35 -98.5q0 -77 -49.5 -126.5t-126.5 -49.5q-58 0 -93.5 37t-35.5 98zM508 109q0 77 49.5 127t126.5 50q58 0 93.5 -37.5t35.5 -98.5q0 -77 -49.5 -126.5t-126.5 -49.5q-58 0 -93.5 37t-35.5 98zM989 109q0 77 49.5 127
t126.5 50q58 0 93 -37.5t35 -98.5q0 -77 -49.5 -126.5t-126.5 -49.5q-58 0 -93 37t-35 98z" />
    <glyph glyph-name="perthousand" unicode="&#x2030;" horiz-adv-x="2639" 
d="M364 -102h-168l1294 1638h168zM121 992q0 206 111 332t293 126q147 0 223 -75.5t76 -221.5q0 -209 -111 -336t-295 -127q-140 0 -218.5 79.5t-78.5 222.5zM511 1341q-88 0 -146 -102.5t-58 -256.5q0 -86 34 -134t93 -48q85 0 144.5 106t59.5 258q0 177 -127 177z
M1030 285q0 206 111 332t293 126q147 0 223 -75t76 -221q0 -209 -111 -336t-295 -127q-140 0 -218.5 79.5t-78.5 221.5zM1847 285q0 206 111 332t293 126q147 0 222.5 -75t75.5 -221q0 -209 -110.5 -336t-294.5 -127q-140 0 -218.5 79.5t-78.5 221.5zM1420 634
q-88 0 -146 -102.5t-58 -256.5q0 -86 34 -134t93 -48q85 0 144.5 106.5t59.5 258.5q0 176 -127 176zM2237 634q-88 0 -146.5 -103t-58.5 -256q0 -86 34 -134t93 -48q85 0 145 106.5t60 258.5q0 176 -127 176z" />
    <glyph glyph-name="guilsinglleft" unicode="&#x2039;" horiz-adv-x="634" 
d="M587 865l-300 -338q106 -210 189 -352l-104 -71q-46 23 -128.5 134t-186.5 288q320 366 434 422z" />
    <glyph glyph-name="guilsinglright" unicode="&#x203a;" horiz-adv-x="634" 
d="M135 876l103 72q46 -23 129.5 -134.5t186.5 -287.5q-320 -366 -434 -422l-96 82l300 338q-106 210 -189 352z" />
    <glyph glyph-name="fraction" unicode="&#x2044;" horiz-adv-x="425" 
d="M-336 -102h-168l1295 1638h168z" />
    <glyph glyph-name="Euro" unicode="&#x20ac;" horiz-adv-x="1415" 
d="M977 1337q-153 0 -269 -117t-171 -320h417l-15 -112h-426q-11 -63 -16 -142h421l-15 -112h-408q5 -210 84.5 -323.5t225.5 -113.5q140 0 216.5 72t117.5 240l133 -9l-47 -328q-225 -105 -443 -105q-260 0 -399.5 145.5t-147.5 421.5h-179l16 112h166q5 77 16 142h-162
l16 112h173q76 263 264.5 414.5t447.5 151.5q107 0 224.5 -24.5t184.5 -24.5q-14 -172 -51 -358l-139 -9q0 157 -52.5 222t-182.5 65z" />
    <glyph glyph-name="uni2113" unicode="&#x2113;" horiz-adv-x="815" 
d="M465 126q89 0 170 58l9 -106q-142 -103 -296 -103q-119 0 -174 45.5t-55 143.5q0 26 5 68l28 200q-25 -12 -77 -34l-22 107q44 22 118 64l63 449q37 263 128 376t266 113q224 0 224 -233q0 -411 -454 -707l-41 -296q-4 -30 -4 -41q0 -54 27.5 -79t84.5 -25zM474 1107
l-51 -364q125 110 181.5 236t56.5 287q0 56 -14 80.5t-46 24.5q-50 0 -78 -58.5t-49 -205.5z" />
    <glyph glyph-name="uni2116" unicode="&#x2116;" horiz-adv-x="2273" 
d="M1880 729q-138 0 -211.5 72.5t-73.5 207.5q0 199 110 321t291 122q288 0 288 -273q0 -203 -111 -326.5t-293 -123.5zM1071 1434h474l-15 -94l-83 -11q-46 -7 -65.5 -29.5t-26.5 -71.5l-173 -1228h-226l-373 863q-68 156 -113 342q-7 -152 -26 -285l-101 -715
q-3 -19 -3 -34q0 -31 18.5 -43.5t75.5 -23.5l54 -11l-14 -93h-468l15 93l71 14q48 9 66.5 29.5t25.5 68.5l144 1023q3 20 3 34q0 31 -19 44.5t-75 25.5l-40 8l6 94h390l372 -863q65 -152 105 -309q7 128 25 251l101 715q3 19 3 34q0 31 -19 44.5t-75 25.5l-40 8zM1981 1359
q-81 0 -136 -108.5t-55 -266.5q0 -77 28 -119t78 -42q79 0 136 112t57 269q0 76 -27.5 115.5t-80.5 39.5zM1560 595h617l-15 -103h-616z" />
    <glyph glyph-name="uni2117" unicode="&#x2117;" horiz-adv-x="1736" 
d="M883 1487q220 0 396.5 -99t275.5 -275t99 -396q0 -164 -61 -308t-164.5 -245t-245.5 -159t-300 -58q-211 0 -387 98.5t-279.5 276t-103.5 395.5t103.5 395.5t279.5 276t387 98.5zM883 76q173 0 316.5 82t227 229.5t83.5 329.5t-83.5 329.5t-227 229.5t-316.5 82
q-130 0 -245.5 -48.5t-199 -132.5t-132.5 -203.5t-49 -256.5t49 -256.5t132.5 -203.5t199 -132.5t245.5 -48.5zM902 1061q154 0 225.5 -52t71.5 -163q0 -101 -81 -158.5t-224 -57.5q-14 0 -60 4v-132q0 -30 7.5 -40t36.5 -14l49 -8l-2 -63h-334l2 63l28 6q23 5 30 13.5
t7 33.5v448q0 26 -8 34.5t-37 14.5l-20 4l-3 63h73q47 0 121.5 2t117.5 2zM892 711q61 0 93.5 34.5t32.5 100.5q0 72 -29 104.5t-91 32.5q-26 0 -66 -4v-265q36 -3 60 -3z" />
    <glyph glyph-name="trademark" unicode="&#x2122;" horiz-adv-x="1847" 
d="M817 1240l-102 -5q2 80 -10.5 101t-61.5 21h-46l-68 -486q-2 -20 -2 -25q0 -16 8 -22.5t31 -10.5l37 -6l-9 -62h-335l10 62l42 7q23 4 31.5 15.5t13.5 41.5l68 486h-46q-50 0 -68.5 -21.5t-38.5 -100.5l-99 5q4 72 35 194h629q0 -100 -19 -194zM1814 1434l-9 -62l-34 -4
q-23 -3 -32 -13.5t-11 -36.5l-27 -457v-13q0 -19 7.5 -26t31.5 -11l24 -4l-9 -62h-302l9 62l31 5q21 4 28.5 14t9.5 35l20 241q12 138 17 178q-45 -111 -103 -225l-157 -310h-140l-58 302q-19 99 -33 231q-19 -111 -38 -194l-54 -223q-3 -14 -3 -22q0 -13 8 -19t28 -9l24 -4
l-9 -62h-234l9 62l29 5q22 4 29.5 13t13.5 36l107 457q3 12 3 21q0 12 -9 17.5t-33 11.5l-19 4l5 62h271l87 -504l242 504h280z" />
    <glyph glyph-name="Ohm" unicode="&#x2126;" horiz-adv-x="1589" 
d="M959 138h150q103 0 148.5 37.5t76.5 148.5l122 -10q-10 -145 -60 -314h-614l21 154q111 36 202 154.5t143 289t52 355.5q0 188 -77.5 286t-226.5 98q-207 0 -330.5 -193t-123.5 -512q0 -194 58 -322t157 -156l-21 -154h-614q-2 171 31 314l121 10q2 -112 37 -149t139 -37
h147q-141 65 -226 218t-85 346q0 348 198 556t531 208q261 0 402.5 -138t141.5 -394q0 -273 -138.5 -492t-361.5 -304z" />
    <glyph glyph-name="estimated" unicode="&#x212e;" horiz-adv-x="1585" 
d="M407 653v-327q73 -113 183.5 -173.5t230.5 -60.5q85 0 159 22.5t126.5 61t89.5 82.5t61 94h186q-35 -74 -89 -139.5t-130 -122t-180 -90t-223 -33.5q-155 0 -287.5 59t-223.5 160.5t-142.5 239t-51.5 291.5q0 213 94 385t255 268t356 96q220 0 381 -97t242 -265t81 -387
q0 -44 -2 -64h-1116zM821 1341q-128 0 -236 -54.5t-178 -161.5v-334h835v321q-70 114 -180 171.5t-241 57.5z" />
    <glyph glyph-name="uni2153" unicode="&#x2153;" horiz-adv-x="1695" 
d="M1523 1536l-1295 -1638h-168l1295 1638h168zM525 582h-456l9 74l67 9q42 6 61.5 19.5t23.5 41.5l80 562q-53 -19 -129 -33l-29 -5l-2 73l256 119h114l-103 -716q-1 -7 -1 -17q0 -20 15 -29t57 -16l48 -8zM1414 451q164 -35 164 -181q0 -133 -97.5 -208.5t-267.5 -75.5
q-148 0 -244 54q-2 12 -2 26q0 45 21.5 69.5t59.5 24.5q22 0 39.5 -8.5t29.5 -21t24.5 -25t33 -21t48.5 -8.5q71 0 113.5 50.5t42.5 134.5q0 131 -196 131q-21 0 -61 -6l7 100q146 0 214.5 41t68.5 128q0 105 -123 105q-88 0 -177 -68l-18 104q105 74 268 74
q120 0 184.5 -47.5t64.5 -135.5q0 -92 -51 -152.5t-146 -83.5z" />
    <glyph glyph-name="uni2154" unicode="&#x2154;" horiz-adv-x="1808" 
d="M1636 1536l-1294 -1638h-168l1295 1638h167zM608 582h-550l14 100q228 178 319.5 295t91.5 230q0 59 -31 91t-87 32q-89 0 -180 -80l-18 117q51 40 126 62.5t155 22.5q115 0 174.5 -53t59.5 -156q0 -145 -99.5 -275t-314.5 -266q74 9 186 9h171zM1528 451
q163 -35 163 -181q0 -133 -97 -208.5t-267 -75.5q-148 0 -244 54q-2 12 -2 26q0 45 21.5 69.5t59.5 24.5q22 0 39.5 -8.5t29.5 -21t24.5 -25t33 -21t48.5 -8.5q71 0 113.5 50.5t42.5 134.5q0 131 -196 131q-22 0 -62 -6l8 100q146 0 214.5 41t68.5 128q0 105 -124 105
q-87 0 -176 -68l-18 104q105 74 267 74q120 0 185 -47.5t65 -135.5q0 -92 -51 -152.5t-146 -83.5z" />
    <glyph glyph-name="uni2155" unicode="&#x2155;" horiz-adv-x="1695" 
d="M1523 1536l-1295 -1638h-168l1295 1638h168zM525 582h-456l9 74l67 9q42 6 61.5 19.5t23.5 41.5l80 562q-53 -19 -129 -33l-29 -5l-2 73l256 119h114l-103 -716q-1 -7 -1 -17q0 -20 15 -29t57 -16l48 -8zM1251 710l-63 -246q68 62 173 62q104 0 163 -60t59 -165
q0 -152 -95 -233.5t-267 -81.5q-148 0 -244 54q-2 12 -2 26q0 45 21.5 69.5t59.5 24.5q22 0 39.5 -8.5t29.5 -21t24.5 -25t33 -21t48.5 -8.5q68 0 112.5 56.5t44.5 145.5q0 63 -30.5 96t-87.5 33q-65 0 -128 -59l-99 29l116 475h484l-19 -142h-373z" />
    <glyph glyph-name="uni2156" unicode="&#x2156;" horiz-adv-x="1810" 
d="M1636 1536l-1294 -1638h-168l1295 1638h167zM608 582h-550l14 100q228 178 319.5 295t91.5 230q0 59 -31 91t-87 32q-89 0 -180 -80l-18 117q51 40 126 62.5t155 22.5q115 0 174.5 -53t59.5 -156q0 -145 -99.5 -275t-314.5 -266q74 9 186 9h171zM1364 710l-62 -246
q68 62 173 62q104 0 163 -60t59 -165q0 -152 -95 -233.5t-267 -81.5q-148 0 -244 54q-2 12 -2 26q0 45 21.5 69.5t59.5 24.5q22 0 39.5 -8.5t29.5 -21t24.5 -25t33 -21t48.5 -8.5q68 0 112.5 56.5t44.5 145.5q0 63 -30.5 96t-87.5 33q-65 0 -128 -59l-99 29l116 475h484
l-19 -142h-374z" />
    <glyph glyph-name="uni2157" unicode="&#x2157;" horiz-adv-x="1837" 
d="M1665 1536l-1295 -1638h-168l1295 1638h168zM670 852q0 -133 -97 -209t-267 -76q-147 0 -245 55q-2 12 -2 25q0 45 22 70t60 25q22 0 39.5 -8.5t29.5 -21t24.5 -25t33 -21t48.5 -8.5q71 0 113.5 50.5t42.5 133.5q0 132 -197 132q-21 0 -61 -6l7 99q145 0 214 41.5
t69 128.5q0 105 -123 105q-87 0 -177 -69l-18 105q105 74 268 74q120 0 185 -47.5t65 -135.5q0 -92 -51.5 -152.5t-146.5 -83.5q164 -35 164 -181zM1393 710l-63 -246q68 62 173 62q104 0 163 -60t59 -165q0 -152 -95 -233.5t-267 -81.5q-148 0 -244 54q-2 12 -2 26
q0 45 21.5 69.5t59.5 24.5q22 0 39.5 -8.5t29.5 -21t24.5 -25t33 -21t48.5 -8.5q68 0 112.5 56.5t44.5 145.5q0 63 -30.5 96t-87.5 33q-65 0 -128 -59l-99 29l116 475h484l-19 -142h-373z" />
    <glyph glyph-name="uni2158" unicode="&#x2158;" horiz-adv-x="1875" 
d="M1703 1536l-1294 -1638h-168l1295 1638h167zM440 797h-377l11 80l461 558h171l-74 -525h100l-17 -113h-99l-31 -215h-175zM466 910l48 336l-285 -336h237zM1431 710l-62 -246q68 62 173 62q104 0 163 -60t59 -165q0 -152 -95 -233.5t-267 -81.5q-148 0 -244 54
q-2 12 -2 26q0 45 21.5 69.5t59.5 24.5q22 0 39.5 -8.5t29.5 -21t24.5 -25t33 -21t48.5 -8.5q68 0 112.5 56.5t44.5 145.5q0 63 -30.5 96t-87.5 33q-65 0 -128 -59l-99 29l116 475h484l-19 -142h-374z" />
    <glyph glyph-name="uni2159" unicode="&#x2159;" horiz-adv-x="1736" 
d="M1523 1536l-1295 -1638h-168l1295 1638h168zM525 582h-456l9 74l67 9q42 6 61.5 19.5t23.5 41.5l80 562q-53 -19 -129 -33l-29 -5l-2 73l256 119h114l-103 -716q-1 -7 -1 -17q0 -20 15 -29t57 -16l48 -8zM1500 766q-123 0 -196.5 -87t-102.5 -266q65 126 228 126
q97 0 149 -57t52 -162q0 -154 -94 -244t-255 -90q-259 0 -259 295q0 276 125 432.5t345 156.5q112 0 187 -35l-26 -103q-74 34 -153 34zM1355 424q-66 0 -110.5 -61t-44.5 -153q0 -59 26 -92.5t72 -33.5q65 0 107 62.5t42 159.5q0 58 -24 88t-68 30z" />
    <glyph glyph-name="uni215A" unicode="&#x215a;" horiz-adv-x="1878" 
d="M1665 1536l-1294 -1638h-168l1294 1638h168zM676 883q0 -152 -95.5 -234t-266.5 -82q-146 0 -244 55q-2 12 -2 25q0 45 21.5 70t59.5 25q22 0 39.5 -8.5t29.5 -21t24.5 -25t33 -21t48.5 -8.5q68 0 112 56.5t44 145.5q0 63 -30 96t-87 33q-65 0 -129 -60l-99 30l116 475
h485l-20 -142h-373l-63 -246q67 61 174 61q104 0 163 -60t59 -164zM1643 766q-123 0 -196.5 -87t-102.5 -266q65 126 227 126q97 0 149 -57t52 -162q0 -154 -94 -244t-255 -90q-259 0 -259 295q0 275 125.5 432t345.5 157q111 0 186 -35l-26 -103q-74 34 -152 34zM1497 424
q-66 0 -110.5 -61t-44.5 -153q0 -59 26 -92.5t73 -33.5q65 0 106.5 62.5t41.5 159.5q0 58 -24 88t-68 30z" />
    <glyph glyph-name="oneeighth" unicode="&#x215b;" horiz-adv-x="1722" 
d="M1523 1536l-1295 -1638h-168l1295 1638h168zM525 582h-456l9 74l67 9q42 6 61.5 19.5t23.5 41.5l80 562q-53 -19 -129 -33l-29 -5l-2 73l256 119h114l-103 -716q-1 -7 -1 -17q0 -20 15 -29t57 -16l48 -8zM1446 479q77 -45 119 -91t42 -117q0 -127 -96 -206t-250 -79
q-127 0 -194.5 51.5t-67.5 148.5q0 184 203 252q-56 35 -87.5 77t-31.5 101q0 120 84.5 187t233.5 67q114 0 175.5 -46t61.5 -131q0 -159 -192 -214zM1391 783q-54 0 -88.5 -33.5t-34.5 -87.5q0 -43 26.5 -75t74.5 -63q117 55 117 167q0 44 -25 68t-70 24zM1270 73
q68 0 109.5 39.5t41.5 106.5q0 57 -35 95t-102 76q-131 -65 -131 -195q0 -56 31.5 -89t85.5 -33z" />
    <glyph glyph-name="threeeighths" unicode="&#x215c;" horiz-adv-x="1865" 
d="M1665 1536l-1295 -1638h-168l1295 1638h168zM670 852q0 -133 -97 -209t-267 -76q-147 0 -245 55q-2 12 -2 25q0 45 22 70t60 25q22 0 39.5 -8.5t29.5 -21t24.5 -25t33 -21t48.5 -8.5q71 0 113.5 50.5t42.5 133.5q0 132 -197 132q-21 0 -61 -6l7 99q145 0 214 41.5
t69 128.5q0 105 -123 105q-87 0 -177 -69l-18 105q105 74 268 74q120 0 185 -47.5t65 -135.5q0 -92 -51.5 -152.5t-146.5 -83.5q164 -35 164 -181zM1588 479q77 -45 119 -91t42 -117q0 -127 -96 -206t-250 -79q-127 0 -194.5 51.5t-67.5 148.5q0 184 203 252
q-56 35 -87.5 77t-31.5 101q0 120 84.5 187t233.5 67q114 0 175.5 -46t61.5 -131q0 -159 -192 -214zM1533 783q-54 0 -88.5 -33.5t-34.5 -87.5q0 -43 26.5 -75t74.5 -63q117 55 117 167q0 44 -25 68t-70 24zM1412 73q68 0 109.5 39.5t41.5 106.5q0 57 -35 95t-102 76
q-131 -65 -131 -195q0 -56 31.5 -89t85.5 -33z" />
    <glyph glyph-name="fiveeighths" unicode="&#x215d;" horiz-adv-x="1865" 
d="M1665 1536l-1294 -1638h-168l1294 1638h168zM676 883q0 -152 -95.5 -234t-266.5 -82q-146 0 -244 55q-2 12 -2 25q0 45 21.5 70t59.5 25q22 0 39.5 -8.5t29.5 -21t24.5 -25t33 -21t48.5 -8.5q68 0 112 56.5t44 145.5q0 63 -30 96t-87 33q-65 0 -129 -60l-99 30l116 475
h485l-20 -142h-373l-63 -246q67 61 174 61q104 0 163 -60t59 -164zM1588 479q77 -45 119 -91t42 -117q0 -127 -96 -206t-250 -79q-127 0 -194 51.5t-67 148.5q0 91 51.5 155t150.5 97q-118 74 -118 178q0 120 84 187t233 67q114 0 176 -46t62 -131q0 -159 -193 -214z
M1533 783q-54 0 -88.5 -33.5t-34.5 -87.5q0 -43 26.5 -75t74.5 -63q117 55 117 167q0 44 -25 68t-70 24zM1413 73q68 0 109 39.5t41 106.5q0 57 -35 95t-102 76q-131 -65 -131 -195q0 -56 32 -89t86 -33z" />
    <glyph glyph-name="seveneighths" unicode="&#x215e;" horiz-adv-x="1759" 
d="M1559 1536l-1295 -1638h-168l1295 1638h168zM246 889q115 199 302 407h-410l20 138h573l-8 -93l-95 -144q-163 -247 -258 -478q-35 -85 -53 -142q-35 -8 -74 -8q-50 0 -71.5 18.5t-21.5 61.5q0 41 21 94t75 146zM1482 479q77 -45 119 -91t42 -117q0 -127 -96 -206
t-250 -79q-127 0 -194.5 51.5t-67.5 148.5q0 184 203 252q-56 35 -87.5 77t-31.5 101q0 120 84.5 187t233.5 67q114 0 175.5 -46t61.5 -131q0 -159 -192 -214zM1427 783q-54 0 -88.5 -33.5t-34.5 -87.5q0 -43 26.5 -75t74.5 -63q117 55 117 167q0 44 -25 68t-70 24zM1306 73
q68 0 109.5 39.5t41.5 106.5q0 57 -35 95t-102 76q-131 -65 -131 -195q0 -56 31.5 -89t85.5 -33z" />
    <glyph glyph-name="onefraction" unicode="&#x215f;" horiz-adv-x="989" 
d="M1523 1536l-1295 -1638h-168l1295 1638h168zM525 582h-456l9 74l67 9q42 6 61.5 19.5t23.5 41.5l80 562q-53 -19 -129 -33l-29 -5l-2 73l256 119h114l-103 -716q-1 -7 -1 -17q0 -20 15 -29t57 -16l48 -8z" />
    <glyph glyph-name="arrowleft" unicode="&#x2190;" horiz-adv-x="1646" 
d="M1557 455h-974q-93 0 -208 9q62 -58 155 -178l255 -328l-95 -54l-628 628l628 629l95 -54l-255 -328q-93 -120 -155 -178q115 9 208 9h974v-155z" />
    <glyph glyph-name="arrowup" unicode="&#x2191;" horiz-adv-x="1646" 
d="M1466 680l-54 -95l-328 255q-120 93 -178 155q9 -115 9 -208v-974h-154v974q0 106 8 208q-58 -62 -178 -155l-328 -255l-54 95l629 628z" />
    <glyph glyph-name="arrowright" unicode="&#x2192;" horiz-adv-x="1646" 
d="M1614 532l-629 -628l-94 54l254 328q90 116 156 178q-115 -9 -209 -9h-974v155h974q94 0 209 -9q-66 62 -156 178l-254 328l94 54z" />
    <glyph glyph-name="arrowdown" unicode="&#x2193;" horiz-adv-x="1646" 
d="M1466 385l-628 -628l-629 628l54 95l328 -255q120 -93 178 -155q-8 102 -8 208v974h154v-974q0 -93 -9 -208q58 62 178 155l328 255z" />
    <glyph glyph-name="uni2196" unicode="&#x2196;" horiz-adv-x="1646" 
d="M1400 79l-109 -109l-688 689q-76 76 -142 153q0 -5 0.5 -14.5t0.5 -14.5q0 -70 -17 -206l-52 -413l-105 29v889h889l29 -105l-412 -52q-128 -16 -207 -16h-29q84 -72 154 -142z" />
    <glyph glyph-name="uni2197" unicode="&#x2197;" horiz-adv-x="1646" 
d="M1387 1082v-889l-105 -29l-52 412q-16 128 -16 207v29q-72 -84 -141 -153l-689 -689l-109 109l689 688q76 76 153 142h-29q-78 0 -206 16l-413 52l29 105h889z" />
    <glyph glyph-name="uni2198" unicode="&#x2198;" horiz-adv-x="1646" 
d="M1387 872v-889h-889l-29 105l413 52q128 16 206 16h29q-84 72 -153 141l-689 689l109 109l689 -689q69 -69 141 -153v29q0 78 16 206l52 413z" />
    <glyph glyph-name="uni2199" unicode="&#x2199;" horiz-adv-x="1646" 
d="M587 156q79 0 207 -16l412 -52l-29 -105h-889v889l105 29l52 -413q16 -128 16 -206v-29q66 77 142 153l688 689l109 -109l-688 -689q-63 -63 -154 -141h29z" />
    <glyph glyph-name="partialdiff" unicode="&#x2202;" horiz-adv-x="1138" 
d="M544 1451q258 0 392.5 -139.5t134.5 -405.5q0 -257 -84 -470.5t-231 -336t-324 -122.5q-191 0 -294.5 97t-103.5 276q0 253 136.5 414.5t349.5 161.5q295 0 307 -322h2q37 150 37 273q0 201 -96.5 316.5t-263.5 115.5q-74 0 -138 -16l3 137q69 21 173 21zM437 121
q119 0 201.5 117t82.5 288q0 125 -44.5 189.5t-130.5 64.5q-119 0 -196.5 -122t-77.5 -307q0 -112 42.5 -171t122.5 -59z" />
    <glyph glyph-name="increment" unicode="&#x2206;" horiz-adv-x="1425" 
d="M1292 0h-1322l788 1438h151zM751 1108l-534 -980h794z" />
    <glyph glyph-name="product" unicode="&#x220f;" horiz-adv-x="1511" 
d="M1533 1340l-83 -11q-46 -7 -65.5 -29.5t-26.5 -71.5l-194 -1381q-3 -19 -3 -34q0 -31 19 -44t75 -24l54 -10l-14 -93h-547l14 93l71 13q46 9 64.5 30t25.5 69l205 1458h-556l-203 -1458q-3 -20 -3 -34q0 -32 18.5 -45t73.5 -23l54 -10l-14 -93h-548l15 93l71 13
q47 9 66 29.5t26 69.5l194 1381q2 13 2 34q0 32 -19 45t-75 25l-40 8l7 94h1350z" />
    <glyph glyph-name="summation" unicode="&#x2211;" horiz-adv-x="1251" 
d="M1207 1061l-150 -9q3 87 -1 134t-22 78t-48.5 40t-86.5 9h-464l319 -756l-558 -752h493q56 0 89 9t60 39.5t43.5 78t37.5 134.5l149 -9q-26 -243 -75 -415h-1058l7 99l567 764l-344 830l22 99h1058q-1 -179 -38 -373z" />
    <glyph glyph-name="minus" unicode="&#x2212;" horiz-adv-x="1161" 
d="M1013 492h-899l20 140h898z" />
    <glyph glyph-name="radical" unicode="&#x221a;" horiz-adv-x="1210" 
d="M1316 1495l-729 -1500h-194l-151 834q-11 64 -31 89t-66 33l-54 9l6 91h346l130 -767l571 1211h172z" />
    <glyph glyph-name="infinity" unicode="&#x221e;" horiz-adv-x="1896" 
d="M1509 965q142 0 225 -71t83 -193q0 -169 -136.5 -284.5t-336.5 -115.5q-118 0 -199 40t-238 178q-166 -116 -285.5 -167t-226.5 -51q-142 0 -225 71.5t-83 192.5q0 170 136 285t336 115q118 0 199 -40t238 -178q166 116 286 167t227 51zM1407 469q93 0 154 60.5t61 150.5
q0 71 -44 111t-123 40q-61 0 -142 -39t-215 -135q126 -110 190 -149t119 -39zM281 586q0 -71 44 -111t123 -40q61 0 142.5 39.5t215.5 134.5q-126 110 -190.5 149t-119.5 39q-93 0 -154 -60.5t-61 -150.5z" />
    <glyph glyph-name="integral" unicode="&#x222b;" horiz-adv-x="747" 
d="M247 666q0 412 90.5 602t287.5 190q98 0 188 -50q4 -20 4 -39q0 -49 -24 -76.5t-67 -27.5q-30 0 -50.5 13.5t-29 29.5t-22 29.5t-30.5 13.5q-55 0 -88.5 -175t-33.5 -459q0 -51 4.5 -154t4.5 -154q0 -412 -90.5 -602t-287.5 -190q-98 0 -188 50q-4 20 -4 39q0 49 24 76.5
t67 27.5q30 0 50.5 -13.5t29 -29.5t22 -29.5t30.5 -13.5q55 0 88.5 175t33.5 459q0 52 -4.5 154t-4.5 154z" />
    <glyph glyph-name="approxequal" unicode="&#x2248;" horiz-adv-x="1187" 
d="M839 757q67 0 117 23.5t104 80.5l27 -108q-122 -137 -276 -137q-72 0 -135 13.5t-101 29t-89 29t-102 13.5q-68 0 -118 -23.5t-104 -80.5l-26 108q122 137 276 137q72 0 135 -13.5t101 -29t89 -29t102 -13.5zM796 451q68 0 117.5 23t103.5 80l26 -108
q-122 -137 -276 -137q-72 0 -135 13.5t-101 29t-89 29t-102 13.5q-68 0 -117.5 -23t-103.5 -80l-27 107q122 137 276 137q90 0 164.5 -21t137.5 -42t126 -21z" />
    <glyph glyph-name="notequal" unicode="&#x2260;" horiz-adv-x="1150" 
d="M681 656l-86 -173h434l-20 -139h-483l-128 -259l-107 56l101 203h-325l20 139h374l86 173h-436l19 139h485l129 258l106 -55l-100 -203h323l-20 -139h-372z" />
    <glyph glyph-name="lessequal" unicode="&#x2264;" horiz-adv-x="970" 
d="M897 964l-562 -248l491 -247l-22 -165l-686 364l14 105l789 363zM50 185h737l-20 -139h-737z" />
    <glyph glyph-name="greaterequal" unicode="&#x2265;" horiz-adv-x="970" 
d="M886 773l-14 -105l-789 -364l24 172l561 248l-490 247l22 165zM66 185h737l-20 -139h-737z" />
    <glyph glyph-name="filledbox" unicode="&#x25a0;" horiz-adv-x="1843" 
d="M1653 0h-1434v1434h1434v-1434z" />
    <glyph glyph-name="whiteSquare" unicode="&#x25a1;" horiz-adv-x="1843" 
d="M1653 0h-1434v1434h1434v-1434zM1488 165v1104h-1104v-1104h1104z" />
    <glyph glyph-name="triagup" unicode="&#x25b2;" horiz-adv-x="1372" 
d="M1243 236h-1085l542 1095z" />
    <glyph glyph-name="whiteuppointingtriangle" unicode="&#x25b3;" horiz-adv-x="1372" 
d="M1243 236h-1085l542 1095zM700 990l-288 -600h576z" />
    <glyph glyph-name="blackuppointingsmalltriangle" unicode="&#x25b4;" horiz-adv-x="958" 
d="M901 369h-815l408 821z" />
    <glyph glyph-name="whiteuppointingsmalltriangle" unicode="&#x25b5;" horiz-adv-x="958" 
d="M901 369h-815l408 821zM670 508l-176 366l-177 -366h353z" />
    <glyph glyph-name="blackrightpointingtriangle" unicode="&#x25b6;" horiz-adv-x="1372" 
d="M219 174v1086l1096 -543z" />
    <glyph glyph-name="whiterightpointingtriangle" unicode="&#x25b7;" horiz-adv-x="1372" 
d="M219 174v1086l1096 -543zM974 717l-600 288v-576z" />
    <glyph glyph-name="uni25B8" unicode="&#x25b8;" horiz-adv-x="958" 
d="M117 309v815l821 -407z" />
    <glyph glyph-name="whiterightpointingsmalltriangle" unicode="&#x25b9;" horiz-adv-x="958" 
d="M117 309v815l821 -407zM256 541l366 176l-366 176v-352z" />
    <glyph glyph-name="triagdn" unicode="&#x25bc;" horiz-adv-x="1372" 
d="M158 1208h1085l-543 -1095z" />
    <glyph glyph-name="whitedownpointingtriangle" unicode="&#x25bd;" horiz-adv-x="1372" 
d="M158 1208h1085l-543 -1095zM700 454l288 600h-576z" />
    <glyph glyph-name="uni25BE" unicode="&#x25be;" horiz-adv-x="958" 
d="M86 1075h815l-407 -821z" />
    <glyph glyph-name="whitedownpointingsmalltriangle" unicode="&#x25bf;" horiz-adv-x="958" 
d="M86 1075h815l-407 -821zM317 936l177 -366l176 366h-353z" />
    <glyph glyph-name="blackleftpointingtriangle" unicode="&#x25c0;" horiz-adv-x="1372" 
d="M1182 1260v-1086l-1096 543z" />
    <glyph glyph-name="whiteleftpointingtriangle" unicode="&#x25c1;" horiz-adv-x="1372" 
d="M1182 1260v-1086l-1096 543zM427 717l600 -288v576z" />
    <glyph glyph-name="uni25C2" unicode="&#x25c2;" horiz-adv-x="958" 
d="M870 1124v-815l-821 408z" />
    <glyph glyph-name="whiteleftpointingsmalltriangle" unicode="&#x25c3;" horiz-adv-x="958" 
d="M870 1124v-815l-821 408zM731 893l-366 -176l366 -176v352z" />
    <glyph glyph-name="blackDiamond" unicode="&#x25c6;" horiz-adv-x="1114" 
d="M1077 717l-506 -506l-505 506l505 506z" />
    <glyph glyph-name="whiteDiamond" unicode="&#x25c7;" horiz-adv-x="1114" 
d="M1077 717l-506 -506l-505 506l505 506zM868 717l-297 296l-296 -296l296 -297z" />
    <glyph glyph-name="whitediamondcontainingblacksmalldiamond" unicode="&#x25c8;" horiz-adv-x="1114" 
d="M1077 717l-506 -506l-505 506l505 506zM878 717l-307 306l-306 -306l306 -307zM571 838l121 -121l-121 -121l-121 121z" />
    <glyph glyph-name="lozenge" unicode="&#x25ca;" horiz-adv-x="1167" 
d="M1127 717l-568 -722h-148l-342 722l567 721h148zM909 718l-234 496l-389 -499l234 -495z" />
    <glyph glyph-name="whitecircle" unicode="&#x25cb;" horiz-adv-x="1843" 
d="M117 717q0 167 65 318.5t174.5 261t261 174.5t318.5 65t318.5 -65t261 -174.5t174.5 -261t65 -318.5t-65 -318.5t-174.5 -261t-261 -174.5t-318.5 -65t-318.5 65t-261 174.5t-174.5 261t-65 318.5zM287 717q0 -176 87 -325.5t236.5 -236.5t325.5 -87t325.5 87
t236.5 236.5t87 325.5t-87 325.5t-236.5 236.5t-325.5 87t-325.5 -87t-236.5 -236.5t-87 -325.5z" />
    <glyph glyph-name="blackcircle" unicode="&#x25cf;" horiz-adv-x="1843" 
d="M117 717q0 167 65 318.5t174.5 261t261 174.5t318.5 65t318.5 -65t261 -174.5t174.5 -261t65 -318.5t-65 -318.5t-174.5 -261t-261 -174.5t-318.5 -65t-318.5 65t-261 174.5t-174.5 261t-65 318.5z" />
    <glyph glyph-name="uni25FB" unicode="&#x25fb;" horiz-adv-x="1314" 
d="M1145 244h-946v946h946v-946zM988 401v632h-632v-632h632z" />
    <glyph glyph-name="uni25FC" unicode="&#x25fc;" horiz-adv-x="1314" 
d="M1145 244h-946v946h946v-946z" />
    <glyph glyph-name="uni25FD" unicode="&#x25fd;" horiz-adv-x="958" 
d="M852 358h-717v717h717v-717zM703 507v419h-419v-419h419z" />
    <glyph glyph-name="uni25FE" unicode="&#x25fe;" horiz-adv-x="958" 
d="M852 358h-717v717h717v-717z" />
    <glyph glyph-name="threequartersemdash" unicode="&#xf6de;" horiz-adv-x="1796" 
d="M1670 636l-22 -149h-1536l22 149h1536z" />
    <glyph glyph-name="J.titl" horiz-adv-x="1054" 
d="M1093 1340l-83 -11q-46 -7 -65.5 -29.5t-26.5 -71.5l-107 -781q-37 -269 -148.5 -374.5t-358.5 -105.5q-153 0 -236 67t-83 191q0 71 32 140q40 36 104 36q47 0 72.5 -21t25.5 -60q0 -18 -10 -57t-10 -64q0 -56 36 -87t102 -31q100 0 148 61.5t70 216.5l118 844
q4 24 4 46q0 36 -19 51t-72 23l-90 14l7 97h605z" />
    <glyph glyph-name="IJ.titl" horiz-adv-x="1779" 
d="M744 1340l-83 -11q-46 -7 -65.5 -29.5t-26.5 -71.5l-144 -1023q-3 -19 -3 -34q0 -31 18.5 -43.5t75.5 -23.5l54 -11l-14 -93h-550l15 93l71 14q48 9 66.5 29.5t25.5 68.5l144 1023q3 20 3 34q0 31 -19 44.5t-75 25.5l-40 8l6 94h555zM1819 1340l-83 -11
q-46 -7 -65.5 -29.5t-26.5 -71.5l-107 -781q-37 -269 -148.5 -374.5t-358.5 -105.5q-153 0 -236 67t-83 191q0 71 32 140q41 36 104 36q47 0 72.5 -21t25.5 -60q0 -18 -10 -57t-10 -64q0 -56 36 -87t102 -31q100 0 148 61.5t70 216.5l118 844q4 24 4 46q0 36 -19 51t-72 23
l-90 14l7 97h605z" />
    <glyph glyph-name="Jcircumflex.titl" horiz-adv-x="1054" 
d="M843 1699l-252 -147q-39 41 -57 100l335 241l266 -245q-29 -57 -73 -96zM503 1434h605l-15 -94l-83 -11q-46 -7 -65.5 -29.5t-26.5 -71.5l-107 -781q-37 -269 -148.5 -374.5t-358.5 -105.5q-153 0 -236 67t-83 191q0 71 32 140q40 36 104 36q47 0 72.5 -21t25.5 -60
q0 -18 -10 -57t-10 -64q0 -56 36 -87t102 -31q100 0 148 61.5t70 216.5l118 844q4 24 4 46q0 36 -19 51t-72 23l-90 14z" />
    </font>
</defs>
</svg>
