<?xml version="1.0" standalone="no"?>
<!DOCTYPE svg PUBLIC "-//W3C//DTD SVG 1.1//EN" "http://www.w3.org/Graphics/SVG/1.1/DTD/svg11.dtd" >
<svg xmlns="http://www.w3.org/2000/svg" xmlns:xlink="http://www.w3.org/1999/xlink" version="1.1">
<metadata>
Created by FontForge 20170731 at Thu Oct  8 12:50:50 2020
 By Aleksey,,,
Copyright (c) Stefan Willerstorfer 2009-2014. All rights reserved.
</metadata>
<defs>
<font id="Sindelar-Medium" horiz-adv-x="1024" >
  <font-face 
    font-family="Sindelar Medium"
    font-weight="500"
    font-stretch="normal"
    units-per-em="2048"
    panose-1="2 4 6 3 4 4 6 2 2 4"
    ascent="1556"
    descent="-492"
    x-height="1051"
    cap-height="1434"
    bbox="-398 -720 2643 1937"
    underline-thickness="145"
    underline-position="-410"
    unicode-range="U+0020-FB04"
  />
<missing-glyph horiz-adv-x="1189" 
d="M1016 1434v-1434h-842v1434h842zM854 1331h-518l259 -524zM276 162l275 555l-275 555v-1110zM913 1272l-274 -555l274 -555v1110zM336 102h518l-259 525z" />
    <glyph glyph-name="f_f" unicode="ff" horiz-adv-x="1445" 
d="M1527 1482q10 -27 10 -56q0 -49 -27.5 -78t-74.5 -29q-45 0 -83 20.5t-74.5 41t-77.5 20.5q-47 0 -66.5 -35t-19.5 -121v-194h271h21v-128h-290v-713q0 -56 17 -73t84 -27l91 -13l-4 -97h-556l4 94l50 11q43 10 56 27.5t13 67.5v723h-414v-723q0 -57 15.5 -73.5
t78.5 -25.5l56 -7l-4 -94h-516l4 94l52 11q43 10 56 27.5t13 67.5v723h-131l-4 105l137 21v53q0 199 109.5 297t314.5 98q167 0 320 -67q105 88 290 88q157 0 279 -36zM873 1051v71q0 106 7 152q-43 6 -88.5 33t-94.5 50t-107 23q-68 0 -101.5 -42.5t-33.5 -150.5v-136h418z
" />
    <glyph glyph-name="fi" unicode="fi" horiz-adv-x="1306" 
d="M1268 94l-4 -94h-516l4 94l50 11q43 10 56 27.5t13 67.5v621q0 56 -23 79t-79 23h-312v-723q0 -57 15.5 -73.5t78.5 -25.5l56 -7l-4 -94h-516l4 94l52 11q43 10 56 27.5t13 67.5v723h-131l-4 105l137 21v73q0 199 109.5 297.5t314.5 98.5q124 0 241 -24t171 -64
q9 -24 9 -56q0 -52 -29 -81t-85 -29q-50 0 -95.5 21.5t-76.5 47t-79.5 47t-103.5 21.5q-68 0 -101.5 -42.5t-33.5 -150.5v-157h499l162 18v-869q0 -56 16.5 -73t80.5 -26z" />
    <glyph glyph-name="fl" unicode="fl" horiz-adv-x="1323" 
d="M1278 94l-4 -94h-516l4 94l50 11q43 10 56 27.5t13 67.5v1096q-39 9 -85.5 36.5t-96 48t-109.5 20.5q-68 0 -101.5 -42.5t-33.5 -150.5v-157h269v-128h-267v-723q0 -56 16.5 -73t80.5 -26l55 -7l-4 -94h-518l4 94l52 11q43 10 56 27.5t13 67.5v723h-131l-4 105l137 21v73
q0 199 109.5 297.5t314.5 98.5q186 0 334 -45l154 24v-1297q0 -56 16.5 -73t80.5 -26z" />
    <glyph glyph-name="f_f_i" unicode="ffi" horiz-adv-x="1966" 
d="M1927 94l-4 -94h-517l5 94l50 11q43 10 56 27.5t13 67.5v621q0 56 -23 79t-79 23h-312v-723q0 -57 15.5 -73.5t78.5 -25.5l56 -7l-4 -94h-514l4 94l50 11q43 10 56 27.5t13 67.5v723h-414v-723q0 -57 15.5 -73.5t78.5 -25.5l56 -7l-4 -94h-516l4 94l52 11q43 10 56 27.5
t13 67.5v723h-131l-4 105l137 21v53q0 199 109.5 297t314.5 98q171 0 320 -67q108 88 339 88q124 0 240.5 -24t170.5 -64q10 -27 10 -56q0 -52 -29 -81t-85 -29q-50 0 -95.5 21.5t-76.5 47t-79.5 47t-103.5 21.5q-68 0 -101.5 -42.5t-33.5 -150.5v-157h287h212l162 18v-869
q0 -57 16 -73.5t80 -25.5zM873 1051v71q0 106 7 152q-43 6 -88.5 33t-94.5 50t-107 23q-68 0 -101.5 -42.5t-33.5 -150.5v-136h418z" />
    <glyph glyph-name="f_f_l" unicode="ffl" horiz-adv-x="1980" 
d="M1937 94l-4 -94h-516l4 94l50 11q43 10 56 27.5t13 67.5v1096q-39 9 -85.5 36.5t-96 48t-109.5 20.5q-68 0 -101.5 -42.5t-33.5 -150.5v-157h249h20v-128h-267v-723q0 -56 16.5 -73t80.5 -26l55 -7l-4 -94h-516l4 94l50 11q43 10 56 27.5t13 67.5v723h-414v-723
q0 -56 16 -72.5t79 -25.5l55 -8l-4 -94h-516l4 94l52 11q43 10 56 27.5t13 67.5v723h-131l-4 105l137 21v53q0 199 109.5 297t314.5 98q169 0 320 -68q109 89 339 89q186 0 334 -45l154 24v-1297q0 -56 16.5 -73t80.5 -26zM873 1051v71q0 106 7 152q-43 6 -88.5 33t-94.5 50
t-107 23q-68 0 -101.5 -42.5t-33.5 -150.5v-136h418z" />
    <glyph glyph-name="f_b.liga" unicode="fb" horiz-adv-x="1923" 
d="M1414 1076q200 0 309.5 -143t109.5 -406q0 -248 -131 -400t-345 -152q-163 0 -262 94l-134 -94l-90 27v1297q-30 9 -65 27.5t-61.5 34t-67.5 28t-87 12.5q-68 0 -101.5 -42.5t-33.5 -150.5v-157h259v-128h-257v-713q0 -56 17 -73t84 -27l92 -13l-5 -97h-558l4 94l52 11
q43 10 56 27.5t13 67.5v723h-131l-4 105l137 21v73q0 199 109.5 297.5t314.5 98.5q186 0 331 -44l147 23v-358q0 -119 -5 -231q51 80 129 124t174 44zM1306 113q131 0 199.5 105t68.5 305q0 193 -62.5 295.5t-178.5 102.5q-141 0 -217 -144v-566q78 -98 190 -98z" />
    <glyph glyph-name="f_h.liga" unicode="fh" horiz-adv-x="1947" 
d="M1924 94l-4 -94h-511l4 94l50 11q40 9 52 25t12 62v515q0 214 -173 214q-149 0 -228 -145v-584q0 -52 15 -66.5t76 -23.5l54 -8l-4 -94h-509l4 94l50 11q43 10 56 27.5t13 67.5v1096q-39 9 -85.5 36.5t-96 48t-109.5 20.5q-68 0 -101.5 -42.5t-33.5 -150.5v-157h269v-128
h-267v-723q0 -56 16.5 -73t80.5 -26l55 -7l-4 -94h-518l4 94l52 11q43 10 56 27.5t13 67.5v723h-131l-4 105l137 21v73q0 199 109.5 297.5t314.5 98.5q186 0 334 -45l154 24v-358q0 -144 -4 -233q52 81 133 125.5t181 44.5q165 0 250.5 -88.5t85.5 -259.5v-528
q0 -56 16.5 -73t80.5 -26z" />
    <glyph glyph-name="f_j.liga" unicode="fj" horiz-adv-x="1267" 
d="M1116 1069v-755q0 -229 -36.5 -378t-118.5 -237q-107 -116 -308 -150q-39 34 -39 98q0 68 68 93q19 7 65.5 14t69.5 22q33 21 42 98t9 333v614q0 56 -22.5 79t-78.5 23h-310v-715q0 -56 16 -72.5t81 -25.5l87 -13l-4 -97h-550l4 94l52 11q43 10 56 27.5t13 67.5v723h-131
l-4 105l137 21v73q0 199 109.5 297.5t314.5 98.5q124 0 241 -24t171 -64q9 -24 9 -56q0 -52 -29 -81t-85 -29q-50 0 -95.5 21.5t-76.5 47t-79.5 47t-103.5 21.5q-68 0 -101.5 -42.5t-33.5 -150.5v-157h499z" />
    <glyph glyph-name="f_k.liga" unicode="fk" horiz-adv-x="1843" 
d="M1126 1497v-1305q0 -52 15 -67.5t76 -24.5l43 -6l-5 -94h-497l4 94l50 11q43 10 56 27.5t13 67.5v1096q-39 9 -85.5 36.5t-96 48t-109.5 20.5q-68 0 -101.5 -42.5t-33.5 -150.5v-157h269v-128h-267v-723q0 -56 16.5 -73t80.5 -26l55 -7l-4 -94h-518l4 94l52 11
q43 10 56 27.5t13 67.5v723h-131l-4 105l137 21v73q0 199 109.5 297.5t314.5 98.5q186 0 334 -45zM1459 515l176 -255q61 -87 106 -126t94 -47l-4 -78q-66 -22 -140 -22q-97 0 -152 37.5t-137 159.5l-140 207q-72 107 -131 176l243 254q59 62 59 93q0 28 -53 37l-38 7l-4 93
h442l-5 -93l-26 -6q-60 -13 -94.5 -34t-91.5 -80l-195 -202q25 -27 91 -121z" />
    <glyph glyph-name="f_f_b.liga" unicode="ffb" horiz-adv-x="2582" 
d="M2072 1076q201 0 310.5 -143t109.5 -406q0 -248 -131 -400t-345 -152q-163 0 -262 94l-134 -94l-90 27v1297q-30 9 -65 27.5t-61.5 34t-67.5 28t-87 12.5q-68 0 -101.5 -42.5t-33.5 -150.5v-157h238h21v-128h-257v-713q0 -56 17 -73t84 -27l91 -13l-4 -97h-556l4 94
l50 11q43 10 56 27.5t13 67.5v723h-414v-723q0 -56 16 -72.5t79 -25.5l55 -8l-4 -94h-516l4 94l52 11q43 10 56 27.5t13 67.5v723h-131l-4 105l137 21v53q0 199 109.5 297t314.5 98q171 0 320 -67q108 88 339 88q186 0 331 -44l147 23v-358q0 -119 -5 -231
q51 81 128.5 124.5t173.5 43.5zM873 1051v71q0 106 7 152q-43 6 -88.5 33t-94.5 50t-107 23q-68 0 -101.5 -42.5t-33.5 -150.5v-136h418zM1964 113q131 0 199.5 105t68.5 305q0 193 -62 295.5t-178 102.5q-140 0 -217 -144v-566q78 -98 189 -98z" />
    <glyph glyph-name="f_f_h.liga" unicode="ffh" horiz-adv-x="2607" 
d="M2583 94l-4 -94h-512l5 94l50 11q40 9 52 25t12 62v515q0 214 -173 214q-149 0 -228 -145v-584q0 -52 15 -66.5t76 -23.5l54 -8l-4 -94h-509l4 94l50 11q43 10 56 27.5t13 67.5v1096q-39 9 -85.5 36.5t-96 48t-109.5 20.5q-68 0 -101.5 -42.5t-33.5 -150.5v-157h249h20
v-128h-267v-723q0 -56 16.5 -73t80.5 -26l55 -7l-4 -94h-516l4 94l50 11q43 10 56 27.5t13 67.5v723h-414v-723q0 -56 16 -72.5t79 -25.5l55 -8l-4 -94h-516l4 94l52 11q43 10 56 27.5t13 67.5v723h-131l-4 105l137 21v53q0 199 109.5 297t314.5 98q169 0 320 -68
q109 89 339 89q186 0 334 -45l154 24v-358q0 -121 -5 -233q52 81 133.5 125.5t181.5 44.5q165 0 250.5 -88.5t85.5 -259.5v-528q0 -56 16.5 -73t80.5 -26zM873 1051v71q0 106 7 152q-43 6 -88.5 33t-94.5 50t-107 23q-68 0 -101.5 -42.5t-33.5 -150.5v-136h418z" />
    <glyph glyph-name="f_f_j.liga" unicode="ffj" horiz-adv-x="1927" 
d="M1775 1069v-755q0 -229 -36.5 -378t-118.5 -237q-107 -116 -308 -150q-40 35 -40 98q0 67 69 93q19 7 65.5 14t69.5 22q33 21 42 98t9 333v614q0 56 -23 79t-79 23h-309v-715q0 -56 16 -72.5t81 -25.5l87 -13l-4 -97h-548l4 94l50 11q43 10 56 27.5t13 67.5v723h-414
v-723q0 -57 15.5 -73.5t78.5 -25.5l56 -7l-4 -94h-516l4 94l52 11q43 10 56 27.5t13 67.5v723h-131l-4 105l137 21v53q0 199 109.5 297t314.5 98q171 0 320 -67q108 88 339 88q124 0 240.5 -24t170.5 -64q10 -27 10 -56q0 -52 -29 -81t-85 -29q-50 0 -95.5 21.5t-76.5 47
t-79.5 47t-103.5 21.5q-68 0 -101.5 -42.5t-33.5 -150.5v-157h287h212zM873 1051v71q0 106 7 152q-43 6 -88.5 33t-94.5 50t-107 23q-68 0 -101.5 -42.5t-33.5 -150.5v-136h418z" />
    <glyph glyph-name="f_f_k.liga" unicode="ffk" horiz-adv-x="2500" 
d="M1785 1497v-1305q0 -52 15 -67.5t76 -24.5l42 -6l-4 -94h-497l4 94l50 11q43 10 56 27.5t13 67.5v1096q-39 9 -85.5 36.5t-96 48t-109.5 20.5q-68 0 -101.5 -42.5t-33.5 -150.5v-157h249h20v-128h-267v-723q0 -56 16.5 -73t80.5 -26l55 -7l-4 -94h-516l4 94l50 11
q43 10 56 27.5t13 67.5v723h-414v-723q0 -56 16 -72.5t79 -25.5l55 -8l-4 -94h-516l4 94l52 11q43 10 56 27.5t13 67.5v723h-131l-4 105l137 21v53q0 199 109.5 297t314.5 98q169 0 320 -68q109 89 339 89q186 0 334 -45zM873 1051v71q0 106 7 152q-43 6 -88.5 33t-94.5 50
t-107 23q-68 0 -101.5 -42.5t-33.5 -150.5v-136h418zM2118 515l176 -255q61 -87 106 -126t94 -47l-4 -78q-66 -22 -140 -22q-97 0 -152 37.5t-137 159.5l-140 207q-72 107 -131 176l243 254q58 61 58 93q0 28 -52 37l-38 7l-5 93h442l-4 -93l-26 -6q-60 -13 -94.5 -34
t-91.5 -80l-195 -202q25 -27 91 -121z" />
    <glyph glyph-name=".notdef" horiz-adv-x="1189" 
d="M1016 1434v-1434h-842v1434h842zM854 1331h-518l259 -524zM276 162l275 555l-275 555v-1110zM913 1272l-274 -555l274 -555v1110zM336 102h518l-259 525z" />
    <glyph glyph-name=".null" horiz-adv-x="0" 
 />
    <glyph glyph-name="nonmarkingreturn" horiz-adv-x="682" 
 />
    <glyph glyph-name="space" unicode=" " horiz-adv-x="483" 
 />
    <glyph glyph-name="exclam" unicode="!" horiz-adv-x="538" 
d="M188 461l-59 1012l283 11l-60 -1023h-164zM114 130q0 68 44 112t112 44t112 -44t44 -112t-44 -112t-112 -44t-112 44t-44 112z" />
    <glyph glyph-name="quotedbl" unicode="&#x22;" horiz-adv-x="782" 
d="M118 1516h199q0 -185 -18 -507h-162q-19 340 -19 507zM466 1516h199q0 -167 -19 -507h-162q-18 323 -18 507z" />
    <glyph glyph-name="numbersign" unicode="#" horiz-adv-x="1310" 
d="M1011 882l-58 -330h205v-133h-228l-74 -419h-170l74 419h-315l-73 -419h-170l73 419h-209v133h233l58 330h-205v133h228l74 419h170l-74 -419h315l73 419h170l-73 -419h209v-133h-233zM841 882h-314l-58 -330h314z" />
    <glyph glyph-name="dollar" unicode="$" horiz-adv-x="1110" 
d="M1034 382q0 -163 -108.5 -272t-293.5 -135v-200h-124v192q-116 2 -226 33.5t-189 84.5q-11 87 -11 174q0 66 4 138l142 5q18 -149 90.5 -229.5t192.5 -83.5v539q-149 67 -204 102q-154 99 -183 254q-8 40 -8 86q0 156 107.5 262.5t284.5 128.5v198h124v-193
q93 -4 200 -28.5t152 -24.5v-332l-136 -5q-24 126 -76.5 190t-142.5 76v-499q150 -66 207 -103q159 -101 190 -264q8 -45 8 -94zM358 1121q0 -76 39.5 -127.5t113.5 -93.5v435q-71 -20 -112 -76.5t-41 -137.5zM629 570v-463q73 27 116 86.5t43 138.5q0 82 -41.5 138
t-117.5 100z" />
    <glyph glyph-name="percent" unicode="%" horiz-adv-x="1859" 
d="M479 -102h-161l1063 1638h161zM62 1071q0 182 99.5 280.5t258.5 98.5q178 0 268 -95.5t90 -283.5q0 -179 -98 -280t-260 -101q-171 0 -264.5 99.5t-93.5 281.5zM258 1071q0 -128 43.5 -198.5t118.5 -70.5t118.5 70.5t43.5 198.5q0 267 -162 267t-162 -267zM1081 364
q0 181 100 280t259 99q178 0 268 -95.5t90 -283.5q0 -178 -98 -279t-260 -101q-172 0 -265.5 99t-93.5 281zM1278 364q0 -128 43.5 -198.5t118.5 -70.5t118 70.5t43 198.5q0 267 -161 267q-162 0 -162 -267z" />
    <glyph glyph-name="ampersand" unicode="&#x26;" horiz-adv-x="1583" 
d="M1245 272q121 -94 195.5 -133.5t143.5 -47.5l-5 -85q-57 -18 -146 -18q-145 0 -335 124q-183 -145 -431 -145q-267 0 -415 114t-148 320q0 140 76.5 245.5t219.5 163.5q-100 154 -100 308q0 157 98 252.5t258 95.5q153 0 236.5 -74t83.5 -210q0 -123 -76.5 -220.5
t-221.5 -160.5q152 -201 437 -428q23 67 23 144q0 27 -6 74.5t-6 69.5q0 132 128 132q58 0 99 -27q9 -31 9 -85q0 -229 -117 -409zM657 1344q-63 0 -99.5 -53t-36.5 -144q0 -131 90 -259q87 43 127 112t40 175q0 81 -32 125t-89 44zM353 449q0 -167 91.5 -257.5t261.5 -90.5
q159 0 272 95q-158 118 -296 257.5t-211 254.5q-118 -85 -118 -259z" />
    <glyph glyph-name="quotesingle" unicode="'" horiz-adv-x="436" 
d="M118 1516h199q0 -185 -18 -507h-162q-19 340 -19 507z" />
    <glyph glyph-name="parenleft" unicode="(" horiz-adv-x="616" 
d="M577 -410h-136q-185 245 -266.5 472.5t-81.5 504.5q0 266 83.5 499.5t264.5 477.5h136q-263 -480 -263 -977q0 -240 67.5 -492.5t195.5 -484.5z" />
    <glyph glyph-name="parenright" unicode=")" horiz-adv-x="616" 
d="M40 1544h136q184 -245 265.5 -472t81.5 -505q0 -267 -83 -500.5t-264 -476.5h-136q262 478 262 977q0 241 -67 493t-195 484z" />
    <glyph glyph-name="asterisk" unicode="*" horiz-adv-x="997" 
d="M582 1078q134 -119 230 -253q-63 -60 -144 -104q-101 138 -169 294q-67 -153 -170 -294q-78 43 -143 104q98 136 229 253q-182 21 -335 70q16 86 56 165q163 -52 307 -137q-35 159 -35 339q36 7 91 7t91 -7q0 -175 -36 -339q144 85 307 137q40 -79 56 -165
q-153 -49 -335 -70z" />
    <glyph glyph-name="plus" unicode="+" horiz-adv-x="1107" 
d="M1039 489h-404v-430h-163v430h-404v145h404v430h163v-430h404v-145z" />
    <glyph glyph-name="comma" unicode="," horiz-adv-x="509" 
d="M252 286q76 0 116 -50.5t40 -145.5q0 -141 -85.5 -256.5t-206.5 -138.5q-35 19 -47 67q137 62 147 215q-54 11 -87 53t-33 100q0 68 44 112t112 44z" />
    <glyph glyph-name="hyphen" unicode="-" horiz-adv-x="800" 
d="M669 479h-537v165h537v-165z" />
    <glyph glyph-name="period" unicode="." horiz-adv-x="503" 
d="M96 130q0 68 44 112t112 44t112 -44t44 -112t-44 -112t-112 -44t-112 44t-44 112z" />
    <glyph glyph-name="slash" unicode="/" horiz-adv-x="780" 
d="M239 -377h-178l480 1856h178z" />
    <glyph glyph-name="zero" unicode="0" horiz-adv-x="1210" 
d="M95 536q0 133 40 240.5t109.5 177t161.5 106t199 36.5q247 0 378.5 -143.5t131.5 -416.5q0 -259 -142.5 -410t-367.5 -151q-239 0 -374.5 148.5t-135.5 412.5zM345 536q0 -193 71.5 -304t188.5 -111t188.5 111t71.5 304q0 202 -68 308.5t-192 106.5t-192 -106.5
t-68 -308.5z" />
    <glyph glyph-name="one" unicode="1" horiz-adv-x="829" 
d="M788 97l-4 -97h-676l4 97l117 17q56 8 76.5 28t20.5 68v655q-88 -40 -179 -58l-51 -10l-18 100l346 187h147v-874q0 -54 23 -71t103 -29z" />
    <glyph glyph-name="two" unicode="2" horiz-adv-x="1036" 
d="M952 170v-170h-861v138q281 172 416.5 321.5t135.5 286.5q0 97 -52.5 147.5t-153.5 50.5q-148 0 -293 -121l-49 143q153 130 403 130q197 0 300.5 -83.5t103.5 -241.5q0 -167 -133.5 -322.5t-388.5 -285.5q90 7 231 7h341z" />
    <glyph glyph-name="three" unicode="3" horiz-adv-x="1069" 
d="M659 412q155 -28 237.5 -118.5t82.5 -233.5q0 -197 -138 -308.5t-379 -111.5q-229 0 -392 99q-5 20 -5 50q0 55 25.5 84.5t74.5 29.5q37 0 71.5 -21.5t59 -46.5t70.5 -46.5t103 -21.5q114 0 182.5 80t68.5 211q0 141 -93.5 206.5t-293.5 65.5q-49 0 -86 -7l-10 139
q224 0 330 64.5t106 201.5q0 105 -58.5 160.5t-167.5 55.5q-148 0 -293 -121l-49 143q153 130 403 130q204 0 314 -88.5t110 -254.5q0 -123 -74 -214.5t-199 -126.5z" />
    <glyph glyph-name="four" unicode="4" horiz-adv-x="1140" 
d="M1072 183v-158h-165v-361h-239v361h-629v104l649 946h219v-892h165zM672 183v601l-415 -601h415z" />
    <glyph glyph-name="five" unicode="5" horiz-adv-x="1077" 
d="M574 531q187 0 302.5 -121.5t115.5 -318.5q0 -218 -135.5 -334.5t-378.5 -116.5q-229 0 -392 99q-6 24 -6 50q0 55 26 84.5t75 29.5q31 0 58 -14t49.5 -34t47.5 -40t63 -34t85 -14q116 0 183.5 84.5t67.5 237.5q0 128 -70 203t-191 75q-132 0 -220 -108l-139 44l85 769
h762v-195h-614l-53 -448q47 47 121.5 74.5t157.5 27.5z" />
    <glyph glyph-name="six" unicode="6" horiz-adv-x="1159" 
d="M672 885q187 0 294 -119.5t107 -327.5q0 -210 -132.5 -336.5t-353.5 -126.5q-245 0 -365 161.5t-120 489.5q0 381 169 593.5t472 212.5q172 0 293 -52l-29 -144q-123 51 -245 51q-199 0 -310 -160t-119 -459q41 103 129.5 160t209.5 57zM592 113q103 0 166.5 85t63.5 224
q0 142 -55 225t-157 83q-105 0 -173 -85.5t-68 -222.5q0 -140 60 -224.5t163 -84.5z" />
    <glyph glyph-name="seven" unicode="7" horiz-adv-x="962" 
d="M938 956l-157 -331q-116 -246 -179 -407.5t-120 -366.5q-26 -92 -43 -198q-41 -9 -91 -9q-73 0 -105.5 29.5t-32.5 95.5q0 84 71 270q175 459 439 842h-673v191h885z" />
    <glyph glyph-name="eight" unicode="8" horiz-adv-x="1157" 
d="M749 783q55 -27 94.5 -50.5t83 -60t70.5 -75.5t45 -95t18 -121q0 -178 -138 -292t-352 -114q-220 0 -345.5 102t-125.5 280q0 122 72.5 217t205.5 148q-72 41 -120 83.5t-82 111.5t-34 155q0 162 121.5 261t320.5 99q197 0 310 -87t113 -237q0 -109 -67.5 -193.5
t-189.5 -131.5zM587 1305q-93 0 -146.5 -54t-53.5 -148q0 -89 58.5 -146t169.5 -111q90 43 131.5 104.5t41.5 150.5q0 97 -52.5 150.5t-148.5 53.5zM566 103q118 0 183 61.5t65 172.5q0 35 -9.5 67t-23 56.5t-40 49.5t-47.5 41.5t-59.5 38.5t-61.5 33.5t-68 33.5
q-188 -91 -188 -295q0 -118 67.5 -188.5t181.5 -70.5z" />
    <glyph glyph-name="nine" unicode="9" horiz-adv-x="1144" 
d="M565 1096q245 0 364.5 -161t119.5 -489q0 -381 -168.5 -593.5t-471.5 -212.5q-172 0 -293 52l29 144q123 -51 245 -51q199 0 309.5 160t118.5 459q-42 -103 -130 -160.5t-209 -57.5q-187 0 -293.5 119.5t-106.5 328.5q0 210 132.5 336t353.5 126zM542 342
q105 0 172.5 85.5t67.5 222.5q0 140 -59.5 224t-162.5 84q-104 0 -167 -84.5t-63 -223.5q0 -142 55 -225t157 -83z" />
    <glyph glyph-name="colon" unicode=":" horiz-adv-x="567" 
d="M127 800q0 68 44 112t112 44t112 -44t44 -112t-44 -112t-112 -44t-112 44t-44 112zM127 130q0 68 44 112t112 44t112 -44t44 -112t-44 -112t-112 -44t-112 44t-44 112z" />
    <glyph glyph-name="semicolon" unicode=";" horiz-adv-x="573" 
d="M287 644q-68 0 -112 44t-44 112t44 112t112 44t112 -44t44 -112t-44 -112t-112 -44zM287 286q76 0 116 -50.5t40 -145.5q0 -141 -85.5 -256.5t-206.5 -138.5q-35 19 -47 67q137 62 147 215q-54 11 -87 53t-33 100q0 68 44 112t112 44z" />
    <glyph glyph-name="less" unicode="&#x3c;" horiz-adv-x="950" 
d="M832 887l-556 -283l556 -283v-178l-769 404v105l769 405v-170z" />
    <glyph glyph-name="equal" unicode="=" horiz-adv-x="1239" 
d="M1105 653h-972v144h972v-144zM1105 342h-972v143h972v-143z" />
    <glyph glyph-name="greater" unicode="&#x3e;" horiz-adv-x="950" 
d="M887 652v-105l-768 -404v169l556 284l-556 283v178z" />
    <glyph glyph-name="question" unicode="?" horiz-adv-x="997" 
d="M524 1501q187 0 297.5 -89t110.5 -241q0 -73 -23 -132.5t-59.5 -99.5t-81 -74t-89 -64t-81 -61t-59.5 -73.5t-23 -94.5q0 -59 13 -104l-166 -18q-30 62 -30 151q0 60 19.5 108.5t50.5 82.5t69 64.5t76 60.5t69 64t50.5 83t19.5 109q0 93 -47.5 146t-130.5 53
t-131.5 -44.5t-68.5 -144.5q-16 -77 -47.5 -110t-90.5 -33q-39 0 -70 20.5t-43 54.5q28 186 148.5 286t317.5 100zM313 130q0 68 44 112t112 44t112 -44t44 -112t-44 -112t-112 -44t-112 44t-44 112z" />
    <glyph glyph-name="at" unicode="@" horiz-adv-x="1914" 
d="M1079 143q0 64 54 250h-3q-124 -413 -364 -413q-119 0 -172.5 72t-53.5 228q0 162 57 301.5t154 221t209 81.5q131 0 200 -90l4 10q20 45 41 62.5t58 17.5q50 0 100 -27l-83 -526q-19 -124 -19 -158q0 -103 89 -103q113 0 190.5 138t77.5 340q0 273 -156 426t-435 153
q-325 0 -523 -215.5t-198 -568.5q0 -317 167 -481.5t488 -164.5q216 0 374 47l21 -98q-198 -70 -420 -70q-402 0 -622.5 201.5t-220.5 566.5q0 198 68.5 366.5t191 286.5t296 184.5t377.5 66.5q175 0 322.5 -49t251 -137t161 -214t57.5 -275q0 -166 -66 -303.5t-181 -216
t-255 -78.5q-115 0 -176 43.5t-61 124.5zM821 114q33 0 76.5 38t85.5 102.5t78.5 163t52.5 206.5l10 68q-20 34 -49 54.5t-61 20.5q-66 0 -125 -69.5t-94.5 -184.5t-35.5 -243q0 -83 14 -119.5t48 -36.5z" />
    <glyph glyph-name="A" unicode="A" horiz-adv-x="1417" 
d="M831 96l53 8q48 8 69 24.5t21 50.5q0 39 -25 114l-42 128h-488l-44 -128q-28 -81 -28 -116q0 -34 24.5 -49t87.5 -25l45 -7l-4 -96h-503l4 96l53 8q55 9 81 42.5t67 146.5l419 1147h195l389 -1147q38 -113 62.5 -145t81.5 -44l41 -8l4 -96h-567zM865 550l-196 597
l-205 -597h401z" />
    <glyph glyph-name="B" unicode="B" horiz-adv-x="1296" 
d="M891 773q153 -25 237 -120.5t84 -248.5q0 -194 -144.5 -303.5t-402.5 -109.5q-73 0 -220 4.5t-236 4.5h-115l5 96l68 13q47 9 63.5 28.5t16.5 67.5v1023q0 53 -18.5 70.5t-87.5 31.5l-42 8l-5 96h115q89 0 236 4.5t220 4.5q254 0 378 -84t124 -257q0 -118 -77 -208.5
t-199 -120.5zM911 1072q0 127 -63.5 187.5t-194.5 60.5q-89 0 -161 -12v-478q73 -6 143 -6q131 0 203.5 65.5t72.5 182.5zM634 114q317 0 317 292q0 139 -78.5 215.5t-219.5 76.5q-87 0 -161 -6v-476q0 -58 31 -80t111 -22z" />
    <glyph glyph-name="C" unicode="C" horiz-adv-x="1320" 
d="M775 1466q113 0 248.5 -24.5t201.5 -24.5q4 -72 4 -185q0 -112 -4 -173l-141 -9q-17 146 -90.5 214t-214.5 68q-196 0 -305.5 -160.5t-109.5 -454.5q0 -285 107.5 -450.5t307.5 -165.5q151 0 228.5 74t94.5 234l136 -9v-328q-97 -49 -219.5 -77t-243.5 -28
q-331 0 -507 198t-176 552q0 173 53 315t145.5 236.5t217 146t267.5 51.5z" />
    <glyph glyph-name="D" unicode="D" horiz-adv-x="1490" 
d="M665 1443q360 0 547 -185t187 -541q0 -215 -91.5 -380t-258.5 -255.5t-384 -90.5q-73 0 -220 4.5t-236 4.5h-115l5 96l68 13q47 9 63.5 28.5t16.5 67.5v1023q0 53 -18.5 70.5t-87.5 31.5l-42 8l-5 96h115q89 0 236 4.5t220 4.5zM639 114q232 0 360 158.5t128 444.5
q0 290 -122.5 446.5t-347.5 156.5q-88 0 -160 -12v-1092q0 -58 31 -80t111 -22z" />
    <glyph glyph-name="E" unicode="E" horiz-adv-x="1271" 
d="M94 1434h1034q27 -194 27 -359l-147 -9q-17 149 -57 196t-151 47h-303v-518h255q50 0 69 21t33 92l9 42l124 4v-455l-124 4l-12 79q-7 47 -30 67t-69 20h-255v-451q0 -55 27.5 -72t116.5 -17h196q111 0 151 47t57 196l147 -9q0 -165 -27 -359h-1071l5 96l68 13
q47 9 63.5 28.5t16.5 67.5v1023q0 53 -18.5 70.5t-87.5 31.5l-42 8z" />
    <glyph glyph-name="F" unicode="F" horiz-adv-x="1220" 
d="M94 1434h1034q27 -194 27 -361l-147 -9q-17 151 -56.5 198t-151.5 47h-303v-554h285q50 0 69 21t33 92l8 42l125 4v-455l-125 4l-11 79q-7 47 -30 67t-69 20h-285v-398q0 -65 18 -85.5t87 -30.5l106 -16l-4 -99h-610l5 96l68 13q47 9 63.5 28.5t16.5 67.5v1023
q0 53 -18.5 70.5t-87.5 31.5l-42 8z" />
    <glyph glyph-name="G" unicode="G" horiz-adv-x="1466" 
d="M1425 704l-4 -96l-62 -11q-47 -9 -63 -29.5t-16 -68.5v-446q-232 -86 -505 -86q-331 0 -507 198t-176 552q0 173 53 315t146.5 236.5t220.5 146t275 51.5q121 0 267 -24.5t210 -24.5q4 -72 4 -185q0 -112 -4 -173l-141 -9q-16 145 -98 213.5t-234 68.5
q-204 0 -315.5 -160t-111.5 -455q0 -281 107.5 -444.5t307.5 -163.5q148 0 263 48v342q0 53 -18.5 70t-87.5 31l-42 8l-4 96h535z" />
    <glyph glyph-name="H" unicode="H" horiz-adv-x="1560" 
d="M1312 1228v-1023q0 -53 18 -69.5t88 -29.5l56 -10l-4 -96h-558l4 96l69 13q46 9 61.5 28.5t15.5 67.5v463h-565v-463q0 -53 17.5 -70t85.5 -29l57 -10l-4 -96h-559l5 96l68 13q47 9 63.5 28.5t16.5 67.5v1023q0 53 -18.5 70.5t-87.5 31.5l-42 8l-5 96h563l-4 -96l-77 -11
q-46 -7 -62.5 -28.5t-16.5 -70.5v-427h565v427q0 54 -18.5 72t-86.5 30l-45 8l4 96h558l-4 -96l-79 -12q-46 -7 -62.5 -28t-16.5 -70z" />
    <glyph glyph-name="I" unicode="I" horiz-adv-x="745" 
d="M655 1338l-79 -12q-46 -7 -62.5 -28t-16.5 -70v-1023q0 -53 18 -69.5t87 -29.5l57 -10l-4 -96h-561l5 96l68 13q47 9 63.5 28.5t16.5 67.5v1023q0 53 -18.5 70.5t-87.5 31.5l-42 8l-5 96h565z" />
    <glyph glyph-name="J" unicode="J" horiz-adv-x="710" 
d="M481 1228v-889q0 -225 -37 -365.5t-120 -229.5q-107 -116 -310 -150q-40 35 -40 98q0 72 68 97q19 7 65.5 14t69.5 22q33 21 42 96.5t9 330.5v976q0 54 -18 71.5t-85 30.5l-42 8l-4 96h564l-4 -96l-79 -12q-46 -7 -62.5 -28t-16.5 -70z" />
    <glyph glyph-name="K" unicode="K" horiz-adv-x="1341" 
d="M497 1228v-1023q0 -53 17.5 -70t83.5 -29l57 -10l-4 -96h-557l5 96l68 13q47 9 63.5 28.5t16.5 67.5v1023q0 53 -18.5 70.5t-87.5 31.5l-42 8l-5 96h565l-4 -96l-79 -12q-46 -7 -62.5 -28t-16.5 -70zM853 660l298 -427q86 -122 193 -138l-5 -91q-63 -17 -132 -17
q-126 0 -189 41.5t-161 190.5l-169 257q-97 150 -187 252l381 448q66 76 66 112t-67 45l-31 5l-4 96h465l-4 -96q-88 -25 -133 -58t-143 -146l-285 -327q26 -32 107 -147z" />
    <glyph glyph-name="L" unicode="L" horiz-adv-x="1220" 
d="M655 1338l-79 -12q-46 -7 -62.5 -28t-16.5 -70v-1014q0 -55 27.5 -72t116.5 -17h173q107 0 146.5 62.5t56.5 230.5l151 -9q0 -222 -26 -409h-1048l5 96l68 13q47 9 63.5 28.5t16.5 67.5v1023q0 53 -18.5 70.5t-87.5 31.5l-42 8l-5 96h565z" />
    <glyph glyph-name="M" unicode="M" horiz-adv-x="1980" 
d="M1926 96l-4 -96h-552l4 96l69 13q46 9 62 29t13 67l-37 532q-18 249 -18 398v42q-71 -215 -190 -524l-252 -653h-175l-234 658q-109 308 -170 521v-17q0 -128 -23 -424l-42 -533q-4 -51 14 -69t87 -30l57 -10l-4 -96h-471l4 96l68 13q45 9 60.5 27t19.5 69l83 1023
q5 51 -14.5 70t-91.5 32l-42 8l-4 96h448l386 -1106l417 1106h456l-4 -96l-79 -12q-47 -7 -65 -29t-14 -69l76 -1023q4 -55 21 -71t84 -28z" />
    <glyph glyph-name="N" unicode="N" horiz-adv-x="1531" 
d="M1463 1434l-4 -96l-79 -12q-46 -7 -62.5 -28t-16.5 -70v-1228h-235l-516 862q-94 157 -151 316q11 -143 11 -258v-715q0 -53 18 -69.5t87 -29.5l57 -10l-4 -96h-474l5 96l68 13q47 9 63.5 28.5t16.5 67.5v1023q0 53 -18.5 70.5t-87.5 31.5l-42 8l-5 96h397l516 -863
q88 -148 138 -282q-7 111 -7 224v715q0 53 -18.5 70.5t-87.5 31.5l-42 8l-4 96h477z" />
    <glyph glyph-name="O" unicode="O" horiz-adv-x="1550" 
d="M92 717q0 348 187.5 548.5t495.5 200.5q322 0 502.5 -198t180.5 -551q0 -221 -84.5 -391t-240 -264.5t-358.5 -94.5q-208 0 -363.5 94.5t-237.5 264t-82 391.5zM364 717q0 -280 112 -448t299 -168t298.5 168t111.5 448q0 294 -107.5 454.5t-302.5 160.5t-303 -160.5
t-108 -454.5z" />
    <glyph glyph-name="P" unicode="P" horiz-adv-x="1265" 
d="M639 543q-81 0 -142 5v-317q0 -65 18 -85.5t87 -30.5l106 -16l-4 -99h-610l5 96l68 13q47 9 63.5 28.5t16.5 67.5v1023q0 53 -18.5 70.5t-87.5 31.5l-42 8l-5 96h115q89 0 236 4.5t220 4.5q540 0 540 -450q0 -208 -152.5 -329t-413.5 -121zM944 993q0 162 -73 244.5
t-214 82.5q-88 0 -160 -12v-632q73 -6 142 -6q144 0 224.5 84.5t80.5 238.5z" />
    <glyph glyph-name="Q" unicode="Q" horiz-adv-x="1550" 
d="M1455 -24q108 0 108 -123q0 -34 -7 -62q-82 -41 -190 -41q-137 0 -252 62t-185 171q-78 -16 -154 -16q-208 0 -363.5 94.5t-237.5 264t-82 391.5q0 348 187.5 548.5t495.5 200.5q322 0 502.5 -198t180.5 -551q0 -245 -104.5 -427t-288.5 -264q86 -81 211 -81
q41 0 94.5 15.5t84.5 15.5zM364 717q0 -280 112 -448t299 -168t298.5 168t111.5 448q0 294 -107.5 454.5t-302.5 160.5t-303 -160.5t-108 -454.5z" />
    <glyph glyph-name="R" unicode="R" horiz-adv-x="1345" 
d="M1333 97l-5 -91q-62 -19 -151 -19q-113 0 -166 40t-110 169l-126 287q-38 85 -83 116.5t-130 31.5q-36 0 -67 -3v-423q0 -53 17.5 -70t83.5 -29l56 -10l-4 -96h-554l5 96l68 13q47 9 63.5 28.5t16.5 67.5v1023q0 53 -18.5 70.5t-87.5 31.5l-42 8l-5 96h115q89 0 236 4.5
t220 4.5q258 0 385 -94t127 -285q0 -139 -87 -234t-240 -127q51 -15 87 -49.5t73 -99.5q28 -49 90.5 -186t100.5 -197q24 -37 48 -52.5t62 -19.5zM495 1308v-541q74 -6 142 -6q132 0 207.5 74.5t75.5 204.5q0 280 -265 280q-88 0 -160 -12z" />
    <glyph glyph-name="S" unicode="S" horiz-adv-x="1128" 
d="M598 1466q113 0 232.5 -26.5t161.5 -26.5v-332l-136 -5q-27 140 -90 204.5t-175 64.5q-101 0 -163 -61.5t-62 -162.5q0 -71 37.5 -124t97 -87t131.5 -64.5t144 -67t131.5 -84.5t97 -127.5t37.5 -184.5q0 -187 -140 -301t-370 -114q-120 0 -234.5 31.5t-195.5 86.5
q-12 95 -12 174q0 48 5 138l141 5q18 -151 93.5 -232t199.5 -81q117 0 192 68.5t75 174.5q0 75 -37 131t-96.5 91.5t-131 67t-143 68t-131 82.5t-96.5 122t-37 176q0 175 132.5 285.5t341.5 110.5z" />
    <glyph glyph-name="T" unicode="T" horiz-adv-x="1341" 
d="M79 1434h1183q27 -194 27 -373l-151 -9q-9 83 -20 130t-34.5 77t-57.5 40t-92 10h-138v-1078q0 -66 18 -87.5t87 -32.5l87 -14l-4 -97h-621l4 97l99 18q47 8 63 32t16 84v1078h-138q-58 0 -92 -10t-57.5 -40t-34.5 -77t-20 -130l-151 9q0 179 27 373z" />
    <glyph glyph-name="U" unicode="U" horiz-adv-x="1486" 
d="M625 1338l-79 -12q-46 -7 -62.5 -28t-16.5 -70v-716q0 -210 78.5 -311t239.5 -101q305 0 305 399v729q0 54 -18.5 72t-87.5 30l-46 8l4 96h489l-4 -96l-79 -12q-46 -7 -62.5 -28t-16.5 -70v-748q0 -243 -134 -378t-377 -135q-275 0 -408 134.5t-133 410.5v716
q0 53 -18.5 70.5t-87.5 31.5l-42 8l-4 96h564z" />
    <glyph glyph-name="V" unicode="V" horiz-adv-x="1413" 
d="M1419 1434l-4 -96l-53 -7q-53 -7 -78.5 -39.5t-69.5 -150.5l-427 -1146h-179l-397 1146q-41 118 -65.5 150t-78.5 40l-41 7l-4 96h569l-4 -96l-53 -7q-48 -6 -69.5 -23t-21.5 -52q0 -34 27 -115l277 -826l292 826q29 79 29 117q0 37 -25.5 53t-86.5 22l-45 5l4 96h504z
" />
    <glyph glyph-name="W" unicode="W" horiz-adv-x="2107" 
d="M2110 1434l-4 -96l-53 -7q-56 -7 -83.5 -42.5t-64.5 -147.5l-376 -1146h-178l-290 1015l-327 -1015h-179l-339 1146q-33 110 -60 145.5t-84 44.5l-41 7l-4 96h563l-4 -96l-53 -7q-49 -6 -68.5 -20t-19.5 -48q0 -32 24 -122l220 -802l336 1095h159l300 -1095l246 802
q28 89 28 124t-23.5 48t-87.5 20l-45 5l4 96h504z" />
    <glyph glyph-name="X" unicode="X" horiz-adv-x="1282" 
d="M1262 96l-4 -96h-545l4 96l35 6q45 8 65 21.5t20 37.5q0 29 -33 88l-194 347l-203 -347q-34 -58 -34 -89q0 -24 21 -37t68 -19l60 -8l-4 -96h-499l4 96l35 6q65 11 92.5 36t92.5 134l254 422l-271 468q-46 80 -69 110.5t-42.5 42t-59.5 18.5l-28 5l-4 96h550l-4 -96
l-35 -4q-44 -5 -64.5 -18.5t-20.5 -39.5q0 -32 33 -91l189 -340l199 340q35 59 35 90q0 48 -90 57l-60 6l4 96h499l-4 -96l-35 -4q-62 -7 -88.5 -32t-95.5 -140l-250 -415l275 -475q63 -108 88 -133t82 -37z" />
    <glyph glyph-name="Y" unicode="Y" horiz-adv-x="1345" 
d="M1346 1434l-4 -96l-37 -5q-24 -3 -36 -5t-28 -10.5t-25 -17.5t-27 -33.5t-33 -50.5t-44 -75l-315 -543v-367q0 -65 18.5 -87t87.5 -33l87 -14l-5 -97h-620l4 97l99 18q47 8 63 32t16 84v367l-316 543q-29 50 -44 75.5t-32.5 50t-25.5 33.5t-22 17.5t-24 10.5t-30 5l-28 5
l-4 96h574l-4 -96l-52 -6q-89 -10 -89 -64q0 -36 34 -94l241 -413l233 413q37 65 37 97q0 27 -22.5 41t-71.5 19l-62 7l4 96h503z" />
    <glyph glyph-name="Z" unicode="Z" horiz-adv-x="1241" 
d="M1009 387l151 -9q0 -184 -27 -378h-1057l-5 102l779 1207h-399q-58 0 -92 -10t-57.5 -40t-34.5 -77t-20 -130l-150 9q0 186 26 373h1022l5 -102l-779 -1207h434q107 0 147 56t57 206z" />
    <glyph glyph-name="bracketleft" unicode="[" horiz-adv-x="591" 
d="M528 1544v-127h-182v-1699h182v-128h-387v1954h387z" />
    <glyph glyph-name="backslash" unicode="\" horiz-adv-x="782" 
d="M722 -377h-181l-480 1856h181z" />
    <glyph glyph-name="bracketright" unicode="]" horiz-adv-x="591" 
d="M64 -410v128h182v1699h-182v127h387v-1954h-387z" />
    <glyph glyph-name="asciicircum" unicode="^" horiz-adv-x="1112" 
d="M848 614l-291 642l-302 -642h-186l410 840h165l400 -840h-196z" />
    <glyph glyph-name="underscore" unicode="_" 
d="M1024 -343h-1024v150h1024v-150z" />
    <glyph glyph-name="grave" unicode="`" 
d="M376 1557l371 -259q-24 -64 -67 -105l-403 209q33 84 99 155z" />
    <glyph glyph-name="a" unicode="a" horiz-adv-x="1087" 
d="M1057 145l20 -85q-90 -80 -219 -80q-85 0 -126 42t-43 132q-53 -84 -133.5 -131.5t-171.5 -47.5q-141 0 -225.5 82.5t-84.5 219.5q0 158 124 248.5t341 90.5q66 0 135 -11v127q0 121 -36.5 177.5t-113.5 56.5q-42 0 -76.5 -17t-58 -41t-46 -48.5t-52 -41.5t-64.5 -17
q-48 0 -76.5 29.5t-28.5 80.5q0 23 8 53q178 112 403 112q203 0 291.5 -86t88.5 -284v-413q0 -99 15 -133.5t60 -34.5q34 0 69 20zM463 131q132 0 211 149v217q-58 7 -111 7q-122 0 -185 -50.5t-63 -147.5q0 -82 39.5 -128.5t108.5 -46.5z" />
    <glyph glyph-name="b" unicode="b" horiz-adv-x="1212" 
d="M701 1076q200 0 309.5 -143t109.5 -406q0 -248 -130.5 -400t-344.5 -152q-164 0 -263 94l-134 -94l-90 27v1261q0 58 -12.5 77.5t-55.5 28.5l-53 11l-4 90l370 48v-379q0 -142 -4 -231q51 81 128.5 124.5t173.5 43.5zM593 113q131 0 199.5 105t68.5 305q0 193 -62 295.5
t-178 102.5q-141 0 -218 -144v-566q78 -98 190 -98z" />
    <glyph glyph-name="c" unicode="c" horiz-adv-x="999" 
d="M554 -25q-219 0 -342.5 146.5t-123.5 404.5q0 131 39.5 236t109 173t161.5 104.5t200 36.5q182 0 328 -83q12 -29 12 -65q0 -52 -30.5 -83t-82.5 -31q-36 0 -62.5 14t-43.5 33.5t-34.5 39t-46 33.5t-66.5 14q-108 0 -166 -107t-58 -315q0 -189 73 -292.5t202 -103.5
q143 0 267 102l52 -115q-88 -74 -180 -108t-208 -34z" />
    <glyph glyph-name="d" unicode="d" horiz-adv-x="1239" 
d="M1192 108l-4 -96l-337 -32q-18 70 -23 176q-52 -86 -134 -133.5t-184 -47.5q-200 0 -309.5 143t-109.5 406q0 248 131 400t345 152q155 0 246 -96q-5 112 -5 230v53q0 58 -12.5 77.5t-55.5 28.5l-53 11l-4 90l370 48v-1293q0 -57 17 -80t67 -30zM591 131q141 0 217 143
v567q-77 97 -190 97q-131 0 -199.5 -104.5t-68.5 -304.5q0 -193 62.5 -295.5t178.5 -102.5z" />
    <glyph glyph-name="e" unicode="e" horiz-adv-x="1083" 
d="M646 128q86 0 153.5 24t132.5 78l52 -113q-89 -75 -183.5 -108.5t-223.5 -33.5q-235 0 -362 145.5t-127 405.5q0 131 39.5 236t109 173t161.5 104.5t200 36.5q187 0 294 -113.5t107 -310.5q0 -74 -13 -98.5t-53 -24.5h-590v-3q0 -199 82 -298.5t221 -99.5zM567 948
q-186 0 -218 -301h359q32 0 43.5 15.5t11.5 56.5q0 105 -53.5 167t-142.5 62z" />
    <glyph glyph-name="f" unicode="f" horiz-adv-x="788" 
d="M868 1482q10 -27 10 -56q0 -49 -27.5 -78t-74.5 -29q-45 0 -83 20.5t-74.5 41t-77.5 20.5q-47 0 -66.5 -35t-19.5 -121v-194h292v-128h-290v-713q0 -56 17 -73t84 -27l92 -13l-5 -97h-558l4 94l52 11q43 10 56 27.5t13 67.5v723h-131l-4 105l137 21v110q0 176 95.5 267.5
t279.5 91.5q157 0 279 -36z" />
    <glyph glyph-name="g" unicode="g" horiz-adv-x="1122" 
d="M1097 986q0 -44 -22.5 -64.5t-71.5 -20.5q-48 0 -170 39q55 -36 88 -98.5t33 -133.5q0 -153 -117.5 -248t-304.5 -95q-94 0 -171 24q-42 -36 -42 -78q0 -41 36 -64t121 -35l214 -29q202 -28 288.5 -90.5t86.5 -181.5q0 -162 -144.5 -262t-379.5 -100q-223 0 -352.5 75
t-129.5 203q0 83 60 145.5t168 94.5q-71 21 -112 66.5t-41 104.5q0 60 37 108t106 79q-82 47 -126.5 123t-44.5 172q0 167 119.5 261.5t306.5 94.5q119 0 213 -42q145 1 338 25q14 -36 14 -73zM532 484q86 0 138.5 64.5t52.5 171.5q0 115 -49.5 176t-141.5 61t-141.5 -61
t-49.5 -176q0 -107 52.5 -171.5t138.5 -64.5zM834 -141q0 57 -35.5 89.5t-124 53t-265.5 38.5q-134 -61 -134 -187q0 -88 73 -140.5t196 -52.5q130 0 210 55t80 144z" />
    <glyph glyph-name="h" unicode="h" horiz-adv-x="1257" 
d="M1233 94l-5 -94h-511l4 94l50 11q40 9 52 25t12 62v515q0 214 -173 214q-148 0 -227 -145v-584q0 -52 14.5 -66.5t75.5 -23.5l54 -8l-4 -94h-511l4 94l52 11q43 10 56 27.5t13 67.5v1063q0 58 -12.5 77.5t-55.5 28.5l-53 11l-4 90l371 48v-379q0 -121 -5 -233
q52 81 133.5 125.5t181.5 44.5q165 0 250 -88.5t85 -259.5v-528q0 -56 16.5 -73t80.5 -26z" />
    <glyph glyph-name="i" unicode="i" horiz-adv-x="655" 
d="M171 1374q0 62 41 101.5t105 39.5t105 -39.5t41 -101.5t-40.5 -101t-105.5 -39t-105.5 39t-40.5 101zM459 1076v-876q0 -56 16.5 -73t80.5 -26l55 -7l-4 -94h-518l4 94l52 11q43 10 56 27.5t13 67.5v621q0 58 -12.5 77.5t-55.5 28.5l-53 11l-4 90z" />
    <glyph glyph-name="j" unicode="j" horiz-adv-x="595" 
d="M149 1374q0 62 41 101.5t105 39.5t105 -39.5t41 -101.5t-40.5 -101t-105.5 -39t-105.5 39t-40.5 101zM437 1076v-762q0 -229 -36.5 -378t-118.5 -237q-107 -116 -308 -150q-40 35 -40 98q0 67 69 93q19 7 65.5 14t69.5 22q33 21 42 98t9 333v614q0 58 -12 78t-53 28
l-53 11l-5 90z" />
    <glyph glyph-name="k" unicode="k" horiz-adv-x="1150" 
d="M435 1518l-1 -1326q0 -52 15 -67.5t76 -24.5l43 -6l-4 -94h-500l4 94l52 11q43 10 56 27.5t13 67.5v1063q0 58 -12.5 77.5t-55.5 28.5l-53 11l-4 90zM768 515l176 -255q61 -87 106 -126t94 -47l-4 -78q-66 -22 -140 -22q-97 0 -152.5 37.5t-137.5 159.5l-140 207
q-76 113 -130 176l242 254q59 62 59 93q0 28 -53 37l-38 7l-4 93h442l-4 -93l-27 -6q-59 -13 -93 -34t-92 -80l-196 -202q29 -31 92 -121z" />
    <glyph glyph-name="l" unicode="l" horiz-adv-x="636" 
d="M440 1518v-1318q0 -56 16 -72.5t80 -25.5l56 -8l-4 -94h-519l4 94l53 11q43 10 56 27.5t13 67.5v1063q0 58 -12.5 77.5t-55.5 28.5l-54 11l-4 90z" />
    <glyph glyph-name="m" unicode="m" horiz-adv-x="1906" 
d="M1882 94l-4 -94h-511l4 94l50 11q40 9 52 25.5t12 62.5v514q0 214 -170 214q-146 0 -224 -147q2 -30 2 -46v-535q0 -52 14.5 -67t75.5 -24l54 -8l-4 -94h-504l4 94l50 11q40 9 52 25.5t12 62.5v514q0 108 -41.5 161t-127.5 53q-145 0 -223 -144v-584q0 -52 14.5 -67
t75.5 -24l54 -8l-4 -94h-511l4 94l52 11q43 10 56 27.5t13 67.5v621q0 59 -12 78t-55 28l-54 11l-4 90l327 48q19 -76 24 -181q52 86 136 133.5t189 47.5q234 0 304 -177q53 85 139 131t195 46q165 0 248.5 -88.5t83.5 -259.5v-528q0 -56 16.5 -73t80.5 -26z" />
    <glyph glyph-name="n" unicode="n" horiz-adv-x="1275" 
d="M1253 94l-4 -94h-512l4 94l50 11q40 9 52 25t12 62v515q0 214 -173 214q-148 0 -227 -145v-584q0 -52 14.5 -66.5t75.5 -23.5l54 -8l-4 -94h-511l4 94l52 11q43 10 56 27.5t13 67.5v621q0 59 -12 78t-55 28l-54 11l-4 90l327 48q19 -76 24 -182q53 87 138.5 134.5
t191.5 47.5q165 0 250.5 -88.5t85.5 -259.5v-528q0 -57 16 -73.5t80 -25.5z" />
    <glyph glyph-name="o" unicode="o" horiz-adv-x="1196" 
d="M88 526q0 131 39.5 236t109 173t161.5 104.5t200 36.5q248 0 378.5 -141t130.5 -409q0 -254 -142 -402.5t-367 -148.5q-240 0 -375 146.5t-135 404.5zM348 526q0 -199 67 -311t183 -112t183 112t67 311q0 209 -63.5 315.5t-186.5 106.5t-186.5 -106.5t-63.5 -315.5z" />
    <glyph glyph-name="p" unicode="p" horiz-adv-x="1241" 
d="M731 1076q200 0 309.5 -143t109.5 -406q0 -248 -131 -400t-345 -152q-154 0 -245 96q4 -89 4 -229v-62q0 -56 17 -73t84 -27l92 -13l-4 -97h-559l4 94l52 11q43 10 56 27.5t13 67.5v1051q0 58 -12.5 77.5t-55.5 28.5l-53 11l-4 90l327 48q18 -69 23 -181q52 86 134 133.5
t184 47.5zM623 113q131 0 199.5 105t68.5 305q0 193 -62 295.5t-178 102.5q-141 0 -218 -144v-566q78 -98 190 -98z" />
    <glyph glyph-name="q" unicode="q" horiz-adv-x="1212" 
d="M1205 -336l-4 -94h-518l4 94l52 11q43 10 56 27.5t13 67.5v143q0 118 5 230q-51 -80 -129 -124t-174 -44q-200 0 -309.5 143t-109.5 406q0 248 131 400t345 152q165 0 262 -93l134 93l90 -26v-1280q0 -56 16.5 -73t80.5 -26zM591 131q141 0 217 143v567q-77 97 -190 97
q-131 0 -199.5 -104.5t-68.5 -304.5q0 -193 62.5 -295.5t178.5 -102.5z" />
    <glyph glyph-name="r" unicode="r" horiz-adv-x="901" 
d="M858 1034q13 -36 13 -75q0 -60 -29 -94.5t-81 -34.5q-32 0 -78 22t-86 22q-107 0 -142 -222v-442q0 -56 17 -73t84 -27l91 -13l-4 -97h-559l4 94l52 11q43 10 56 27.5t13 67.5v621q0 59 -12 78t-55 28l-54 11l-4 90l323 48q24 -89 25 -271q26 126 96 198.5t166 72.5
q91 0 164 -42z" />
    <glyph glyph-name="s" unicode="s" horiz-adv-x="948" 
d="M821 768l-118 -6q-21 99 -74 153t-130 54q-71 0 -114 -39t-43 -104q0 -49 29 -86t75 -61.5t101.5 -47.5t111 -51t101.5 -63t75 -91.5t29 -130.5q0 -151 -112.5 -235.5t-311.5 -84.5q-97 0 -189.5 27t-153.5 73q-9 58 -9 120q0 51 4 110l123 6q21 -106 83 -167t149 -61
q81 0 130 42.5t49 113.5q0 49 -28.5 87t-74 64t-100.5 49.5t-110 52t-100.5 63t-74 89.5t-28.5 126q0 143 104.5 224.5t288.5 81.5q72 0 169 -25t149 -25v-258z" />
    <glyph glyph-name="t" unicode="t" horiz-adv-x="790" 
d="M735 184l35 -106q-140 -103 -305 -103q-140 0 -207 63t-66 194l3 691h-126l-4 105l147 24q33 121 70 196q19 39 35 51.5t47 12.5q21 0 74 -10v-251h321v-128h-318v-652q0 -73 32.5 -106.5t101.5 -33.5q80 0 160 53z" />
    <glyph glyph-name="u" unicode="u" horiz-adv-x="1265" 
d="M1213 108l-4 -96l-336 -33q-18 72 -23 178q-52 -87 -137 -134.5t-191 -47.5q-165 0 -249.5 89t-84.5 260v497q0 58 -12.5 77.5t-55.5 28.5l-53 11l-4 90l370 48v-732q0 -213 171 -213q147 0 226 144v546q0 58 -14.5 76.5t-65.5 29.5l-53 11l-4 90l382 48v-851
q0 -58 16.5 -80.5t66.5 -29.5z" />
    <glyph glyph-name="v" unicode="v" horiz-adv-x="1155" 
d="M1153 1051l-4 -93l-26 -6q-50 -11 -71 -32.5t-49 -88.5l-339 -834h-185l-322 834q-28 75 -45 94.5t-56 25.5l-39 7l-4 93h519l-4 -93l-49 -8q-44 -7 -63.5 -20.5t-19.5 -39.5q0 -22 14 -59l213 -569l217 569q17 45 17 66q0 25 -19.5 36.5t-67.5 17.5l-47 7l4 93h426z" />
    <glyph glyph-name="w" unicode="w" horiz-adv-x="1712" 
d="M1711 1051l-4 -93l-27 -6q-51 -11 -73.5 -34t-45.5 -87l-301 -834h-183l-217 697l-242 -697h-183l-273 834q-23 70 -41.5 91.5t-60.5 28.5l-39 7l-4 93h508l-4 -93l-49 -8q-44 -7 -62.5 -19.5t-18.5 -38.5q0 -22 12 -61l172 -552l254 772h149l239 -771l180 551
q17 51 17 72q0 24 -18 33t-69 15l-47 7l4 93h427z" />
    <glyph glyph-name="x" unicode="x" horiz-adv-x="1101" 
d="M1065 94l-4 -94h-471l5 94l30 5q44 9 44 41q0 22 -19 54l-139 230l-144 -230q-23 -37 -23 -58q0 -29 46 -37l36 -5l-4 -94h-386l5 94l24 5q53 12 74 28t59 73l211 311l-208 340q-35 57 -56 74t-67 26l-33 7l-4 93h474l-4 -93l-31 -6q-44 -9 -44 -41q0 -20 20 -54
l134 -223l141 223q22 35 22 58q0 29 -45 37l-37 6l5 93h385l-4 -93l-25 -6q-53 -12 -74 -28t-59 -73l-207 -304l213 -347q36 -58 56.5 -75.5t66.5 -24.5z" />
    <glyph glyph-name="y" unicode="y" horiz-adv-x="1155" 
d="M1152 1051l-4 -93l-27 -6q-50 -11 -70.5 -32t-48.5 -89l-348 -854q-99 -243 -201 -335.5t-275 -92.5q-36 0 -79 10q-27 45 -27 93t28.5 76.5t77.5 28.5q26 0 63.5 -11t58.5 -11q63 0 101.5 42t86.5 164l19 48q-35 34 -70 122l-281 720q-29 74 -46 94t-56 26l-39 7l-4 93
h519l-4 -93l-49 -8q-44 -7 -63 -20.5t-19 -39.5q0 -24 13 -59l214 -569l216 569q17 45 17 66q0 25 -19.5 36.5t-67.5 17.5l-47 7l4 93h427z" />
    <glyph glyph-name="z" unicode="z" horiz-adv-x="1046" 
d="M831 314l134 -9q0 -149 -22 -305h-866l-7 97l606 846h-289q-76 0 -110 -43.5t-48 -159.5l-134 9q0 146 22 302h835l7 -97l-606 -845h321q74 0 108 47t49 158z" />
    <glyph glyph-name="braceleft" unicode="{" horiz-adv-x="675" 
d="M444 1263v-326q0 -140 -51.5 -234t-145.5 -127q93 -37 145 -137.5t52 -241.5v-326q0 -86 29 -121.5t100 -35.5h39v-124h-153q-115 0 -170 69t-55 227v339q0 135 -46.5 204.5t-135.5 69.5v136q89 0 135.5 69.5t46.5 204.5v340q0 295 225 295h153v-123h-39q-71 0 -100 -36
t-29 -122z" />
    <glyph glyph-name="bar" unicode="|" horiz-adv-x="454" 
d="M313 -430h-172v1989h172v-1989z" />
    <glyph glyph-name="braceright" unicode="}" horiz-adv-x="675" 
d="M441 1249v-340q0 -135 46.5 -204.5t135.5 -69.5v-136q-89 0 -135.5 -69.5t-46.5 -204.5v-339q0 -296 -225 -296h-153v124h39q71 0 100 35.5t29 121.5v326q0 140 51.5 234t145.5 127q-93 37 -145 137.5t-52 241.5v326q0 86 -29 122t-100 36h-39v123h153q115 0 170 -68.5
t55 -226.5z" />
    <glyph glyph-name="asciitilde" unicode="~" horiz-adv-x="1224" 
d="M844 598q70 0 119.5 23t96.5 78l39 -111q-49 -66 -123.5 -102.5t-157.5 -36.5q-93 0 -170 21t-141 42t-124 21q-70 0 -120 -23t-97 -78l-38 111q49 66 123.5 102.5t157.5 36.5q93 0 170 -21t141 -42t124 -21z" />
    <glyph glyph-name="uni00A0" unicode="&#xa0;" horiz-adv-x="483" 
 />
    <glyph glyph-name="exclamdown" unicode="&#xa1;" horiz-adv-x="520" 
d="M104 922q0 68 44 112t112 44t112 -44t44 -112t-44 -112t-112 -44t-112 44t-44 112zM342 591l59 -1013l-284 -11l61 1024h164z" />
    <glyph glyph-name="cent" unicode="&#xa2;" 
d="M889 232l52 -115q-134 -113 -288 -135v-207h-124v201q-209 8 -325.5 153.5t-116.5 396.5q0 238 122.5 380.5t319.5 165.5v205h124v-203q152 -12 271 -81q13 -32 13 -65q0 -52 -31 -83t-83 -31q-34 0 -60 13t-40 29.5t-34 38.5t-39 33v-798q125 7 239 102zM346 526
q0 -153 48.5 -250.5t137.5 -130.5v799q-90 -19 -138 -125t-48 -293z" />
    <glyph glyph-name="sterling" unicode="&#xa3;" horiz-adv-x="1253" 
d="M1010 418l151 -9q0 -215 -27 -409h-1069l4 106q110 9 152.5 135.5t43.5 443.5h-168v133h168v174q0 225 123 349.5t347 124.5q102 0 207.5 -26.5t149.5 -26.5v-332l-135 -5q-27 143 -79 206t-147 63q-115 0 -169.5 -84.5t-54.5 -262.5v-180h381v-133h-382
q-4 -224 -35 -357.5t-93 -203.5q80 8 181 8h247q108 0 147.5 60t56.5 226z" />
    <glyph glyph-name="currency" unicode="&#xa4;" horiz-adv-x="1173" 
d="M1041 552q0 -190 -113 -308l144 -163l-121 -101l-142 180q-97 -45 -223 -45q-130 0 -225 42l-140 -177l-121 101l140 158q-109 114 -109 313q0 191 113 307l-144 163l121 100l143 -180q101 46 222 46q133 0 228 -39l137 173l121 -100l-136 -155q105 -109 105 -315z
M586 244q100 0 159 81t59 227q0 153 -56.5 229.5t-161.5 76.5t-161.5 -76.5t-56.5 -229.5q0 -146 59 -227t159 -81z" />
    <glyph glyph-name="yen" unicode="&#xa5;" horiz-adv-x="1441" 
d="M1384 1434l-4 -96l-37 -5q-29 -3 -43.5 -7.5t-29.5 -12.5t-32 -32.5t-34.5 -52t-52.5 -87.5l-194 -333h239v-117h-306l-55 -93v-45h361v-116h-361v-206q0 -65 18.5 -87t87.5 -33l87 -14l-4 -97h-621l4 97l99 18q47 8 63 32t16 84v206h-361v116h361v45l-54 93h-307v117
h239l-194 333q-35 60 -52.5 88t-33.5 52t-29.5 31.5t-25.5 12t-36 8.5l-29 5l-4 96h574l-4 -96l-52 -6q-89 -10 -89 -64q0 -35 35 -94l240 -413l234 413q36 63 36 97q0 27 -22.5 41t-71.5 19l-62 7l4 96h503z" />
    <glyph glyph-name="brokenbar" unicode="&#xa6;" horiz-adv-x="489" 
d="M331 862h-173v697h173v-697zM331 -430h-173v696h173v-696z" />
    <glyph glyph-name="section" unicode="&#xa7;" horiz-adv-x="1038" 
d="M713 252q82 -57 128 -127.5t46 -167.5q0 -150 -112.5 -234.5t-311.5 -84.5q-98 0 -190 26.5t-153 72.5q-8 52 -8 120q0 51 4 110l123 6q21 -107 82.5 -167.5t148.5 -60.5q81 0 130.5 42.5t49.5 113.5q0 54 -30.5 100.5t-79 81.5t-107 69t-117 71.5t-107 80.5t-79 105.5
t-30.5 136.5q0 113 66.5 193t185.5 115q-57 39 -96 77.5t-65.5 96t-26.5 124.5q0 143 105 224.5t289 81.5q72 0 169 -25t149 -25v-258l-119 -6q-21 99 -74 153t-130 54q-71 0 -113.5 -39t-42.5 -104q0 -54 30.5 -99.5t79.5 -79.5t108 -67t118.5 -70.5t108.5 -80.5t79.5 -107
t30.5 -141q0 -111 -62.5 -191.5t-176.5 -119.5zM310 606q0 -45 17.5 -82t63.5 -73t74 -53.5t99 -56.5q21 -12 32 -18q66 21 103.5 67.5t37.5 112.5q0 45 -20 84t-58.5 71.5t-78 58t-95.5 57.5q-3 1 -5 2t-5 3t-5 3q-74 -13 -117 -59.5t-43 -116.5z" />
    <glyph glyph-name="dieresis" unicode="&#xa8;" 
d="M184 1370q0 54 37 90t92 36t92 -36t37 -90t-37 -90.5t-92 -36.5t-92 36.5t-37 90.5zM582 1370q0 54 37 90t92 36t92 -36t37 -90t-37 -90.5t-92 -36.5t-92 36.5t-37 90.5z" />
    <glyph glyph-name="copyright" unicode="&#xa9;" horiz-adv-x="1724" 
d="M92 717q0 218 103.5 395.5t279.5 276t387 98.5q220 0 396 -99t275 -275t99 -396q0 -218 -103.5 -395.5t-279.5 -276t-387 -98.5t-387 98.5t-279.5 276t-103.5 395.5zM235 717q0 -182 83.5 -329.5t227 -229.5t316.5 -82t316.5 82t227 229.5t83.5 329.5t-83.5 329.5
t-227 229.5t-316.5 82t-316.5 -82t-227 -229.5t-83.5 -329.5zM897 1073q65 0 134.5 -13.5t99.5 -13.5q2 -46 2 -94q0 -51 -2 -87l-96 -6q-7 67 -39.5 98.5t-92.5 31.5q-172 0 -172 -272t172 -272q127 0 142 139l94 -6v-169q-99 -47 -242 -47q-177 0 -267.5 92t-90.5 263
q0 167 100 261.5t258 94.5z" />
    <glyph glyph-name="ordfeminine" unicode="&#xaa;" horiz-adv-x="847" 
d="M404 1152q45 0 87 -6v84q0 73 -21 106t-69 33q-34 0 -61 -18t-42 -39t-41.5 -39t-58.5 -18q-37 0 -58 22t-21 60q0 23 6 40q124 75 285 75q145 0 208.5 -56t63.5 -185v-268q0 -61 9.5 -83t36.5 -22q24 0 43 11l13 -64q-67 -53 -161 -53q-60 0 -89 28t-30 88
q-34 -56 -89.5 -87.5t-118.5 -31.5q-95 0 -151.5 54.5t-56.5 146.5q0 105 83.5 163.5t232.5 58.5zM367 847q76 0 124 87v133q-40 4 -66 4q-148 0 -148 -118q0 -50 23.5 -78t66.5 -28zM117 595h630v-105h-630v105z" />
    <glyph glyph-name="guillemotleft" unicode="&#xab;" horiz-adv-x="1089" 
d="M555 875l-244 -340q146 -221 244 -359l-99 -72q-107 56 -385 422q278 366 385 422zM995 875l-245 -340q134 -203 245 -359l-99 -72q-107 56 -385 422q278 366 385 422z" />
    <glyph glyph-name="logicalnot" unicode="&#xac;" horiz-adv-x="1081" 
d="M940 182h-163v330h-645v143h808v-473z" />
    <glyph glyph-name="registered" unicode="&#xae;" horiz-adv-x="1724" 
d="M862 1487q220 0 396 -99t275 -275t99 -396q0 -218 -103.5 -395.5t-279.5 -276t-387 -98.5t-387 98.5t-279.5 276t-103.5 395.5t103.5 395.5t279.5 276t387 98.5zM862 76q173 0 316.5 82t227 229.5t83.5 329.5t-83.5 329.5t-227 229.5t-316.5 82t-316.5 -82t-227 -229.5
t-83.5 -329.5t83.5 -329.5t227 -229.5t316.5 -82zM1148 487q23 -40 52 -45l11 -2l-2 -58q-44 -11 -103 -11q-64 0 -92 21.5t-60 94.5l-50 112q-17 39 -36 53t-54 14q-10 0 -28 -2v-171q0 -26 7.5 -35.5t32.5 -13.5l25 -4l-2 -63h-303l2 63l29 6q23 5 30 13.5t7 33.5v448
q0 26 -8 34.5t-37 14.5l-21 4l-2 63h73q48 0 122.5 2t116.5 2q145 0 213.5 -43t68.5 -135q0 -62 -41 -105.5t-114 -60.5q55 -17 86 -74q12 -23 38.5 -79t38.5 -77zM845 747q56 0 87 30t31 87q0 119 -112 119q-26 0 -66 -4v-229q29 -3 60 -3z" />
    <glyph glyph-name="macron" unicode="&#xaf;" 
d="M794 1292h-564v139h564v-139z" />
    <glyph glyph-name="degree" unicode="&#xb0;" horiz-adv-x="729" 
d="M81 1277q0 123 84.5 201.5t198.5 78.5q136 0 209.5 -75.5t73.5 -204.5q0 -119 -82.5 -200t-200.5 -81q-129 0 -206 79.5t-77 201.5zM230 1277q0 -65 38.5 -108t95.5 -43t95.5 43t38.5 108q0 69 -37 110t-97 41t-97 -41t-37 -110z" />
    <glyph glyph-name="plusminus" unicode="&#xb1;" horiz-adv-x="1136" 
d="M1021 753v-145h-372v-340h-162v340h-372v145h372v340h162v-340h372zM115 176h906v-144h-906v144z" />
    <glyph glyph-name="twosuperior" unicode="&#xb2;" horiz-adv-x="692" 
d="M626 878v-133h-566v101q344 284 344 504q0 74 -32 108t-101 34q-46 0 -94.5 -21t-85.5 -57l-29 117q45 39 120 62t155 23q134 0 203 -62t69 -183q0 -267 -346 -502q86 9 181 9h182z" />
    <glyph glyph-name="threesuperior" unicode="&#xb3;" horiz-adv-x="724" 
d="M454 1198q204 -37 204 -213q0 -120 -90 -187t-253 -67q-150 0 -258 55q-5 18 -5 38q0 84 73 84q26 0 48.5 -13t37 -29t41.5 -29t61 -13q64 0 101.5 43.5t37.5 117.5q0 77 -54.5 113.5t-168.5 36.5q-38 0 -66 -5l-7 102q137 0 202 36.5t65 113.5q0 121 -136 121
q-92 0 -178 -66l-29 105q104 74 271 74q134 0 206 -54.5t72 -155.5q0 -78 -46 -132t-129 -76z" />
    <glyph glyph-name="acute" unicode="&#xb4;" 
d="M277 1298l371 259q66 -71 99 -155l-403 -209q-43 41 -67 105z" />
    <glyph glyph-name="uni00B5" unicode="&#xb5;" horiz-adv-x="1296" 
d="M1221 108l-4 -96l-336 -32q-18 72 -23 177q-52 -86 -135 -134t-181 -48q-61 0 -109 18q6 -77 6 -149v-250l-243 -40v1267q0 58 -12.5 77.5t-55.5 28.5l-53 11l-4 90l370 48v-732q0 -213 171 -213q146 0 225 144v546q0 58 -14 76.5t-65 29.5l-53 11l-4 90l382 48v-851
q0 -58 16.5 -80.5t66.5 -29.5z" />
    <glyph glyph-name="paragraph" unicode="&#xb6;" horiz-adv-x="1216" 
d="M58 992q0 193 130 317.5t332 124.5h150v-1792h-150v909q-206 0 -334 118t-128 323zM1140 1434l-4 -96l-79 -12q-46 -7 -62.5 -28t-16.5 -70v-1586h-150v1792h312z" />
    <glyph glyph-name="periodcentered" unicode="&#xb7;" horiz-adv-x="528" 
d="M108 586q0 68 44 112t112 44t112 -44t44 -112t-44 -112t-112 -44t-112 44t-44 112z" />
    <glyph glyph-name="cedilla" unicode="&#xb8;" 
d="M583 36l-70 -143q93 0 149.5 -45.5t56.5 -121.5q0 -94 -66.5 -149.5t-180.5 -55.5q-99 0 -167 58q8 50 34 83q55 -42 121 -42q44 0 69.5 23t25.5 63q0 42 -37 65t-106 23l-26 51l83 191h114z" />
    <glyph glyph-name="onesuperior" unicode="&#xb9;" horiz-adv-x="571" 
d="M537 822l-2 -77h-463l2 77l63 9q42 6 59 18.5t17 40.5v562q-64 -23 -123 -33l-30 -6l-12 74l242 119h117v-716q0 -31 15 -42t64 -19z" />
    <glyph glyph-name="ordmasculine" unicode="&#xba;" horiz-adv-x="843" 
d="M65 1091q0 172 100 266.5t257 94.5q176 0 266 -91.5t90 -269.5q0 -169 -98 -265.5t-258 -96.5q-169 0 -263 95t-94 267zM273 1091q0 -128 39 -197t110 -69t109.5 69t38.5 197q0 137 -36.5 201t-111.5 64q-76 0 -112.5 -64.5t-36.5 -200.5zM742 490h-640v105h640v-105z
" />
    <glyph glyph-name="guillemotright" unicode="&#xbb;" horiz-adv-x="1089" 
d="M94 875l100 73q107 -56 385 -422q-278 -366 -385 -422l-100 72l245 340q-134 203 -245 359zM534 875l99 73q107 -56 385 -422q-278 -366 -385 -422l-99 72l245 340q-134 203 -245 359z" />
    <glyph glyph-name="onequarter" unicode="&#xbc;" horiz-adv-x="1683" 
d="M1398 1536l-1063 -1638h-161l1063 1638h161zM74 658l63 9q42 6 59 18.5t17 40.5v563q-69 -25 -123 -34l-30 -5l-12 73l242 119h117v-716q0 -31 15 -41.5t64 -18.5l51 -8l-2 -76h-463zM1626 331v-115h-99v-216h-185v216h-386v79l395 559h176v-523h99zM1352 331v333
l-242 -333h242z" />
    <glyph glyph-name="onehalf" unicode="&#xbd;" horiz-adv-x="1691" 
d="M1398 1536l-1063 -1638h-161l1063 1638h161zM74 658l63 9q42 6 59 18.5t17 40.5v563q-69 -25 -123 -34l-30 -5l-12 73l242 119h117v-716q0 -31 15 -41.5t64 -18.5l51 -8l-2 -76h-463zM1626 132v-132h-566v101q343 283 343 503q0 74 -31.5 108t-100.5 34q-46 0 -95 -21
t-86 -57l-28 118q45 39 119.5 61.5t155.5 22.5q134 0 203 -62t69 -183q0 -266 -346 -501q77 8 181 8h182z" />
    <glyph glyph-name="threequarters" unicode="&#xbe;" horiz-adv-x="1835" 
d="M1550 1536l-1063 -1638h-160l1063 1638h160zM658 822q0 -120 -90.5 -187.5t-252.5 -67.5q-150 0 -258 55q-5 18 -5 38q0 84 73 84q26 0 48.5 -13t37 -29t41.5 -29t61 -13q64 0 101.5 43.5t37.5 117.5q0 77 -54.5 114t-168.5 37q-32 0 -66 -6l-7 102q137 0 202 36.5
t65 113.5q0 121 -136 121q-92 0 -178 -66l-29 105q104 74 271 74q134 0 206 -54.5t72 -155.5q0 -78 -46 -132t-129 -76q204 -37 204 -212zM1779 331v-115h-99v-216h-186v216h-386v79l396 559h176v-523h99zM1505 331v333l-243 -333h243z" />
    <glyph glyph-name="questiondown" unicode="&#xbf;" horiz-adv-x="987" 
d="M368 922q0 68 44 112t112 44t111.5 -44t43.5 -112t-43.5 -112t-111.5 -44t-112 44t-44 112zM469 -450q-187 0 -297.5 89.5t-110.5 241.5q0 73 23 132.5t59.5 99.5t81 74t89 64t81 61t59.5 73.5t23 94.5q0 55 -14 103l166 19q31 -64 31 -152q0 -60 -19.5 -108.5t-51 -82.5
t-69.5 -64t-75.5 -60.5t-69 -64t-51 -82.5t-19.5 -109q0 -93 48 -146.5t131 -53.5t131.5 44.5t68.5 144.5q16 77 47.5 110t90.5 33q39 0 69.5 -20.5t42.5 -54.5q-28 -186 -148 -286t-317 -100z" />
    <glyph glyph-name="Agrave" unicode="&#xc0;" horiz-adv-x="1417" 
d="M568 1899l371 -259q-25 -65 -67 -106l-402 210q34 86 98 155zM831 96l53 8q48 8 69 24.5t21 50.5q0 39 -25 114l-42 128h-488l-44 -128q-28 -81 -28 -116q0 -34 24.5 -49t87.5 -25l45 -7l-4 -96h-503l4 96l53 8q55 9 81 42.5t67 146.5l419 1147h195l389 -1147
q38 -113 62.5 -145t81.5 -44l41 -8l4 -96h-567zM865 550l-196 597l-205 -597h401z" />
    <glyph glyph-name="Aacute" unicode="&#xc1;" horiz-adv-x="1417" 
d="M979 1744l-403 -210q-41 39 -66 106l371 259q64 -69 98 -155zM831 96l53 8q48 8 69 24.5t21 50.5q0 39 -25 114l-42 128h-488l-44 -128q-28 -81 -28 -116q0 -34 24.5 -49t87.5 -25l45 -7l-4 -96h-503l4 96l53 8q55 9 81 42.5t67 146.5l419 1147h195l389 -1147
q38 -113 62.5 -145t81.5 -44l41 -8l4 -96h-567zM865 550l-196 597l-205 -597h401z" />
    <glyph glyph-name="Acircumflex" unicode="&#xc2;" horiz-adv-x="1417" 
d="M713 1700l-240 -148q-42 40 -63 98l308 243l309 -243q-19 -52 -67 -98zM831 96l53 8q48 8 69 24.5t21 50.5q0 39 -25 114l-42 128h-488l-44 -128q-28 -81 -28 -116q0 -34 24.5 -49t87.5 -25l45 -7l-4 -96h-503l4 96l53 8q55 9 81 42.5t67 146.5l419 1147h195l389 -1147
q38 -113 62.5 -145t81.5 -44l41 -8l4 -96h-567zM865 550l-196 597l-205 -597h401z" />
    <glyph glyph-name="Atilde" unicode="&#xc3;" horiz-adv-x="1417" 
d="M578 1662q-84 0 -144 -69l-31 95q29 52 86 87.5t113 35.5q68 0 140 -30.5t116 -30.5q85 0 144 68l31 -95q-29 -52 -86 -87.5t-113 -35.5q-68 0 -140 31t-116 31zM831 96l53 8q48 8 69 24.5t21 50.5q0 39 -25 114l-42 128h-488l-44 -128q-28 -81 -28 -116q0 -34 24.5 -49
t87.5 -25l45 -7l-4 -96h-503l4 96l53 8q55 9 81 42.5t67 146.5l419 1147h195l389 -1147q38 -113 62.5 -145t81.5 -44l41 -8l4 -96h-567zM865 550l-196 597l-205 -597h401z" />
    <glyph glyph-name="Adieresis" unicode="&#xc4;" horiz-adv-x="1417" 
d="M519 1585q-55 0 -92 36t-37 90t37 90.5t92 36.5t92 -36.5t37 -90.5t-37 -90t-92 -36zM917 1585q-55 0 -92 36t-37 90t37 90.5t92 36.5t92 -36.5t37 -90.5t-37 -90t-92 -36zM831 96l53 8q48 8 69 24.5t21 50.5q0 39 -25 114l-42 128h-488l-44 -128q-28 -81 -28 -116
q0 -34 24.5 -49t87.5 -25l45 -7l-4 -96h-503l4 96l53 8q55 9 81 42.5t67 146.5l419 1147h195l389 -1147q38 -113 62.5 -145t81.5 -44l41 -8l4 -96h-567zM865 550l-196 597l-205 -597h401z" />
    <glyph glyph-name="Aring" unicode="&#xc5;" horiz-adv-x="1417" 
d="M718 1533q-88 0 -145 55t-57 147q0 85 60 143.5t142 58.5q88 0 145 -55t57 -147q0 -85 -60 -143.5t-142 -58.5zM718 1835q-41 0 -68.5 -27.5t-27.5 -72.5t27.5 -72.5t68.5 -27.5t68.5 27.5t27.5 72.5t-27.5 72.5t-68.5 27.5zM831 96l53 8q48 8 69 24.5t21 50.5
q0 39 -25 114l-42 128h-488l-44 -128q-28 -81 -28 -116q0 -34 24.5 -49t87.5 -25l45 -7l-4 -96h-503l4 96l53 8q55 9 81 42.5t67 146.5l419 1147h195l389 -1147q38 -113 62.5 -145t81.5 -44l41 -8l4 -96h-567zM865 550l-196 597l-205 -597h401z" />
    <glyph glyph-name="AE" unicode="&#xc6;" horiz-adv-x="1939" 
d="M1713 368l147 -9q0 -165 -27 -359h-1066l4 96l68 13q47 9 63.5 28.5t16.5 67.5v253h-422l-92 -186q-42 -86 -42 -116q0 -24 19 -35t66 -18l45 -7l-4 -96h-489l4 96l53 8q55 9 84 34t65 95l499 981q25 48 25 70q0 19 -17.5 29t-56.5 15l-67 10l-4 96h1211q27 -194 27 -359
l-147 -9q-17 149 -57 196t-151 47h-304v-518h256q50 0 69 21t33 92l8 42l125 4v-455l-125 4l-11 79q-7 47 -30 67t-69 20h-256v-451q0 -55 28 -72t117 -17h196q111 0 151 47t57 196zM919 589v721l-357 -721h357z" />
    <glyph glyph-name="Ccedilla" unicode="&#xc7;" horiz-adv-x="1320" 
d="M1238 400v-328q-179 -90 -409 -103l-36 -76q93 0 149 -45.5t56 -121.5q0 -94 -66.5 -149.5t-180.5 -55.5q-99 0 -167 58q8 50 34 83q55 -42 122 -42q44 0 69 23t25 63q0 42 -37 65t-106 23l-25 51l53 124q-305 17 -466 213t-161 535q0 173 53 315t145.5 236.5t217 146
t267.5 51.5q113 0 248.5 -24.5t201.5 -24.5q4 -72 4 -185q0 -112 -4 -173l-141 -9q-17 146 -90.5 214t-214.5 68q-196 0 -305.5 -160.5t-109.5 -454.5q0 -285 107.5 -450.5t307.5 -165.5q151 0 228.5 74t94.5 234z" />
    <glyph glyph-name="Egrave" unicode="&#xc8;" horiz-adv-x="1271" 
d="M495 1899l371 -259q-25 -65 -67 -106l-402 210q34 86 98 155zM94 1434h1034q27 -194 27 -359l-147 -9q-17 149 -57 196t-151 47h-303v-518h255q50 0 69 21t33 92l9 42l124 4v-455l-124 4l-12 79q-7 47 -30 67t-69 20h-255v-451q0 -55 27.5 -72t116.5 -17h196
q111 0 151 47t57 196l147 -9q0 -165 -27 -359h-1071l5 96l68 13q47 9 63.5 28.5t16.5 67.5v1023q0 53 -18.5 70.5t-87.5 31.5l-42 8z" />
    <glyph glyph-name="Eacute" unicode="&#xc9;" horiz-adv-x="1271" 
d="M470 1640l371 259q64 -69 98 -155l-402 -210q-42 41 -67 106zM94 1434h1034q27 -194 27 -359l-147 -9q-17 149 -57 196t-151 47h-303v-518h255q50 0 69 21t33 92l9 42l124 4v-455l-124 4l-12 79q-7 47 -30 67t-69 20h-255v-451q0 -55 27.5 -72t116.5 -17h196
q111 0 151 47t57 196l147 -9q0 -165 -27 -359h-1071l5 96l68 13q47 9 63.5 28.5t16.5 67.5v1023q0 53 -18.5 70.5t-87.5 31.5l-42 8z" />
    <glyph glyph-name="Ecircumflex" unicode="&#xca;" horiz-adv-x="1271" 
d="M649 1700l-240 -148q-42 40 -63 98l308 243l309 -243q-19 -52 -67 -98zM1045 368l147 -9q0 -165 -27 -359h-1071l5 96l68 13q47 9 63.5 28.5t16.5 67.5v1023q0 53 -18.5 70.5t-87.5 31.5l-42 8l-5 96h1034q27 -194 27 -359l-147 -9q-17 149 -57 196t-151 47h-303v-518
h255q50 0 69 21t33 92l9 42l124 4v-455l-124 4l-12 79q-7 47 -30 67t-69 20h-255v-451q0 -55 27.5 -72t116.5 -17h196q111 0 151 47t57 196z" />
    <glyph glyph-name="Edieresis" unicode="&#xcb;" horiz-adv-x="1271" 
d="M326 1711q0 54 37 90.5t92 36.5t92 -36.5t37 -90.5t-37 -90t-92 -36t-92 36t-37 90zM724 1711q0 54 37 90.5t92 36.5t92 -36.5t37 -90.5t-37 -90t-92 -36t-92 36t-37 90zM94 1434h1034q27 -194 27 -359l-147 -9q-17 149 -57 196t-151 47h-303v-518h255q50 0 69 21t33 92
l9 42l124 4v-455l-124 4l-12 79q-7 47 -30 67t-69 20h-255v-451q0 -55 27.5 -72t116.5 -17h196q111 0 151 47t57 196l147 -9q0 -165 -27 -359h-1071l5 96l68 13q47 9 63.5 28.5t16.5 67.5v1023q0 53 -18.5 70.5t-87.5 31.5l-42 8z" />
    <glyph glyph-name="Igrave" unicode="&#xcc;" horiz-adv-x="745" 
d="M236 1899l371 -259q-25 -65 -67 -106l-402 210q34 86 98 155zM655 1338l-79 -12q-46 -7 -62.5 -28t-16.5 -70v-1023q0 -53 18 -69.5t87 -29.5l57 -10l-4 -96h-561l5 96l68 13q47 9 63.5 28.5t16.5 67.5v1023q0 53 -18.5 70.5t-87.5 31.5l-42 8l-5 96h565z" />
    <glyph glyph-name="Iacute" unicode="&#xcd;" horiz-adv-x="745" 
d="M157 1640l370 259q66 -71 99 -155l-403 -210q-41 39 -66 106zM655 1338l-79 -12q-46 -7 -62.5 -28t-16.5 -70v-1023q0 -53 18 -69.5t87 -29.5l57 -10l-4 -96h-561l5 96l68 13q47 9 63.5 28.5t16.5 67.5v1023q0 53 -18.5 70.5t-87.5 31.5l-42 8l-5 96h565z" />
    <glyph glyph-name="Icircumflex" unicode="&#xce;" horiz-adv-x="745" 
d="M366 1700l-240 -148q-42 40 -63 98l309 243l308 -243q-19 -53 -66 -98zM655 1338l-79 -12q-46 -7 -62.5 -28t-16.5 -70v-1023q0 -53 18 -69.5t87 -29.5l57 -10l-4 -96h-561l5 96l68 13q47 9 63.5 28.5t16.5 67.5v1023q0 53 -18.5 70.5t-87.5 31.5l-42 8l-5 96h565z" />
    <glyph glyph-name="Idieresis" unicode="&#xcf;" horiz-adv-x="745" 
d="M43 1711q0 54 37 90.5t92 36.5t92 -36.5t37 -90.5t-37 -90t-92 -36t-92 36t-37 90zM442 1711q0 54 37 90.5t92 36.5t92 -36.5t37 -90.5t-37 -90t-92 -36t-92 36t-37 90zM655 1338l-79 -12q-46 -7 -62.5 -28t-16.5 -70v-1023q0 -53 18 -69.5t87 -29.5l57 -10l-4 -96h-561
l5 96l68 13q47 9 63.5 28.5t16.5 67.5v1023q0 53 -18.5 70.5t-87.5 31.5l-42 8l-5 96h565z" />
    <glyph glyph-name="Eth" unicode="&#xd0;" horiz-adv-x="1490" 
d="M665 1443q360 0 547 -185t187 -541q0 -215 -91.5 -380t-258.5 -255.5t-384 -90.5q-73 0 -220 4.5t-236 4.5h-115l5 96l68 13q47 9 63.5 28.5t16.5 67.5v469h-137v123h137v431q0 53 -18.5 70.5t-87.5 31.5l-42 8l-5 96h115q89 0 236 4.5t220 4.5zM639 114q232 0 360 158.5
t128 444.5q0 290 -122.5 446.5t-347.5 156.5q-88 0 -160 -12v-511h265v-123h-265v-458q0 -58 31 -80t111 -22z" />
    <glyph glyph-name="Ntilde" unicode="&#xd1;" horiz-adv-x="1531" 
d="M634 1662q-84 0 -144 -69l-31 95q29 52 86 87.5t113 35.5q68 0 140 -30.5t116 -30.5q85 0 144 68l31 -95q-29 -52 -86 -87.5t-113 -35.5q-68 0 -140 31t-116 31zM1463 1434l-4 -96l-79 -12q-46 -7 -62.5 -28t-16.5 -70v-1228h-235l-516 862q-94 157 -151 316
q11 -143 11 -258v-715q0 -53 18 -69.5t87 -29.5l57 -10l-4 -96h-474l5 96l68 13q47 9 63.5 28.5t16.5 67.5v1023q0 53 -18.5 70.5t-87.5 31.5l-42 8l-5 96h397l516 -863q88 -148 138 -282q-7 111 -7 224v715q0 53 -18.5 70.5t-87.5 31.5l-42 8l-4 96h477z" />
    <glyph glyph-name="Ograve" unicode="&#xd2;" horiz-adv-x="1550" 
d="M612 1899l371 -259q-25 -65 -67 -106l-402 210q34 86 98 155zM92 717q0 348 187.5 548.5t495.5 200.5q322 0 502.5 -198t180.5 -551q0 -221 -84.5 -391t-240 -264.5t-358.5 -94.5q-208 0 -363.5 94.5t-237.5 264t-82 391.5zM364 717q0 -280 112 -448t299 -168t298.5 168
t111.5 448q0 294 -107.5 454.5t-302.5 160.5t-303 -160.5t-108 -454.5z" />
    <glyph glyph-name="Oacute" unicode="&#xd3;" horiz-adv-x="1550" 
d="M567 1640l370 259q66 -71 99 -155l-403 -210q-41 39 -66 106zM92 717q0 348 187.5 548.5t495.5 200.5q322 0 502.5 -198t180.5 -551q0 -221 -84.5 -391t-240 -264.5t-358.5 -94.5q-208 0 -363.5 94.5t-237.5 264t-82 391.5zM364 717q0 -280 112 -448t299 -168t298.5 168
t111.5 448q0 294 -107.5 454.5t-302.5 160.5t-303 -160.5t-108 -454.5z" />
    <glyph glyph-name="Ocircumflex" unicode="&#xd4;" horiz-adv-x="1550" 
d="M769 1700l-240 -148q-42 40 -63 98l309 243l308 -243q-19 -53 -66 -98zM775 1466q322 0 502.5 -198t180.5 -551q0 -221 -84.5 -391t-240 -264.5t-358.5 -94.5q-208 0 -363.5 94.5t-237.5 264t-82 391.5q0 348 187.5 548.5t495.5 200.5zM775 101q187 0 298.5 168
t111.5 448q0 294 -107.5 454.5t-302.5 160.5t-303 -160.5t-108 -454.5q0 -280 112 -448t299 -168z" />
    <glyph glyph-name="Otilde" unicode="&#xd5;" horiz-adv-x="1550" 
d="M915 1750q85 0 144 68l31 -95q-29 -52 -86 -87.5t-113 -35.5q-69 0 -140 31t-116 31q-84 0 -144 -69l-31 95q29 52 86 87.5t113 35.5q69 0 140 -30.5t116 -30.5zM92 717q0 348 187.5 548.5t495.5 200.5q322 0 502.5 -198t180.5 -551q0 -221 -84.5 -391t-240 -264.5
t-358.5 -94.5q-208 0 -363.5 94.5t-237.5 264t-82 391.5zM364 717q0 -280 112 -448t299 -168t298.5 168t111.5 448q0 294 -107.5 454.5t-302.5 160.5t-303 -160.5t-108 -454.5z" />
    <glyph glyph-name="Odieresis" unicode="&#xd6;" horiz-adv-x="1550" 
d="M447 1711q0 54 37 90.5t92 36.5t92 -36.5t37 -90.5t-37 -90t-92 -36t-92 36t-37 90zM845 1711q0 54 37 90.5t92 36.5t92 -36.5t37 -90.5t-37 -90t-92 -36t-92 36t-37 90zM92 717q0 348 187.5 548.5t495.5 200.5q322 0 502.5 -198t180.5 -551q0 -221 -84.5 -391
t-240 -264.5t-358.5 -94.5q-208 0 -363.5 94.5t-237.5 264t-82 391.5zM364 717q0 -280 112 -448t299 -168t298.5 168t111.5 448q0 294 -107.5 454.5t-302.5 160.5t-303 -160.5t-108 -454.5z" />
    <glyph glyph-name="multiply" unicode="&#xd7;" horiz-adv-x="1036" 
d="M625 565l313 -313l-110 -110l-313 313l-313 -313l-103 103l313 313l-313 313l110 110l313 -313l313 313l103 -103z" />
    <glyph glyph-name="Oslash" unicode="&#xd8;" horiz-adv-x="1550" 
d="M1219 1520l-69 -148q149 -90 228.5 -257t79.5 -398q0 -221 -84.5 -391t-240 -264.5t-358.5 -94.5q-142 0 -259 44l-70 -152l-115 55l71 153q-149 93 -229.5 262t-80.5 388q0 348 187.5 548.5t495.5 200.5q146 0 260 -40l69 148zM775 1332q-195 0 -303 -160.5t-108 -454.5
q0 -299 128 -470l472 1035q-82 50 -189 50zM775 101q187 0 298.5 168t111.5 448q0 316 -124 477l-473 -1038q82 -55 187 -55z" />
    <glyph glyph-name="Ugrave" unicode="&#xd9;" horiz-adv-x="1486" 
d="M597 1899l371 -259q-25 -65 -67 -106l-402 210q34 86 98 155zM625 1338l-79 -12q-46 -7 -62.5 -28t-16.5 -70v-716q0 -210 78.5 -311t239.5 -101q305 0 305 399v729q0 54 -18.5 72t-87.5 30l-46 8l4 96h489l-4 -96l-79 -12q-46 -7 -62.5 -28t-16.5 -70v-748
q0 -243 -134 -378t-377 -135q-275 0 -408 134.5t-133 410.5v716q0 53 -18.5 70.5t-87.5 31.5l-42 8l-4 96h564z" />
    <glyph glyph-name="Uacute" unicode="&#xda;" horiz-adv-x="1486" 
d="M588 1640l371 259q64 -69 98 -155l-402 -210q-42 41 -67 106zM625 1338l-79 -12q-46 -7 -62.5 -28t-16.5 -70v-716q0 -210 78.5 -311t239.5 -101q305 0 305 399v729q0 54 -18.5 72t-87.5 30l-46 8l4 96h489l-4 -96l-79 -12q-46 -7 -62.5 -28t-16.5 -70v-748
q0 -243 -134 -378t-377 -135q-275 0 -408 134.5t-133 410.5v716q0 53 -18.5 70.5t-87.5 31.5l-42 8l-4 96h564z" />
    <glyph glyph-name="Ucircumflex" unicode="&#xdb;" horiz-adv-x="1486" 
d="M770 1700l-240 -148q-42 40 -63 98l308 243l309 -243q-19 -53 -66 -98zM1431 1434l-4 -96l-79 -12q-46 -7 -62.5 -28t-16.5 -70v-748q0 -243 -134 -378t-377 -135q-275 0 -408 134.5t-133 410.5v716q0 53 -18.5 70.5t-87.5 31.5l-42 8l-4 96h564l-4 -96l-79 -12
q-46 -7 -62.5 -28t-16.5 -70v-716q0 -210 78.5 -311t239.5 -101q305 0 305 399v729q0 54 -18.5 72t-87.5 30l-46 8l4 96h489z" />
    <glyph glyph-name="Udieresis" unicode="&#xdc;" horiz-adv-x="1486" 
d="M447 1711q0 54 37 90.5t92 36.5t92 -36.5t37 -90.5t-37 -90t-92 -36t-92 36t-37 90zM846 1711q0 54 36.5 90.5t91.5 36.5t92 -36.5t37 -90.5t-37 -90t-92 -36t-91.5 36t-36.5 90zM625 1338l-79 -12q-46 -7 -62.5 -28t-16.5 -70v-716q0 -210 78.5 -311t239.5 -101
q305 0 305 399v729q0 54 -18.5 72t-87.5 30l-46 8l4 96h489l-4 -96l-79 -12q-46 -7 -62.5 -28t-16.5 -70v-748q0 -243 -134 -378t-377 -135q-275 0 -408 134.5t-133 410.5v716q0 53 -18.5 70.5t-87.5 31.5l-42 8l-4 96h564z" />
    <glyph glyph-name="Yacute" unicode="&#xdd;" horiz-adv-x="1345" 
d="M1002 1744l-402 -210q-42 41 -67 106l371 259q64 -69 98 -155zM1346 1434l-4 -96l-37 -5q-24 -3 -36 -5t-28 -10.5t-25 -17.5t-27 -33.5t-33 -50.5t-44 -75l-315 -543v-367q0 -65 18.5 -87t87.5 -33l87 -14l-5 -97h-620l4 97l99 18q47 8 63 32t16 84v367l-316 543
q-29 50 -44 75.5t-32.5 50t-25.5 33.5t-22 17.5t-24 10.5t-30 5l-28 5l-4 96h574l-4 -96l-52 -6q-89 -10 -89 -64q0 -36 34 -94l241 -413l233 413q37 65 37 97q0 27 -22.5 41t-71.5 19l-62 7l4 96h503z" />
    <glyph glyph-name="Thorn" unicode="&#xde;" horiz-adv-x="1265" 
d="M639 296q-69 0 -142 6v-71q0 -66 18 -87.5t87 -32.5l87 -14l-4 -97h-591l5 96l68 13q47 9 63.5 28.5t16.5 67.5v1023q0 53 -18.5 70.5t-87.5 31.5l-42 8l-5 96h565l-4 -96l-79 -12q-46 -7 -62.5 -28t-16.5 -70v-76q83 3 168 3q540 0 540 -429q0 -199 -152.5 -314.5
t-413.5 -115.5zM657 1032q-94 0 -160 -11v-592q73 -6 142 -6q145 0 225 79t80 224q0 306 -287 306z" />
    <glyph glyph-name="germandbls" unicode="&#xdf;" horiz-adv-x="1273" 
d="M885 822q0 -39 17.5 -72.5t46 -60t62.5 -52.5t68 -56.5t62.5 -66t46 -86.5t17.5 -113q0 -150 -101.5 -245t-262.5 -95q-167 0 -288 79q-9 69 -9 119q0 31 3 78l109 6q21 -87 61 -128.5t104 -41.5q73 0 114 45.5t41 125.5q0 43 -17.5 79.5t-45 64.5t-60.5 54.5t-66.5 55
t-61 60t-45 76t-17.5 96.5q0 60 16.5 112t39.5 91.5t46 78.5t39.5 90t16.5 109q0 76 -42.5 119t-117.5 43q-114 0 -160.5 -106t-46.5 -366v-915h-371l4 94l53 11q43 10 56 27.5t13 67.5v723h-122l-4 114l138 12q16 239 129 354t329 115q170 0 268.5 -72t98.5 -197
q0 -56 -16.5 -105.5t-40.5 -86t-47.5 -71t-40 -76.5t-16.5 -88z" />
    <glyph glyph-name="agrave" unicode="&#xe0;" horiz-adv-x="1087" 
d="M342 1557l371 -259q-24 -64 -67 -105l-402 209q34 86 98 155zM1057 145l20 -85q-92 -81 -219 -81q-85 0 -126 42.5t-43 132.5q-53 -84 -133.5 -131.5t-171.5 -47.5q-141 0 -225.5 82.5t-84.5 219.5q0 158 124 248.5t341 90.5q66 0 135 -11v127q0 121 -36.5 177.5
t-113.5 56.5q-42 0 -76.5 -17t-58 -41t-46 -48.5t-52 -41.5t-64.5 -17q-48 0 -76.5 29.5t-28.5 80.5q0 23 8 53q178 112 403 112q203 0 291.5 -86t88.5 -284v-413q0 -99 15 -133.5t60 -34.5q34 0 69 20zM463 131q132 0 211 149v217q-58 7 -111 7q-122 0 -185 -50.5
t-63 -147.5q0 -82 39.5 -128.5t108.5 -46.5z" />
    <glyph glyph-name="aacute" unicode="&#xe1;" horiz-adv-x="1087" 
d="M816 1402l-403 -209q-41 40 -66 105l371 259q64 -69 98 -155zM1057 145l20 -85q-90 -80 -219 -80q-85 0 -126 42t-43 132q-53 -84 -133.5 -131.5t-171.5 -47.5q-141 0 -225.5 82.5t-84.5 219.5q0 158 124 248.5t341 90.5q66 0 135 -11v127q0 121 -36.5 177.5t-113.5 56.5
q-42 0 -76.5 -17t-58 -41t-46 -48.5t-52 -41.5t-64.5 -17q-48 0 -76.5 29.5t-28.5 80.5q0 23 8 53q178 112 403 112q203 0 291.5 -86t88.5 -284v-413q0 -99 15 -133.5t60 -34.5q34 0 69 20zM463 131q132 0 211 149v217q-58 7 -111 7q-122 0 -185 -50.5t-63 -147.5
q0 -82 39.5 -128.5t108.5 -46.5z" />
    <glyph glyph-name="acircumflex" unicode="&#xe2;" horiz-adv-x="1087" 
d="M513 1358l-240 -148q-42 40 -63 98l308 243l309 -243q-19 -53 -66 -98zM1057 145l20 -85q-90 -80 -219 -80q-85 0 -126 42t-43 132q-53 -84 -133.5 -131.5t-171.5 -47.5q-141 0 -225.5 82.5t-84.5 219.5q0 158 124 248.5t341 90.5q66 0 135 -11v127q0 121 -36.5 177.5
t-113.5 56.5q-42 0 -76.5 -17t-58 -41t-46 -48.5t-52 -41.5t-64.5 -17q-48 0 -76.5 29.5t-28.5 80.5q0 23 8 53q178 112 403 112q203 0 291.5 -86t88.5 -284v-413q0 -99 15 -133.5t60 -34.5q34 0 69 20zM463 131q132 0 211 149v217q-58 7 -111 7q-122 0 -185 -50.5
t-63 -147.5q0 -82 39.5 -128.5t108.5 -46.5z" />
    <glyph glyph-name="atilde" unicode="&#xe3;" horiz-adv-x="1087" 
d="M378 1320q-84 0 -144 -69l-30 96q29 53 86 88t112 35q68 0 140 -31t116 -31q85 0 144 68l31 -95q-29 -52 -86 -87.5t-113 -35.5q-68 0 -140 31t-116 31zM1057 145l20 -85q-90 -80 -219 -80q-85 0 -126 42t-43 132q-53 -84 -133.5 -131.5t-171.5 -47.5q-141 0 -225.5 82.5
t-84.5 219.5q0 158 124 248.5t341 90.5q66 0 135 -11v127q0 121 -36.5 177.5t-113.5 56.5q-42 0 -76.5 -17t-58 -41t-46 -48.5t-52 -41.5t-64.5 -17q-48 0 -76.5 29.5t-28.5 80.5q0 23 8 53q178 112 403 112q203 0 291.5 -86t88.5 -284v-413q0 -99 15 -133.5t60 -34.5
q34 0 69 20zM463 131q132 0 211 149v217q-58 7 -111 7q-122 0 -185 -50.5t-63 -147.5q0 -82 39.5 -128.5t108.5 -46.5z" />
    <glyph glyph-name="adieresis" unicode="&#xe4;" horiz-adv-x="1087" 
d="M319 1243q-55 0 -92 36.5t-37 90.5t37 90t92 36t92 -36t37 -90t-37 -90.5t-92 -36.5zM718 1243q-55 0 -92 36.5t-37 90.5t37 90t92 36t92 -36t37 -90t-37 -90.5t-92 -36.5zM1057 145l20 -85q-90 -80 -219 -80q-85 0 -126 42t-43 132q-53 -84 -133.5 -131.5t-171.5 -47.5
q-141 0 -225.5 82.5t-84.5 219.5q0 158 124 248.5t341 90.5q66 0 135 -11v127q0 121 -36.5 177.5t-113.5 56.5q-42 0 -76.5 -17t-58 -41t-46 -48.5t-52 -41.5t-64.5 -17q-48 0 -76.5 29.5t-28.5 80.5q0 23 8 53q178 112 403 112q203 0 291.5 -86t88.5 -284v-413
q0 -99 15 -133.5t60 -34.5q34 0 69 20zM463 131q132 0 211 149v217q-58 7 -111 7q-122 0 -185 -50.5t-63 -147.5q0 -82 39.5 -128.5t108.5 -46.5z" />
    <glyph glyph-name="aring" unicode="&#xe5;" horiz-adv-x="1087" 
d="M518 1191q-88 0 -145 55t-57 147q0 85 60 143.5t142 58.5q89 0 146 -55.5t57 -146.5q0 -85 -60.5 -143.5t-142.5 -58.5zM518 1493q-41 0 -68.5 -27.5t-27.5 -72.5t27.5 -72.5t68.5 -27.5t68.5 27.5t27.5 72.5t-27.5 72.5t-68.5 27.5zM1057 145l20 -85q-90 -80 -219 -80
q-85 0 -126 42t-43 132q-53 -84 -133.5 -131.5t-171.5 -47.5q-141 0 -225.5 82.5t-84.5 219.5q0 158 124 248.5t341 90.5q66 0 135 -11v127q0 121 -36.5 177.5t-113.5 56.5q-42 0 -76.5 -17t-58 -41t-46 -48.5t-52 -41.5t-64.5 -17q-48 0 -76.5 29.5t-28.5 80.5q0 23 8 53
q178 112 403 112q203 0 291.5 -86t88.5 -284v-413q0 -99 15 -133.5t60 -34.5q34 0 69 20zM463 131q132 0 211 149v217q-58 7 -111 7q-122 0 -185 -50.5t-63 -147.5q0 -82 39.5 -128.5t108.5 -46.5z" />
    <glyph glyph-name="ae" unicode="&#xe6;" horiz-adv-x="1671" 
d="M1232 128q86 0 153.5 24t132.5 78l52 -113q-89 -75 -183.5 -108.5t-223.5 -33.5q-284 0 -408 208q-52 -99 -148.5 -153.5t-222.5 -54.5q-141 0 -225.5 82.5t-84.5 219.5q0 165 124.5 261.5t340.5 96.5q69 0 135 -9v106q0 121 -36.5 177.5t-113.5 56.5q-42 0 -76.5 -17
t-58 -41t-46 -48.5t-52 -41.5t-64.5 -17q-48 0 -76.5 29.5t-28.5 80.5q0 23 8 53q178 112 403 112q123 0 196.5 -36t108.5 -112q134 148 346 148q186 0 293.5 -117.5t107.5 -319.5q0 -74 -13 -98.5t-53 -24.5h-590q2 -194 84 -291t219 -97zM1153 948q-190 0 -219 -315h360
q32 0 43.5 15.5t11.5 56.5q0 110 -53.5 176.5t-142.5 66.5zM463 131q153 0 234 197q-22 85 -23 181v2q-58 7 -111 7q-121 0 -184.5 -54.5t-63.5 -157.5q0 -82 39.5 -128.5t108.5 -46.5z" />
    <glyph glyph-name="ccedilla" unicode="&#xe7;" horiz-adv-x="999" 
d="M609 -23l-41 -84q93 0 149.5 -45.5t56.5 -121.5q0 -94 -66.5 -149.5t-180.5 -55.5q-100 0 -168 58q8 49 35 83q55 -42 121 -42q44 0 69.5 23t25.5 63q0 42 -37 65t-106 23l-26 51l58 133q-194 19 -302.5 163t-108.5 385q0 131 39.5 236t109 173t161.5 104.5t200 36.5
q182 0 328 -83q12 -29 12 -65q0 -52 -30.5 -83t-82.5 -31q-36 0 -62.5 14t-43.5 33.5t-34.5 39t-46 33.5t-66.5 14q-108 0 -166 -107t-58 -315q0 -189 73 -292.5t202 -103.5q143 0 267 102l52 -115q-151 -127 -333 -140z" />
    <glyph glyph-name="egrave" unicode="&#xe8;" horiz-adv-x="1083" 
d="M399 1557l371 -259q-24 -64 -67 -105l-402 209q34 86 98 155zM646 128q86 0 153.5 24t132.5 78l52 -113q-89 -75 -183.5 -108.5t-223.5 -33.5q-235 0 -362 145.5t-127 405.5q0 131 39.5 236t109 173t161.5 104.5t200 36.5q187 0 294 -113.5t107 -310.5q0 -74 -13 -98.5
t-53 -24.5h-590v-3q0 -199 82 -298.5t221 -99.5zM567 948q-186 0 -218 -301h359q32 0 43.5 15.5t11.5 56.5q0 105 -53.5 167t-142.5 62z" />
    <glyph glyph-name="eacute" unicode="&#xe9;" horiz-adv-x="1083" 
d="M840 1402l-402 -209q-43 41 -67 105l371 259q64 -69 98 -155zM646 128q86 0 153.5 24t132.5 78l52 -113q-89 -75 -183.5 -108.5t-223.5 -33.5q-235 0 -362 145.5t-127 405.5q0 131 39.5 236t109 173t161.5 104.5t200 36.5q187 0 294 -113.5t107 -310.5q0 -74 -13 -98.5
t-53 -24.5h-590v-3q0 -199 82 -298.5t221 -99.5zM567 948q-186 0 -218 -301h359q32 0 43.5 15.5t11.5 56.5q0 105 -53.5 167t-142.5 62z" />
    <glyph glyph-name="ecircumflex" unicode="&#xea;" horiz-adv-x="1083" 
d="M556 1358l-240 -148q-42 40 -63 98l308 243l309 -243q-19 -52 -67 -98zM646 128q86 0 153.5 24t132.5 78l52 -113q-89 -75 -183.5 -108.5t-223.5 -33.5q-235 0 -362 145.5t-127 405.5q0 131 39.5 236t109 173t161.5 104.5t200 36.5q187 0 294 -113.5t107 -310.5
q0 -74 -13 -98.5t-53 -24.5h-590v-3q0 -199 82 -298.5t221 -99.5zM567 948q-186 0 -218 -301h359q32 0 43.5 15.5t11.5 56.5q0 105 -53.5 167t-142.5 62z" />
    <glyph glyph-name="edieresis" unicode="&#xeb;" horiz-adv-x="1083" 
d="M362 1243q-55 0 -92 36.5t-37 90.5t37 90t92 36t92 -36t37 -90t-37 -90.5t-92 -36.5zM760 1243q-55 0 -92 36.5t-37 90.5t37 90t92 36t92 -36t37 -90t-37 -90.5t-92 -36.5zM646 128q86 0 153.5 24t132.5 78l52 -113q-89 -75 -183.5 -108.5t-223.5 -33.5
q-235 0 -362 145.5t-127 405.5q0 131 39.5 236t109 173t161.5 104.5t200 36.5q187 0 294 -113.5t107 -310.5q0 -74 -13 -98.5t-53 -24.5h-590v-3q0 -199 82 -298.5t221 -99.5zM567 948q-186 0 -218 -301h359q32 0 43.5 15.5t11.5 56.5q0 105 -53.5 167t-142.5 62z" />
    <glyph glyph-name="igrave" unicode="&#xec;" horiz-adv-x="655" 
d="M154 1557l371 -259q-24 -64 -67 -105l-403 209q33 84 99 155zM459 1076v-876q0 -56 16.5 -73t80.5 -26l55 -7l-4 -94h-518l4 94l52 11q43 10 56 27.5t13 67.5v621q0 58 -12.5 77.5t-55.5 28.5l-53 11l-4 90z" />
    <glyph glyph-name="iacute" unicode="&#xed;" horiz-adv-x="655" 
d="M97 1298l371 259q64 -69 98 -155l-402 -209q-43 41 -67 105zM459 1076v-876q0 -56 16 -72.5t81 -25.5l55 -8l-4 -94h-518l4 94l52 11q43 10 56 27.5t13 67.5v621q0 58 -12.5 77.5t-55.5 28.5l-53 11l-4 90z" />
    <glyph glyph-name="icircumflex" unicode="&#xee;" horiz-adv-x="655" 
d="M311 1358l-240 -148q-42 40 -63 98l309 243l308 -243q-19 -53 -66 -98zM459 1076v-876q0 -56 16.5 -73t80.5 -26l55 -7l-4 -94h-518l4 94l52 11q43 10 56 27.5t13 67.5v621q0 58 -12.5 77.5t-55.5 28.5l-53 11l-4 90z" />
    <glyph glyph-name="idieresis" unicode="&#xef;" horiz-adv-x="655" 
d="M-11 1370q0 54 37 90t92 36t92 -36t37 -90t-37 -90.5t-92 -36.5t-92 36.5t-37 90.5zM387 1370q0 54 37 90t92 36t92 -36t37 -90t-37 -90.5t-92 -36.5t-92 36.5t-37 90.5zM459 1076v-876q0 -56 16.5 -73t80.5 -26l55 -7l-4 -94h-518l4 94l52 11q43 10 56 27.5t13 67.5v621
q0 58 -12.5 77.5t-55.5 28.5l-53 11l-4 90z" />
    <glyph glyph-name="eth" unicode="&#xf0;" horiz-adv-x="1202" 
d="M880 1443l-120 -91q163 -116 248 -302.5t85 -431.5q0 -643 -502 -643q-242 0 -371.5 138t-129.5 396q0 248 129.5 391t352.5 143q105 0 183.5 -45t119.5 -127h2q-78 240 -282 380l-164 -124l-70 93l124 94q-104 51 -241 77l44 127q198 -20 360 -100l159 120zM591 103
q112 0 177.5 108.5t65.5 297.5q0 398 -243 398q-122 0 -182 -98t-60 -300q0 -189 65 -297.5t177 -108.5z" />
    <glyph glyph-name="ntilde" unicode="&#xf1;" horiz-adv-x="1275" 
d="M489 1320q-84 0 -144 -69l-31 96q29 52 86 87.5t113 35.5q69 0 140 -31t116 -31q85 0 144 68l31 -95q-29 -52 -86 -87.5t-113 -35.5q-55 0 -98.5 15.5t-80.5 31t-77 15.5zM1253 94l-4 -94h-512l4 94l50 11q40 9 52 25t12 62v515q0 214 -173 214q-148 0 -227 -145v-584
q0 -52 14.5 -66.5t75.5 -23.5l54 -8l-4 -94h-511l4 94l52 11q43 10 56 27.5t13 67.5v621q0 59 -12 78t-55 28l-54 11l-4 90l327 48q19 -76 24 -182q53 87 138.5 134.5t191.5 47.5q165 0 250.5 -88.5t85.5 -259.5v-528q0 -56 16 -72.5t80 -25.5z" />
    <glyph glyph-name="ograve" unicode="&#xf2;" horiz-adv-x="1196" 
d="M453 1557l371 -259q-24 -64 -67 -105l-402 209q34 86 98 155zM88 526q0 131 39.5 236t109 173t161.5 104.5t200 36.5q248 0 378.5 -141t130.5 -409q0 -254 -142 -402.5t-367 -148.5q-240 0 -375 146.5t-135 404.5zM348 526q0 -199 67 -311t183 -112t183 112t67 311
q0 209 -63.5 315.5t-186.5 106.5t-186.5 -106.5t-63.5 -315.5z" />
    <glyph glyph-name="oacute" unicode="&#xf3;" horiz-adv-x="1196" 
d="M371 1298l371 259q64 -69 98 -155l-402 -209q-43 41 -67 105zM88 526q0 131 39.5 236t109 173t161.5 104.5t200 36.5q248 0 378.5 -141t130.5 -409q0 -254 -142 -402.5t-367 -148.5q-240 0 -375 146.5t-135 404.5zM348 526q0 -199 67 -311t183 -112t183 112t67 311
q0 209 -63.5 315.5t-186.5 106.5t-186.5 -106.5t-63.5 -315.5z" />
    <glyph glyph-name="ocircumflex" unicode="&#xf4;" horiz-adv-x="1196" 
d="M592 1358l-240 -148q-42 40 -63 98l309 243l308 -243q-19 -53 -66 -98zM598 1076q248 0 378.5 -141t130.5 -409q0 -254 -142 -402.5t-367 -148.5q-240 0 -375 146.5t-135 404.5q0 131 39.5 236t109 173t161.5 104.5t200 36.5zM598 103q116 0 183 112t67 311
q0 209 -63.5 315.5t-186.5 106.5t-186.5 -106.5t-63.5 -315.5q0 -199 67 -311t183 -112z" />
    <glyph glyph-name="otilde" unicode="&#xf5;" horiz-adv-x="1196" 
d="M737 1408q86 0 145 68l30 -95q-29 -53 -86 -88t-112 -35q-68 0 -140 31t-116 31q-85 0 -145 -69l-30 96q29 53 86 88t112 35t98.5 -15.5t80.5 -31t77 -15.5zM88 526q0 131 39.5 236t109 173t161.5 104.5t200 36.5q248 0 378.5 -141t130.5 -409q0 -254 -142 -402.5
t-367 -148.5q-240 0 -375 146.5t-135 404.5zM348 526q0 -199 67 -311t183 -112t183 112t67 311q0 209 -63.5 315.5t-186.5 106.5t-186.5 -106.5t-63.5 -315.5z" />
    <glyph glyph-name="odieresis" unicode="&#xf6;" horiz-adv-x="1196" 
d="M269 1370q0 54 37 90t92 36t92 -36t37 -90t-37 -90.5t-92 -36.5t-92 36.5t-37 90.5zM668 1370q0 54 37 90t92 36t92 -36t37 -90t-37 -90.5t-92 -36.5t-92 36.5t-37 90.5zM88 526q0 131 39.5 236t109 173t161.5 104.5t200 36.5q248 0 378.5 -141t130.5 -409
q0 -254 -142 -402.5t-367 -148.5q-240 0 -375 146.5t-135 404.5zM348 526q0 -199 67 -311t183 -112t183 112t67 311q0 209 -63.5 315.5t-186.5 106.5t-186.5 -106.5t-63.5 -315.5z" />
    <glyph glyph-name="divide" unicode="&#xf7;" horiz-adv-x="1167" 
d="M440 959q0 63 40.5 103.5t103.5 40.5t103 -40.5t40 -103.5t-40 -103.5t-103 -40.5t-103.5 40.5t-40.5 103.5zM1069 489h-971v145h971v-145zM440 164q0 63 40.5 103t103.5 40t103 -40t40 -103t-40 -103.5t-103 -40.5t-103.5 40.5t-40.5 103.5z" />
    <glyph glyph-name="oslash" unicode="&#xf8;" horiz-adv-x="1196" 
d="M950 1143l-63 -136q220 -130 220 -481q0 -254 -142 -402.5t-367 -148.5q-98 0 -181 26l-66 -142l-106 49l66 141q-108 67 -165.5 189t-57.5 288q0 131 39.5 236t109 173t161.5 104.5t200 36.5q98 0 181 -23l65 139zM598 948q-124 0 -189 -106.5t-65 -315.5
q0 -182 58 -293l310 685q-50 30 -114 30zM598 103q118 0 185.5 112t67.5 311q0 191 -55 298l-312 -688q50 -33 114 -33z" />
    <glyph glyph-name="ugrave" unicode="&#xf9;" horiz-adv-x="1265" 
d="M449 1557l371 -259q-24 -64 -67 -105l-403 209q33 84 99 155zM1213 108l-4 -96l-336 -33q-18 72 -23 178q-52 -87 -137 -134.5t-191 -47.5q-165 0 -249.5 89t-84.5 260v497q0 58 -12.5 77.5t-55.5 28.5l-53 11l-4 90l370 48v-732q0 -213 171 -213q147 0 226 144v546
q0 58 -14.5 76.5t-65.5 29.5l-53 11l-4 90l382 48v-851q0 -58 16.5 -80.5t66.5 -29.5z" />
    <glyph glyph-name="uacute" unicode="&#xfa;" horiz-adv-x="1265" 
d="M902 1402l-402 -209q-43 41 -67 105l371 259q64 -69 98 -155zM1213 108l-4 -96l-336 -32q-18 72 -23 177q-52 -87 -137 -134.5t-191 -47.5q-165 0 -249.5 89t-84.5 260v497q0 58 -12.5 77.5t-55.5 28.5l-53 11l-4 90l370 48v-732q0 -213 171 -213q147 0 226 144v546
q0 58 -14.5 76.5t-65.5 29.5l-53 11l-4 90l382 48v-851q0 -58 16.5 -80.5t66.5 -29.5z" />
    <glyph glyph-name="ucircumflex" unicode="&#xfb;" horiz-adv-x="1265" 
d="M614 1358l-240 -148q-42 40 -63 98l309 243l308 -243q-19 -53 -66 -98zM1213 108l-4 -96l-336 -33q-18 72 -23 178q-52 -87 -137 -134.5t-191 -47.5q-165 0 -249.5 89t-84.5 260v497q0 58 -12.5 77.5t-55.5 28.5l-53 11l-4 90l370 48v-732q0 -213 171 -213q147 0 226 144
v546q0 58 -14.5 76.5t-65.5 29.5l-53 11l-4 90l382 48v-851q0 -58 16.5 -80.5t66.5 -29.5z" />
    <glyph glyph-name="udieresis" unicode="&#xfc;" horiz-adv-x="1265" 
d="M421 1243q-55 0 -92 36.5t-37 90.5t37 90t92 36t92 -36t37 -90t-37 -90.5t-92 -36.5zM819 1243q-55 0 -92 36.5t-37 90.5t37 90t92 36t92 -36t37 -90t-37 -90.5t-92 -36.5zM1213 108l-4 -96l-336 -33q-18 72 -23 178q-52 -87 -137 -134.5t-191 -47.5q-165 0 -249.5 89
t-84.5 260v497q0 58 -12.5 77.5t-55.5 28.5l-53 11l-4 90l370 48v-732q0 -213 171 -213q147 0 226 144v546q0 58 -14.5 76.5t-65.5 29.5l-53 11l-4 90l382 48v-851q0 -58 16.5 -80.5t66.5 -29.5z" />
    <glyph glyph-name="yacute" unicode="&#xfd;" horiz-adv-x="1155" 
d="M893 1402l-402 -209q-43 41 -67 105l371 259q64 -69 98 -155zM1152 1051l-4 -93l-27 -6q-50 -11 -70.5 -32t-48.5 -89l-348 -854q-99 -243 -201 -335.5t-275 -92.5q-36 0 -79 10q-27 45 -27 93t28.5 76.5t77.5 28.5q26 0 63.5 -11t58.5 -11q63 0 101.5 42t86.5 164l19 48
q-35 34 -70 122l-281 720q-29 74 -46 94t-56 26l-39 7l-4 93h519l-4 -93l-49 -8q-44 -7 -63 -20.5t-19 -39.5q0 -24 13 -59l214 -569l216 569q17 45 17 66q0 25 -19.5 36.5t-67.5 17.5l-47 7l4 93h427z" />
    <glyph glyph-name="thorn" unicode="&#xfe;" horiz-adv-x="1204" 
d="M694 1076q200 0 309.5 -143t109.5 -406q0 -248 -131 -400t-345 -152q-154 0 -245 96q4 -89 4 -229v-62q0 -56 17 -73t84 -27l92 -13l-4 -97h-559l4 94l52 11q43 10 56 27.5t13 67.5v1493q0 58 -12.5 77.5t-55.5 28.5l-53 11l-4 90l370 48v-379q0 -142 -4 -231
q51 81 128.5 124.5t173.5 43.5zM586 113q131 0 199.5 105t68.5 305q0 193 -62 295.5t-178 102.5q-142 0 -218 -144v-566q78 -98 190 -98z" />
    <glyph glyph-name="ydieresis" unicode="&#xff;" horiz-adv-x="1155" 
d="M413 1243q-55 0 -92 36.5t-37 90.5t37 90t92 36t92 -36t37 -90t-37 -90.5t-92 -36.5zM812 1243q-55 0 -92 36.5t-37 90.5t37 90t92 36t92 -36t37 -90t-37 -90.5t-92 -36.5zM1152 1051l-4 -93l-27 -6q-50 -11 -70.5 -32t-48.5 -89l-348 -854q-99 -243 -201 -335.5
t-275 -92.5q-36 0 -79 10q-27 45 -27 93t28.5 76.5t77.5 28.5q26 0 63.5 -11t58.5 -11q63 0 101.5 42t86.5 164l19 48q-35 34 -70 122l-281 720q-29 74 -46 94t-56 26l-39 7l-4 93h519l-4 -93l-49 -8q-44 -7 -63 -20.5t-19 -39.5q0 -24 13 -59l214 -569l216 569q17 45 17 66
q0 25 -19.5 36.5t-67.5 17.5l-47 7l4 93h427z" />
    <glyph glyph-name="Amacron" unicode="&#x100;" horiz-adv-x="1417" 
d="M1000 1633h-563v140h563v-140zM831 96l53 8q48 8 69 24.5t21 50.5q0 39 -25 114l-42 128h-488l-44 -128q-28 -81 -28 -116q0 -34 24.5 -49t87.5 -25l45 -7l-4 -96h-503l4 96l53 8q55 9 81 42.5t67 146.5l419 1147h195l389 -1147q38 -113 62.5 -145t81.5 -44l41 -8l4 -96
h-567zM865 550l-196 597l-205 -597h401z" />
    <glyph glyph-name="amacron" unicode="&#x101;" horiz-adv-x="1087" 
d="M800 1292h-563v139h563v-139zM1057 145l20 -85q-90 -80 -219 -80q-85 0 -126 42t-43 132q-53 -84 -133.5 -131.5t-171.5 -47.5q-141 0 -225.5 82.5t-84.5 219.5q0 158 124 248.5t341 90.5q66 0 135 -11v127q0 121 -36.5 177.5t-113.5 56.5q-42 0 -76.5 -17t-58 -41
t-46 -48.5t-52 -41.5t-64.5 -17q-48 0 -76.5 29.5t-28.5 80.5q0 23 8 53q178 112 403 112q203 0 291.5 -86t88.5 -284v-413q0 -99 15 -133.5t60 -34.5q34 0 69 20zM463 131q132 0 211 149v217q-58 7 -111 7q-122 0 -185 -50.5t-63 -147.5q0 -82 39.5 -128.5t108.5 -46.5z
" />
    <glyph glyph-name="Abreve" unicode="&#x102;" horiz-adv-x="1417" 
d="M718 1565q-114 0 -189 60t-105 176q17 15 51 27t61 12q45 -134 184 -134t184 134q27 0 59 -12t49 -27q-30 -116 -105 -176t-189 -60zM831 96l53 8q48 8 69 24.5t21 50.5q0 39 -25 114l-42 128h-488l-44 -128q-28 -81 -28 -116q0 -34 24.5 -49t87.5 -25l45 -7l-4 -96h-503
l4 96l53 8q55 9 81 42.5t67 146.5l419 1147h195l389 -1147q38 -113 62.5 -145t81.5 -44l41 -8l4 -96h-567zM865 550l-196 597l-205 -597h401z" />
    <glyph glyph-name="abreve" unicode="&#x103;" horiz-adv-x="1087" 
d="M518 1223q-114 0 -189 60t-105 176q17 15 51 27t61 12q45 -134 184 -134t184 134q27 0 59.5 -12t49.5 -27q-30 -115 -105.5 -175.5t-189.5 -60.5zM1057 145l20 -85q-90 -80 -219 -80q-85 0 -126 42t-43 132q-53 -84 -133.5 -131.5t-171.5 -47.5q-141 0 -225.5 82.5
t-84.5 219.5q0 158 124 248.5t341 90.5q66 0 135 -11v127q0 121 -36.5 177.5t-113.5 56.5q-42 0 -76.5 -17t-58 -41t-46 -48.5t-52 -41.5t-64.5 -17q-48 0 -76.5 29.5t-28.5 80.5q0 23 8 53q178 112 403 112q203 0 291.5 -86t88.5 -284v-413q0 -99 15 -133.5t60 -34.5
q34 0 69 20zM463 131q132 0 211 149v217q-58 7 -111 7q-122 0 -185 -50.5t-63 -147.5q0 -82 39.5 -128.5t108.5 -46.5z" />
    <glyph glyph-name="Aogonek" unicode="&#x104;" horiz-adv-x="1417" 
d="M1394 0h-234q-137 0 -218 -56.5t-81 -152.5q0 -57 27 -87.5t76 -30.5q68 0 113 45q27 -38 33 -87q-83 -78 -211 -78q-96 0 -155.5 54t-59.5 141q0 63 21.5 114.5t54 84t70 63t70 53.5t54 54t21.5 65q0 32 -26 111l-42 128h-488l-44 -128q-28 -81 -28 -116q0 -34 24.5 -49
t87.5 -25l45 -7l-4 -96h-503l4 96l53 8q55 9 81 42.5t67 146.5l419 1147h195l389 -1147q38 -113 62.5 -145t81.5 -44l41 -8zM865 550l-196 597l-205 -597h401z" />
    <glyph glyph-name="aogonek" unicode="&#x105;" horiz-adv-x="1087" 
d="M1054 -282q25 -36 32 -87q-83 -78 -210 -78q-96 0 -155.5 54t-59.5 141q0 71 42.5 134.5t112.5 99.5q-123 19 -127 172q-53 -84 -133.5 -131.5t-171.5 -47.5q-141 0 -225.5 82.5t-84.5 219.5q0 158 124 248.5t341 90.5q66 0 135 -11v127q0 121 -36.5 177.5t-113.5 56.5
q-42 0 -76.5 -17t-58 -41t-46 -48.5t-52 -41.5t-64.5 -17q-48 0 -76.5 29.5t-28.5 80.5q0 23 8 53q178 112 403 112q203 0 291.5 -86t88.5 -284v-413q0 -99 15 -133.5t60 -34.5q34 0 69 20l21 -91q-109 -52 -174.5 -126.5t-65.5 -147.5q0 -49 28 -78t74 -29q69 0 114 45z
M463 131q132 0 211 149v217q-58 7 -111 7q-122 0 -185 -50.5t-63 -147.5q0 -82 39.5 -128.5t108.5 -46.5z" />
    <glyph glyph-name="Cacute" unicode="&#x106;" horiz-adv-x="1320" 
d="M567 1640l370 259q66 -71 99 -155l-403 -210q-41 39 -66 106zM775 1466q113 0 248.5 -24.5t201.5 -24.5q4 -72 4 -185q0 -112 -4 -173l-141 -9q-17 146 -90.5 214t-214.5 68q-196 0 -305.5 -160.5t-109.5 -454.5q0 -285 107.5 -450.5t307.5 -165.5q151 0 228.5 74
t94.5 234l136 -9v-328q-97 -49 -219.5 -77t-243.5 -28q-331 0 -507 198t-176 552q0 173 53 315t145.5 236.5t217 146t267.5 51.5z" />
    <glyph glyph-name="cacute" unicode="&#x107;" horiz-adv-x="999" 
d="M367 1298l370 259q66 -71 99 -155l-403 -209q-41 40 -66 105zM554 -25q-219 0 -342.5 146.5t-123.5 404.5q0 131 39.5 236t109 173t161.5 104.5t200 36.5q182 0 328 -83q12 -29 12 -65q0 -52 -30.5 -83t-82.5 -31q-36 0 -62.5 14t-43.5 33.5t-34.5 39t-46 33.5t-66.5 14
q-108 0 -166 -107t-58 -315q0 -189 73 -292.5t202 -103.5q143 0 267 102l52 -115q-88 -74 -180 -108t-208 -34z" />
    <glyph glyph-name="Ccircumflex" unicode="&#x108;" horiz-adv-x="1320" 
d="M745 1700l-241 -148q-41 39 -62 98l308 243l308 -243q-19 -53 -66 -98zM1238 400v-328q-97 -49 -219.5 -77t-243.5 -28q-331 0 -507 198t-176 552q0 173 53 315t145.5 236.5t217 146t267.5 51.5q113 0 248.5 -24.5t201.5 -24.5q4 -72 4 -185q0 -112 -4 -173l-141 -9
q-17 146 -90.5 214t-214.5 68q-196 0 -305.5 -160.5t-109.5 -454.5q0 -285 107.5 -450.5t307.5 -165.5q151 0 228.5 74t94.5 234z" />
    <glyph glyph-name="ccircumflex" unicode="&#x109;" horiz-adv-x="999" 
d="M555 1358l-240 -148q-42 40 -63 98l308 243l309 -243q-19 -53 -66 -98zM890 232l52 -115q-88 -74 -180 -108t-208 -34q-219 0 -342.5 146.5t-123.5 404.5q0 131 39.5 236t109 173t161.5 104.5t200 36.5q182 0 328 -83q12 -29 12 -65q0 -52 -30.5 -83t-82.5 -31
q-36 0 -62.5 14t-43.5 33.5t-34.5 39t-46 33.5t-66.5 14q-108 0 -166 -107t-58 -315q0 -189 73 -292.5t202 -103.5q143 0 267 102z" />
    <glyph glyph-name="Cdotaccent" unicode="&#x10a;" horiz-adv-x="1320" 
d="M606 1716q0 61 40.5 99.5t103.5 38.5t103.5 -38.5t40.5 -99.5t-40.5 -99.5t-103.5 -38.5t-103.5 38.5t-40.5 99.5zM775 1466q113 0 248.5 -24.5t201.5 -24.5q4 -72 4 -185q0 -112 -4 -173l-141 -9q-17 146 -90.5 214t-214.5 68q-196 0 -305.5 -160.5t-109.5 -454.5
q0 -285 107.5 -450.5t307.5 -165.5q151 0 228.5 74t94.5 234l136 -9v-328q-97 -49 -219.5 -77t-243.5 -28q-331 0 -507 198t-176 552q0 173 53 315t145.5 236.5t217 146t267.5 51.5z" />
    <glyph glyph-name="cdotaccent" unicode="&#x10b;" horiz-adv-x="999" 
d="M417 1374q0 61 40 99.5t103 38.5t103.5 -38.5t40.5 -99.5t-40.5 -99t-103.5 -38t-103 38t-40 99zM554 -25q-219 0 -342.5 146.5t-123.5 404.5q0 131 39.5 236t109 173t161.5 104.5t200 36.5q182 0 328 -83q12 -29 12 -65q0 -52 -30.5 -83t-82.5 -31q-36 0 -62.5 14
t-43.5 33.5t-34.5 39t-46 33.5t-66.5 14q-108 0 -166 -107t-58 -315q0 -189 73 -292.5t202 -103.5q143 0 267 102l52 -115q-88 -74 -180 -108t-208 -34z" />
    <glyph glyph-name="Ccaron" unicode="&#x10c;" horiz-adv-x="1320" 
d="M750 1543l-298 243q19 53 66 98l237 -147l230 147q42 -40 63 -98zM1238 400v-328q-97 -49 -219.5 -77t-243.5 -28q-331 0 -507 198t-176 552q0 173 53 315t145.5 236.5t217 146t267.5 51.5q113 0 248.5 -24.5t201.5 -24.5q4 -72 4 -185q0 -112 -4 -173l-141 -9
q-17 146 -90.5 214t-214.5 68q-196 0 -305.5 -160.5t-109.5 -454.5q0 -285 107.5 -450.5t307.5 -165.5q151 0 228.5 74t94.5 234z" />
    <glyph glyph-name="ccaron" unicode="&#x10d;" horiz-adv-x="999" 
d="M560 1201l-298 243q19 53 66 98l238 -146l230 146q42 -40 63 -98zM890 232l52 -115q-88 -74 -180 -108t-208 -34q-219 0 -342.5 146.5t-123.5 404.5q0 131 39.5 236t109 173t161.5 104.5t200 36.5q182 0 328 -83q12 -29 12 -65q0 -52 -30.5 -83t-82.5 -31q-36 0 -62.5 14
t-43.5 33.5t-34.5 39t-46 33.5t-66.5 14q-108 0 -166 -107t-58 -315q0 -189 73 -292.5t202 -103.5q143 0 267 102z" />
    <glyph glyph-name="Dcaron" unicode="&#x10e;" horiz-adv-x="1490" 
d="M742 1543l-298 243q19 53 66 98l238 -147l230 147q42 -40 63 -98zM665 1443q360 0 547 -185t187 -541q0 -215 -91.5 -380t-258.5 -255.5t-384 -90.5q-73 0 -220 4.5t-236 4.5h-115l5 96l68 13q47 9 63.5 28.5t16.5 67.5v1023q0 53 -18.5 70.5t-87.5 31.5l-42 8l-5 96h115
q89 0 236 4.5t220 4.5zM639 114q232 0 360 158.5t128 444.5q0 290 -122.5 446.5t-347.5 156.5q-88 0 -160 -12v-1092q0 -58 31 -80t111 -22z" />
    <glyph glyph-name="dcaron" unicode="&#x10f;" horiz-adv-x="1259" 
d="M1203 1547q88 0 170 -21q-28 -205 -96 -375q-72 0 -128 23q45 215 54 373zM1053 1518v-1293q0 -57 17 -80t67 -30l55 -7l-4 -96l-337 -32q-18 70 -23 176q-52 -86 -134 -133.5t-184 -47.5q-200 0 -309.5 143t-109.5 406q0 248 131 400t345 152q155 0 246 -96
q-5 112 -5 230v53q0 58 -12.5 77.5t-55.5 28.5l-53 11l-4 90zM591 131q141 0 217 143v567q-77 97 -190 97q-131 0 -199.5 -104.5t-68.5 -304.5q0 -193 62.5 -295.5t178.5 -102.5z" />
    <glyph glyph-name="Dcroat" unicode="&#x110;" horiz-adv-x="1490" 
d="M665 1443q360 0 547 -185t187 -541q0 -215 -91.5 -380t-258.5 -255.5t-384 -90.5q-73 0 -220 4.5t-236 4.5h-115l5 96l68 13q47 9 63.5 28.5t16.5 67.5v469h-137v123h137v431q0 53 -18.5 70.5t-87.5 31.5l-42 8l-5 96h115q89 0 236 4.5t220 4.5zM639 114q232 0 360 158.5
t128 444.5q0 290 -122.5 446.5t-347.5 156.5q-88 0 -160 -12v-511h265v-123h-265v-458q0 -58 31 -80t111 -22z" />
    <glyph glyph-name="dcroat" unicode="&#x111;" horiz-adv-x="1239" 
d="M1192 108l-4 -96l-337 -32q-18 70 -23 176q-52 -86 -134 -133.5t-184 -47.5q-200 0 -309.5 143t-109.5 406q0 248 131 400t345 152q155 0 246 -96q-5 145 -5 200h-257v102h257q0 59 -8.5 80t-44.5 29l-46 10l-4 69l348 48v-233h124v-108h-124v-952q0 -57 17 -80t67 -30z
M591 131q141 0 217 143v567q-77 97 -190 97q-131 0 -199.5 -104.5t-68.5 -304.5q0 -193 62.5 -295.5t178.5 -102.5z" />
    <glyph glyph-name="Emacron" unicode="&#x112;" horiz-adv-x="1271" 
d="M936 1633h-563v140h563v-140zM94 1434h1034q27 -194 27 -359l-147 -9q-17 149 -57 196t-151 47h-303v-518h255q50 0 69 21t33 92l9 42l124 4v-455l-124 4l-12 79q-7 47 -30 67t-69 20h-255v-451q0 -55 27.5 -72t116.5 -17h196q111 0 151 47t57 196l147 -9
q0 -165 -27 -359h-1071l5 96l68 13q47 9 63.5 28.5t16.5 67.5v1023q0 53 -18.5 70.5t-87.5 31.5l-42 8z" />
    <glyph glyph-name="emacron" unicode="&#x113;" horiz-adv-x="1083" 
d="M843 1292h-563v139h563v-139zM646 128q86 0 153.5 24t132.5 78l52 -113q-89 -75 -183.5 -108.5t-223.5 -33.5q-235 0 -362 145.5t-127 405.5q0 131 39.5 236t109 173t161.5 104.5t200 36.5q187 0 294 -113.5t107 -310.5q0 -74 -13 -98.5t-53 -24.5h-590v-3
q0 -199 82 -298.5t221 -99.5zM567 948q-186 0 -218 -301h359q32 0 43.5 15.5t11.5 56.5q0 105 -53.5 167t-142.5 62z" />
    <glyph glyph-name="Ebreve" unicode="&#x114;" horiz-adv-x="1271" 
d="M472 1840q45 -134 184 -134t184 134q27 0 59 -12t49 -27q-30 -116 -105 -176t-189 -60t-189 60t-105 176q17 15 51 27t61 12zM94 1434h1034q27 -194 27 -359l-147 -9q-17 149 -57 196t-151 47h-303v-518h255q50 0 69 21t33 92l9 42l124 4v-455l-124 4l-12 79
q-7 47 -30 67t-69 20h-255v-451q0 -55 27.5 -72t116.5 -17h196q111 0 151 47t57 196l147 -9q0 -165 -27 -359h-1071l5 96l68 13q47 9 63.5 28.5t16.5 67.5v1023q0 53 -18.5 70.5t-87.5 31.5l-42 8z" />
    <glyph glyph-name="ebreve" unicode="&#x115;" horiz-adv-x="1083" 
d="M561 1223q-114 0 -189 60t-105 176q17 15 51 27t61 12q45 -134 184 -134t184 134q27 0 59 -12t49 -27q-30 -116 -105 -176t-189 -60zM646 128q86 0 153.5 24t132.5 78l52 -113q-89 -75 -183.5 -108.5t-223.5 -33.5q-235 0 -362 145.5t-127 405.5q0 131 39.5 236t109 173
t161.5 104.5t200 36.5q187 0 294 -113.5t107 -310.5q0 -74 -13 -98.5t-53 -24.5h-590v-3q0 -199 82 -298.5t221 -99.5zM567 948q-186 0 -218 -301h359q32 0 43.5 15.5t11.5 56.5q0 105 -53.5 167t-142.5 62z" />
    <glyph glyph-name="Edotaccent" unicode="&#x116;" horiz-adv-x="1271" 
d="M510 1716q0 61 40.5 99.5t103.5 38.5t103.5 -38.5t40.5 -99.5t-40.5 -99.5t-103.5 -38.5t-103.5 38.5t-40.5 99.5zM94 1434h1034q27 -194 27 -359l-147 -9q-17 149 -57 196t-151 47h-303v-518h255q50 0 69 21t33 92l9 42l124 4v-455l-124 4l-12 79q-7 47 -30 67t-69 20
h-255v-451q0 -55 27.5 -72t116.5 -17h196q111 0 151 47t57 196l147 -9q0 -165 -27 -359h-1071l5 96l68 13q47 9 63.5 28.5t16.5 67.5v1023q0 53 -18.5 70.5t-87.5 31.5l-42 8z" />
    <glyph glyph-name="edotaccent" unicode="&#x117;" horiz-adv-x="1083" 
d="M561 1237q-63 0 -103.5 38t-40.5 99t40.5 99.5t103.5 38.5t103.5 -38.5t40.5 -99.5t-40.5 -99t-103.5 -38zM646 128q86 0 153.5 24t132.5 78l52 -113q-89 -75 -183.5 -108.5t-223.5 -33.5q-235 0 -362 145.5t-127 405.5q0 131 39.5 236t109 173t161.5 104.5t200 36.5
q187 0 294 -113.5t107 -310.5q0 -74 -13 -98.5t-53 -24.5h-590v-3q0 -199 82 -298.5t221 -99.5zM567 948q-186 0 -218 -301h359q32 0 43.5 15.5t11.5 56.5q0 105 -53.5 167t-142.5 62z" />
    <glyph glyph-name="Eogonek" unicode="&#x118;" horiz-adv-x="1271" 
d="M1165 0q-104 0 -184 -67t-80 -153q0 -49 28 -78t75 -29q68 0 113 45q27 -38 33 -87q-83 -78 -211 -78q-96 0 -155.5 54t-59.5 141q0 82 53 152.5t134 99.5h-817l5 96l68 13q47 9 63.5 28.5t16.5 67.5v1023q0 53 -18.5 70.5t-87.5 31.5l-42 8l-5 96h1034q27 -194 27 -359
l-147 -9q-17 149 -57 196t-151 47h-303v-518h255q50 0 69 21t33 92l9 42l124 4v-455l-124 4l-12 79q-7 47 -30 67t-69 20h-255v-451q0 -55 27.5 -72t116.5 -17h196q111 0 151 47t57 196l147 -9q0 -165 -27 -359z" />
    <glyph glyph-name="eogonek" unicode="&#x119;" horiz-adv-x="1083" 
d="M849 -327q69 0 114 45q25 -36 32 -87q-83 -78 -211 -78q-96 0 -155.5 54t-59.5 141q0 73 39.5 138t103.5 100q-64 -11 -135 -11q-235 0 -362 145.5t-127 405.5q0 131 39.5 236t109 173t161.5 104.5t200 36.5q187 0 294 -113.5t107 -310.5q0 -74 -13 -98.5t-53 -24.5h-590
v-3q0 -199 82 -298.5t221 -99.5q86 0 153.5 24t132.5 78l55 -119q-113 -71 -177 -158.5t-64 -168.5q0 -51 28 -81t75 -30zM567 948q-186 0 -218 -301h359q32 0 43.5 15.5t11.5 56.5q0 105 -53.5 167t-142.5 62z" />
    <glyph glyph-name="Ecaron" unicode="&#x11a;" horiz-adv-x="1271" 
d="M654 1543l-298 243q19 53 66 98l237 -147l230 147q42 -40 63 -98zM1045 368l147 -9q0 -165 -27 -359h-1071l5 96l68 13q47 9 63.5 28.5t16.5 67.5v1023q0 53 -18.5 70.5t-87.5 31.5l-42 8l-5 96h1034q27 -194 27 -359l-147 -9q-17 149 -57 196t-151 47h-303v-518h255
q50 0 69 21t33 92l9 42l124 4v-455l-124 4l-12 79q-7 47 -30 67t-69 20h-255v-451q0 -55 27.5 -72t116.5 -17h196q111 0 151 47t57 196z" />
    <glyph glyph-name="ecaron" unicode="&#x11b;" horiz-adv-x="1083" 
d="M561 1201l-298 243q19 53 66 98l238 -146l229 146q42 -40 63 -98zM646 128q86 0 153.5 24t132.5 78l52 -113q-89 -75 -183.5 -108.5t-223.5 -33.5q-235 0 -362 145.5t-127 405.5q0 131 39.5 236t109 173t161.5 104.5t200 36.5q187 0 294 -113.5t107 -310.5
q0 -74 -13 -98.5t-53 -24.5h-590v-3q0 -199 82 -298.5t221 -99.5zM567 948q-186 0 -218 -301h359q32 0 43.5 15.5t11.5 56.5q0 105 -53.5 167t-142.5 62z" />
    <glyph glyph-name="Gcircumflex" unicode="&#x11c;" horiz-adv-x="1466" 
d="M757 1700l-240 -148q-42 40 -63 98l308 243l309 -243q-19 -53 -66 -98zM1425 704l-4 -96l-62 -11q-47 -9 -63 -29.5t-16 -68.5v-446q-232 -86 -505 -86q-331 0 -507 198t-176 552q0 173 53 315t146.5 236.5t220.5 146t275 51.5q121 0 267 -24.5t210 -24.5q4 -72 4 -185
q0 -112 -4 -173l-141 -9q-16 145 -98 213.5t-234 68.5q-204 0 -315.5 -160t-111.5 -455q0 -281 107.5 -444.5t307.5 -163.5q148 0 263 48v342q0 53 -18.5 70t-87.5 31l-42 8l-4 96h535z" />
    <glyph glyph-name="gcircumflex" unicode="&#x11d;" horiz-adv-x="1122" 
d="M557 1358l-240 -148q-42 40 -63 98l309 243l308 -243q-19 -53 -66 -98zM1097 986q0 -44 -22.5 -64.5t-71.5 -20.5q-48 0 -170 39q55 -36 88 -98.5t33 -133.5q0 -153 -117.5 -248t-304.5 -95q-94 0 -171 24q-42 -36 -42 -78q0 -41 36 -64t121 -35l214 -29
q202 -28 288.5 -90.5t86.5 -181.5q0 -162 -144.5 -262t-379.5 -100q-223 0 -352.5 75t-129.5 203q0 83 60 145.5t168 94.5q-71 21 -112 66.5t-41 104.5q0 60 37 108t106 79q-82 47 -126.5 123t-44.5 172q0 167 119.5 261.5t306.5 94.5q119 0 213 -42q145 1 338 25
q14 -36 14 -73zM532 484q86 0 138.5 64.5t52.5 171.5q0 115 -49.5 176t-141.5 61t-141.5 -61t-49.5 -176q0 -107 52.5 -171.5t138.5 -64.5zM834 -141q0 57 -35.5 89.5t-124 53t-265.5 38.5q-134 -61 -134 -187q0 -88 73 -140.5t196 -52.5q130 0 210 55t80 144z" />
    <glyph glyph-name="Gbreve" unicode="&#x11e;" horiz-adv-x="1466" 
d="M762 1565q-114 0 -189 60t-105 176q17 15 51 27t61 12q45 -134 184 -134q140 0 185 134q27 0 59 -12t49 -27q-30 -115 -105.5 -175.5t-189.5 -60.5zM1425 704l-4 -96l-62 -11q-47 -9 -63 -29.5t-16 -68.5v-446q-232 -86 -505 -86q-331 0 -507 198t-176 552q0 173 53 315
t146.5 236.5t220.5 146t275 51.5q121 0 267 -24.5t210 -24.5q4 -72 4 -185q0 -112 -4 -173l-141 -9q-16 145 -98 213.5t-234 68.5q-204 0 -315.5 -160t-111.5 -455q0 -281 107.5 -444.5t307.5 -163.5q148 0 263 48v342q0 53 -18.5 70t-87.5 31l-42 8l-4 96h535z" />
    <glyph glyph-name="gbreve" unicode="&#x11f;" horiz-adv-x="1122" 
d="M563 1223q-114 0 -189.5 60.5t-105.5 175.5q17 15 51.5 27t61.5 12q45 -134 184 -134t184 134q27 0 59 -12t49 -27q-30 -116 -105 -176t-189 -60zM1097 986q0 -44 -22.5 -64.5t-71.5 -20.5q-48 0 -170 39q55 -36 88 -98.5t33 -133.5q0 -153 -117.5 -248t-304.5 -95
q-94 0 -171 24q-42 -36 -42 -78q0 -41 36 -64t121 -35l214 -29q202 -28 288.5 -90.5t86.5 -181.5q0 -162 -144.5 -262t-379.5 -100q-223 0 -352.5 75t-129.5 203q0 83 60 145.5t168 94.5q-71 21 -112 66.5t-41 104.5q0 60 37 108t106 79q-82 47 -126.5 123t-44.5 172
q0 167 119.5 261.5t306.5 94.5q119 0 213 -42q145 1 338 25q14 -36 14 -73zM532 484q86 0 138.5 64.5t52.5 171.5q0 115 -49.5 176t-141.5 61t-141.5 -61t-49.5 -176q0 -107 52.5 -171.5t138.5 -64.5zM834 -141q0 57 -35.5 89.5t-124 53t-265.5 38.5q-134 -61 -134 -187
q0 -88 73 -140.5t196 -52.5q130 0 210 55t80 144z" />
    <glyph glyph-name="Gdotaccent" unicode="&#x120;" horiz-adv-x="1466" 
d="M762 1578q-63 0 -103 38.5t-40 99.5t40 99.5t103 38.5t103.5 -38.5t40.5 -99.5t-40.5 -99.5t-103.5 -38.5zM1425 704l-4 -96l-62 -11q-47 -9 -63 -29.5t-16 -68.5v-446q-232 -86 -505 -86q-331 0 -507 198t-176 552q0 173 53 315t146.5 236.5t220.5 146t275 51.5
q121 0 267 -24.5t210 -24.5q4 -72 4 -185q0 -112 -4 -173l-141 -9q-16 145 -98 213.5t-234 68.5q-204 0 -315.5 -160t-111.5 -455q0 -281 107.5 -444.5t307.5 -163.5q148 0 263 48v342q0 53 -18.5 70t-87.5 31l-42 8l-4 96h535z" />
    <glyph glyph-name="gdotaccent" unicode="&#x121;" horiz-adv-x="1122" 
d="M563 1237q-63 0 -103.5 38t-40.5 99t40.5 99.5t103.5 38.5t103 -38.5t40 -99.5t-40 -99t-103 -38zM1097 986q0 -44 -22.5 -64.5t-71.5 -20.5q-48 0 -170 39q55 -36 88 -98.5t33 -133.5q0 -153 -117.5 -248t-304.5 -95q-94 0 -171 24q-42 -36 -42 -78q0 -41 36 -64
t121 -35l214 -29q202 -28 288.5 -90.5t86.5 -181.5q0 -162 -144.5 -262t-379.5 -100q-223 0 -352.5 75t-129.5 203q0 83 60 145.5t168 94.5q-71 21 -112 66.5t-41 104.5q0 60 37 108t106 79q-82 47 -126.5 123t-44.5 172q0 167 119.5 261.5t306.5 94.5q119 0 213 -42
q145 1 338 25q14 -36 14 -73zM532 484q86 0 138.5 64.5t52.5 171.5q0 115 -49.5 176t-141.5 61t-141.5 -61t-49.5 -176q0 -107 52.5 -171.5t138.5 -64.5zM834 -141q0 57 -35.5 89.5t-124 53t-265.5 38.5q-134 -61 -134 -187q0 -88 73 -140.5t196 -52.5q130 0 210 55t80 144z
" />
    <glyph glyph-name="Gcommaaccent" unicode="&#x122;" horiz-adv-x="1466" 
d="M1425 704l-4 -96l-62 -11q-47 -9 -63 -29.5t-16 -68.5v-446q-232 -86 -505 -86q-331 0 -507 198t-176 552q0 173 53 315t146.5 236.5t220.5 146t275 51.5q121 0 267 -24.5t210 -24.5q4 -72 4 -185q0 -112 -4 -173l-141 -9q-16 145 -98 213.5t-234 68.5
q-204 0 -315.5 -160t-111.5 -455q0 -281 107.5 -444.5t307.5 -163.5q148 0 263 48v342q0 53 -18.5 70t-87.5 31l-42 8l-4 96h535zM776 -83q119 0 119 -147q0 -102 -58.5 -175.5t-156.5 -94.5q-26 14 -34 51q88 41 97 134q-39 10 -63 41t-24 74q0 51 33.5 84t86.5 33z" />
    <glyph glyph-name="gcommaaccent" unicode="&#x123;" horiz-adv-x="1122" 
d="M563 1209q-119 0 -119 147q0 102 58.5 176t156.5 95q26 -14 34 -52q-88 -41 -97 -134q39 -10 63 -40.5t24 -73.5q0 -51 -33.5 -84.5t-86.5 -33.5zM1097 986q0 -44 -22.5 -64.5t-71.5 -20.5q-48 0 -170 39q55 -36 88 -98.5t33 -133.5q0 -153 -117.5 -248t-304.5 -95
q-94 0 -171 24q-42 -36 -42 -78q0 -41 36 -64t121 -35l214 -29q202 -28 288.5 -90.5t86.5 -181.5q0 -162 -144.5 -262t-379.5 -100q-223 0 -352.5 75t-129.5 203q0 83 60 145.5t168 94.5q-71 21 -112 66.5t-41 104.5q0 60 37 108t106 79q-82 47 -126.5 123t-44.5 172
q0 167 119.5 261.5t306.5 94.5q119 0 213 -42q145 1 338 25q14 -36 14 -73zM532 484q86 0 138.5 64.5t52.5 171.5q0 115 -49.5 176t-141.5 61t-141.5 -61t-49.5 -176q0 -107 52.5 -171.5t138.5 -64.5zM834 -141q0 57 -35.5 89.5t-124 53t-265.5 38.5q-134 -61 -134 -187
q0 -88 73 -140.5t196 -52.5q130 0 210 55t80 144z" />
    <glyph glyph-name="Hcircumflex" unicode="&#x124;" horiz-adv-x="1560" 
d="M779 1700l-240 -148q-42 40 -63 98l309 243l308 -243q-19 -53 -66 -98zM1312 1228v-1023q0 -53 18 -69.5t88 -29.5l56 -10l-4 -96h-558l4 96l69 13q46 9 61.5 28.5t15.5 67.5v463h-565v-463q0 -53 17.5 -70t85.5 -29l57 -10l-4 -96h-559l5 96l68 13q47 9 63.5 28.5
t16.5 67.5v1023q0 53 -18.5 70.5t-87.5 31.5l-42 8l-5 96h563l-4 -96l-77 -11q-46 -7 -62.5 -28.5t-16.5 -70.5v-427h565v427q0 54 -18.5 72t-86.5 30l-45 8l4 96h558l-4 -96l-79 -12q-46 -7 -62.5 -28t-16.5 -70z" />
    <glyph glyph-name="hcircumflex" unicode="&#x125;" horiz-adv-x="1257" 
d="M287 1700l-240 -148q-42 40 -63 98l308 243l309 -243q-19 -53 -66 -98zM1233 94l-5 -94h-511l4 94l50 11q40 9 52 25t12 62v515q0 214 -173 214q-148 0 -227 -145v-584q0 -52 14.5 -66.5t75.5 -23.5l54 -8l-4 -94h-511l4 94l52 11q43 10 56 27.5t13 67.5v1063
q0 58 -12.5 77.5t-55.5 28.5l-53 11l-4 90l371 35v-366q0 -121 -5 -233q52 81 133.5 125.5t181.5 44.5q165 0 250 -88.5t85 -259.5v-528q0 -56 16.5 -73t80.5 -26z" />
    <glyph glyph-name="Hbar" unicode="&#x126;" horiz-adv-x="1560" 
d="M1312 1012v-807q0 -53 18 -69.5t88 -29.5l56 -10l-4 -96h-558l4 96l69 13q46 9 61.5 28.5t15.5 67.5v454h-565v-454q0 -53 17.5 -70t85.5 -29l57 -10l-4 -96h-559l5 96l68 13q47 9 63.5 28.5t16.5 67.5v807h-151v118h151v98q0 53 -18.5 70.5t-87.5 31.5l-42 8l-5 96h563
l-4 -96l-77 -11q-46 -7 -62.5 -28.5t-16.5 -70.5v-98h565v98q0 54 -18.5 72t-86.5 30l-45 8l4 96h558l-4 -96l-79 -12q-46 -7 -62.5 -28t-16.5 -70v-98h150v-118h-150zM1062 792v220h-565v-220h565z" />
    <glyph glyph-name="hbar" unicode="&#x127;" horiz-adv-x="1257" 
d="M1233 94l-5 -94h-511l4 94l50 11q40 9 52 25t12 62v515q0 214 -173 214q-149 0 -228 -145v-584q0 -52 15 -66.5t76 -23.5l54 -8l-4 -94h-511l4 94l52 11q43 10 56 27.5t13 67.5v977h-123v105h123q0 59 -8.5 80t-44.5 29l-46 10l-3 69l348 48v-233h256v-105h-256v-41
q0 -121 -5 -233q52 81 133.5 125.5t181.5 44.5q165 0 250 -88.5t85 -259.5v-528q0 -56 16.5 -73t80.5 -26z" />
    <glyph glyph-name="Itilde" unicode="&#x128;" horiz-adv-x="745" 
d="M512 1750q85 0 144 68l30 -95q-29 -53 -86 -88t-112 -35q-68 0 -140 31t-116 31q-84 0 -144 -69l-31 95q29 52 86 87.5t113 35.5q68 0 140 -30.5t116 -30.5zM655 1338l-79 -12q-46 -7 -62.5 -28t-16.5 -70v-1023q0 -53 18 -69.5t87 -29.5l57 -10l-4 -96h-561l5 96l68 13
q47 9 63.5 28.5t16.5 67.5v1023q0 53 -18.5 70.5t-87.5 31.5l-42 8l-5 96h565z" />
    <glyph glyph-name="itilde" unicode="&#x129;" horiz-adv-x="655" 
d="M457 1408q85 0 144 68l31 -95q-29 -52 -86 -87.5t-113 -35.5q-69 0 -140 31t-116 31q-84 0 -144 -69l-31 96q29 52 86 87.5t113 35.5q69 0 140 -31t116 -31zM459 1076v-876q0 -56 16.5 -73t80.5 -26l55 -7l-4 -94h-518l4 94l52 11q43 10 56 27.5t13 67.5v621
q0 58 -12.5 77.5t-55.5 28.5l-53 11l-4 90z" />
    <glyph glyph-name="Imacron" unicode="&#x12a;" horiz-adv-x="745" 
d="M658 1633h-563v140h563v-140zM655 1338l-79 -12q-46 -7 -62.5 -28t-16.5 -70v-1023q0 -53 18 -69.5t87 -29.5l57 -10l-4 -96h-561l5 96l68 13q47 9 63.5 28.5t16.5 67.5v1023q0 53 -18.5 70.5t-87.5 31.5l-42 8l-5 96h565z" />
    <glyph glyph-name="imacron" unicode="&#x12b;" horiz-adv-x="655" 
d="M598 1292h-563v139h563v-139zM459 1076v-876q0 -56 16.5 -73t80.5 -26l55 -7l-4 -94h-518l4 94l52 11q43 10 56 27.5t13 67.5v621q0 58 -12.5 77.5t-55.5 28.5l-53 11l-4 90z" />
    <glyph glyph-name="Ibreve" unicode="&#x12c;" horiz-adv-x="745" 
d="M190 1840q45 -134 184 -134t184 134q27 0 59 -12t49 -27q-30 -116 -105 -176t-189 -60t-189.5 60.5t-105.5 175.5q17 15 51.5 27t61.5 12zM655 1338l-79 -12q-46 -7 -62.5 -28t-16.5 -70v-1023q0 -53 18 -69.5t87 -29.5l57 -10l-4 -96h-561l5 96l68 13q47 9 63.5 28.5
t16.5 67.5v1023q0 53 -18.5 70.5t-87.5 31.5l-42 8l-5 96h565z" />
    <glyph glyph-name="ibreve" unicode="&#x12d;" horiz-adv-x="655" 
d="M135 1498q45 -134 184 -134t184 134q27 0 59 -12t49 -27q-30 -116 -105 -176t-189 -60t-189 60t-105 176q17 15 51 27t61 12zM459 1076v-876q0 -56 16.5 -73t80.5 -26l55 -7l-4 -94h-518l4 94l52 11q43 10 56 27.5t13 67.5v621q0 58 -12.5 77.5t-55.5 28.5l-53 11l-4 90z
" />
    <glyph glyph-name="Iogonek" unicode="&#x12e;" horiz-adv-x="745" 
d="M497 1228v-1023q0 -53 18 -69.5t87 -29.5l57 -10l-4 -96q-104 0 -184 -67t-80 -153q0 -49 27.5 -78t74.5 -29q69 0 114 45q25 -36 32 -87q-83 -78 -210 -78q-96 0 -155.5 54t-59.5 141q0 82 52.5 152.5t133.5 99.5h-306l5 96l68 13q47 9 63.5 28.5t16.5 67.5v1023
q0 53 -18.5 70.5t-87.5 31.5l-42 8l-5 96h565l-4 -96l-79 -12q-46 -7 -62.5 -28t-16.5 -70z" />
    <glyph glyph-name="iogonek" unicode="&#x12f;" horiz-adv-x="655" 
d="M317 1234q-65 0 -105.5 39t-40.5 101t41 101.5t105 39.5t105 -39.5t41 -101.5t-40.5 -101t-105.5 -39zM611 94l-4 -94q-104 0 -184 -67t-80 -153q0 -49 27.5 -78t74.5 -29q69 0 114 45q27 -38 33 -87q-83 -78 -211 -78q-96 0 -155.5 54t-59.5 141q0 82 53 152.5t134 99.5
h-264l4 94l52 11q43 10 56 27.5t13 67.5v621q0 58 -12.5 77.5t-55.5 28.5l-53 11l-4 90l370 48v-876q0 -56 16.5 -73t80.5 -26z" />
    <glyph glyph-name="Idotaccent" unicode="&#x130;" horiz-adv-x="745" 
d="M228 1716q0 61 40.5 99.5t103.5 38.5t103 -38.5t40 -99.5t-40 -99.5t-103 -38.5t-103.5 38.5t-40.5 99.5zM655 1338l-79 -12q-46 -7 -62.5 -28t-16.5 -70v-1023q0 -53 18 -69.5t87 -29.5l57 -10l-4 -96h-561l5 96l68 13q47 9 63.5 28.5t16.5 67.5v1023q0 53 -18.5 70.5
t-87.5 31.5l-42 8l-5 96h565z" />
    <glyph glyph-name="dotlessi" unicode="&#x131;" horiz-adv-x="655" 
d="M459 1076v-876q0 -56 16.5 -73t80.5 -26l55 -7l-4 -94h-518l4 94l52 11q43 10 56 27.5t13 67.5v621q0 58 -12.5 77.5t-55.5 28.5l-53 11l-4 90z" />
    <glyph glyph-name="IJ" unicode="&#x132;" horiz-adv-x="1456" 
d="M655 1338l-79 -12q-46 -7 -62.5 -28t-16.5 -70v-1023q0 -53 18 -69.5t87 -29.5l57 -10l-4 -96h-561l5 96l68 13q47 9 63.5 28.5t16.5 67.5v1023q0 53 -18.5 70.5t-87.5 31.5l-42 8l-5 96h565zM1226 1228v-889q0 -225 -37.5 -365.5t-120.5 -229.5q-107 -116 -310 -150
q-40 35 -40 98q0 72 68 97q19 7 65.5 14t69.5 22q33 21 42.5 97t9.5 330v976q0 54 -18 71.5t-85 30.5l-43 8l-4 96h565l-4 -96l-79 -12q-46 -7 -62.5 -28t-16.5 -70z" />
    <glyph glyph-name="ij" unicode="&#x133;" horiz-adv-x="1251" 
d="M171 1374q0 62 41 101.5t105 39.5t105 -39.5t41 -101.5t-40.5 -101t-105.5 -39t-105.5 39t-40.5 101zM805 1374q0 62 40.5 101.5t104.5 39.5t105 -39.5t41 -101.5t-40.5 -101t-105.5 -39q-64 0 -104.5 39t-40.5 101zM459 1076v-876q0 -56 16.5 -73t80.5 -26l55 -7l-4 -94
h-518l4 94l52 11q43 10 56 27.5t13 67.5v621q0 58 -12.5 77.5t-55.5 28.5l-53 11l-4 90zM1093 1076v-762q0 -229 -36.5 -378t-118.5 -237q-107 -116 -308 -150q-40 35 -40 98q0 68 68 93q19 7 66 14.5t70 21.5q33 21 42 98t9 333v614q0 58 -12 78t-53 28l-54 11l-4 90z" />
    <glyph glyph-name="Jcircumflex" unicode="&#x134;" horiz-adv-x="710" 
d="M351 1700l-241 -148q-41 39 -62 98l308 243l308 -243q-19 -53 -66 -98zM79 1434h564l-4 -96l-79 -12q-46 -7 -62.5 -28t-16.5 -70v-889q0 -225 -37 -365.5t-120 -229.5q-107 -116 -310 -150q-40 35 -40 98q0 72 68 97q19 7 65.5 14t69.5 22q33 21 42 96.5t9 330.5v976
q0 54 -18 71.5t-85 30.5l-42 8z" />
    <glyph glyph-name="jcircumflex" unicode="&#x135;" horiz-adv-x="595" 
d="M295 1551l308 -243q-19 -53 -66 -98l-248 148l-240 -148q-42 40 -63 98zM66 1028l371 48v-762q0 -229 -36.5 -378t-118.5 -237q-107 -116 -308 -150q-40 35 -40 98q0 67 69 93q19 7 65.5 14t69.5 22q33 21 42 98t9 333v614q0 58 -12 78t-53 28l-53 11z" />
    <glyph glyph-name="Kcommaaccent" unicode="&#x136;" horiz-adv-x="1341" 
d="M99 96l68 13q47 9 63.5 28.5t16.5 67.5v1023q0 53 -18.5 70.5t-87.5 31.5l-42 8l-5 96h565l-4 -96l-79 -12q-46 -7 -62.5 -28t-16.5 -70v-1023q0 -53 17.5 -70t83.5 -29l57 -10l-4 -96h-557zM853 660l298 -427q86 -122 193 -138l-5 -91q-63 -17 -132 -17
q-126 0 -189 41.5t-161 190.5l-169 257q-97 150 -187 252l381 448q66 76 66 112t-67 45l-31 5l-4 96h465l-4 -96q-88 -25 -133 -58t-143 -146l-285 -327q26 -32 107 -147zM768 -83q119 0 119 -147q0 -102 -58.5 -175.5t-156.5 -94.5q-26 14 -34 51q87 40 96 134
q-39 10 -63 41t-24 74q0 51 34 84t87 33z" />
    <glyph glyph-name="kcommaaccent" unicode="&#x137;" horiz-adv-x="1150" 
d="M68 94l52 11q43 10 56 27.5t13 67.5v1063q0 58 -12.5 77.5t-55.5 28.5l-53 11l-4 90l370 48v-1326q0 -52 15 -67.5t76 -24.5l43 -6l-4 -94h-500zM768 515l176 -255q61 -87 106 -126t94 -47l-4 -78q-66 -22 -140 -22q-97 0 -152.5 37.5t-137.5 159.5l-140 207
q-76 113 -130 176l242 254q59 62 59 93q0 28 -53 37l-38 7l-4 93h442l-4 -93l-27 -6q-59 -13 -93 -34t-92 -80l-196 -202q29 -31 92 -121zM681 -83q119 0 119 -147q0 -102 -58.5 -175.5t-156.5 -94.5q-26 14 -34 51q87 40 96 134q-39 10 -62.5 41t-23.5 74q0 51 33.5 84
t86.5 33z" />
    <glyph glyph-name="Lacute" unicode="&#x139;" horiz-adv-x="1220" 
d="M214 1640l371 259q64 -69 98 -155l-403 -210q-41 39 -66 106zM655 1338l-79 -12q-46 -7 -62.5 -28t-16.5 -70v-1014q0 -55 27.5 -72t116.5 -17h173q107 0 146.5 62.5t56.5 230.5l151 -9q0 -222 -26 -409h-1048l5 96l68 13q47 9 63.5 28.5t16.5 67.5v1023q0 53 -18.5 70.5
t-87.5 31.5l-42 8l-5 96h565z" />
    <glyph glyph-name="lacute" unicode="&#x13a;" horiz-adv-x="636" 
d="M62 1704l408 195q51 -74 73 -169l-432 -140q-35 46 -49 114zM440 1518v-1318q0 -56 16 -72.5t80 -25.5l56 -8l-4 -94h-519l4 94l53 11q43 10 56 27.5t13 67.5v1063q0 58 -12.5 77.5t-55.5 28.5l-54 11l-4 90z" />
    <glyph glyph-name="Lcommaaccent" unicode="&#x13b;" horiz-adv-x="1220" 
d="M1017 418l151 -9q0 -222 -26 -409h-1048l5 96l68 13q47 9 63.5 28.5t16.5 67.5v1023q0 53 -18.5 70.5t-87.5 31.5l-42 8l-5 96h565l-4 -96l-79 -12q-46 -7 -62.5 -28t-16.5 -70v-1014q0 -55 27.5 -72t116.5 -17h173q107 0 146.5 62.5t56.5 230.5zM657 -83q119 0 119 -147
q0 -102 -59 -175.5t-157 -94.5q-26 14 -34 51q88 41 97 134q-39 10 -63 41t-24 74q0 51 34 84t87 33z" />
    <glyph glyph-name="lcommaaccent" unicode="&#x13c;" horiz-adv-x="636" 
d="M592 94l-4 -94h-519l4 94l53 11q43 10 56 27.5t13 67.5v1063q0 58 -12.5 77.5t-55.5 28.5l-54 11l-4 90l371 48v-1318q0 -57 16 -73.5t80 -25.5zM319 -83q119 0 119 -147q0 -102 -58.5 -175.5t-156.5 -94.5q-27 15 -35 51q88 41 97 134q-39 10 -63 41t-24 74q0 51 34 84
t87 33z" />
    <glyph glyph-name="Lcaron" unicode="&#x13d;" horiz-adv-x="1220" 
d="M791 1547q87 0 169 -21q-28 -205 -96 -375q-71 0 -127 23q45 215 54 373zM655 1338l-79 -12q-46 -7 -62.5 -28t-16.5 -70v-1014q0 -55 27.5 -72t116.5 -17h173q107 0 146.5 62.5t56.5 230.5l151 -9q0 -222 -26 -409h-1048l5 96l68 13q47 9 63.5 28.5t16.5 67.5v1023
q0 53 -18.5 70.5t-87.5 31.5l-42 8l-5 96h565z" />
    <glyph glyph-name="lcaron" unicode="&#x13e;" horiz-adv-x="657" 
d="M590 1547q87 0 169 -21q-28 -205 -96 -375q-71 0 -127 23q45 215 54 373zM440 1518v-1318q0 -57 16 -73.5t80 -25.5l56 -7l-4 -94h-519l4 94l53 11q43 10 56 27.5t13 67.5v1063q0 58 -12.5 77.5t-55.5 28.5l-54 11l-4 90z" />
    <glyph glyph-name="Ldot" unicode="&#x13f;" horiz-adv-x="1257" 
d="M655 1338l-79 -12q-46 -7 -62.5 -28t-16.5 -70v-1014q0 -55 27.5 -72t116.5 -17h173q107 0 146.5 62.5t56.5 230.5l151 -9q0 -222 -26 -409h-1048l5 96l68 13q47 9 63.5 28.5t16.5 67.5v1023q0 53 -18.5 70.5t-87.5 31.5l-42 8l-5 96h565zM835 809q0 61 40 99.5t103 38.5
t103.5 -38.5t40.5 -99.5t-40.5 -99.5t-103.5 -38.5t-103 38.5t-40 99.5z" />
    <glyph glyph-name="ldot" unicode="&#x140;" horiz-adv-x="823" 
d="M440 1518v-1318q0 -56 16 -72.5t80 -25.5l56 -8l-4 -94h-519l4 94l53 11q43 10 56 27.5t13 67.5v1063q0 58 -12.5 77.5t-55.5 28.5l-54 11l-4 90zM584 702q0 61 40.5 99.5t103.5 38.5t103.5 -38.5t40.5 -99.5t-40.5 -99.5t-103.5 -38.5t-103.5 38.5t-40.5 99.5z" />
    <glyph glyph-name="Lslash" unicode="&#x141;" horiz-adv-x="1220" 
d="M1017 418l151 -9q0 -222 -26 -409h-1048l5 96l68 13q47 9 63.5 28.5t16.5 67.5v183q0 77 5 132l-145 -65v138l140 62v573q0 53 -18.5 70.5t-87.5 31.5l-42 8l-5 96h565l-4 -96l-79 -12q-46 -7 -62.5 -28t-16.5 -70v-346q0 -77 -5 -132l433 193v-137l-428 -191v-401
q0 -55 27.5 -72t116.5 -17h173q107 0 146.5 62.5t56.5 230.5z" />
    <glyph glyph-name="lslash" unicode="&#x142;" horiz-adv-x="643" 
d="M595 94l-4 -94h-518l4 94l52 11q43 10 56 27.5t13 67.5v305q0 77 5 132l-139 -62v129l134 60v499q0 58 -12.5 77.5t-55.5 28.5l-53 11l-4 90l370 48v-530q0 -77 -5 -132l157 70v-129l-152 -67v-530q0 -56 16.5 -73t80.5 -26z" />
    <glyph glyph-name="Nacute" unicode="&#x143;" horiz-adv-x="1531" 
d="M1072 1744l-403 -210q-42 41 -67 106l371 259q66 -71 99 -155zM1463 1434l-4 -96l-79 -12q-46 -7 -62.5 -28t-16.5 -70v-1228h-235l-516 862q-94 157 -151 316q11 -143 11 -258v-715q0 -53 18 -69.5t87 -29.5l57 -10l-4 -96h-474l5 96l68 13q47 9 63.5 28.5t16.5 67.5
v1023q0 53 -18.5 70.5t-87.5 31.5l-42 8l-5 96h397l516 -863q88 -148 138 -282q-7 111 -7 224v715q0 53 -18.5 70.5t-87.5 31.5l-42 8l-4 96h477z" />
    <glyph glyph-name="nacute" unicode="&#x144;" horiz-adv-x="1275" 
d="M958 1402l-403 -209q-43 41 -67 105l371 259q66 -71 99 -155zM1253 94l-4 -94h-512l4 94l50 11q40 9 52 25t12 62v515q0 214 -173 214q-148 0 -227 -145v-584q0 -52 14.5 -66.5t75.5 -23.5l54 -8l-4 -94h-511l4 94l52 11q43 10 56 27.5t13 67.5v621q0 59 -12 78t-55 28
l-54 11l-4 90l327 48q19 -76 24 -182q53 87 138.5 134.5t191.5 47.5q165 0 250.5 -88.5t85.5 -259.5v-528q0 -56 16 -72.5t80 -25.5z" />
    <glyph glyph-name="Ncommaaccent" unicode="&#x145;" horiz-adv-x="1531" 
d="M1463 1434l-4 -96l-79 -12q-46 -7 -62.5 -28t-16.5 -70v-1228h-235l-516 862q-94 157 -151 316q11 -143 11 -258v-715q0 -53 18 -69.5t87 -29.5l57 -10l-4 -96h-474l5 96l68 13q47 9 63.5 28.5t16.5 67.5v1023q0 53 -18.5 70.5t-87.5 31.5l-42 8l-5 96h397l516 -863
q88 -148 138 -282q-7 111 -7 224v715q0 53 -18.5 70.5t-87.5 31.5l-42 8l-4 96h477zM760 -83q119 0 119 -147q0 -102 -59 -175.5t-157 -94.5q-26 14 -34 51q88 41 97 134q-39 10 -63 41t-24 74q0 51 34 84t87 33z" />
    <glyph glyph-name="ncommaaccent" unicode="&#x146;" horiz-adv-x="1275" 
d="M1253 94l-4 -94h-512l4 94l50 11q40 9 52 25t12 62v515q0 214 -173 214q-148 0 -227 -145v-584q0 -52 14.5 -66.5t75.5 -23.5l54 -8l-4 -94h-511l4 94l52 11q43 10 56 27.5t13 67.5v621q0 59 -12 78t-55 28l-54 11l-4 90l327 48q19 -76 24 -182q53 87 138.5 134.5
t191.5 47.5q165 0 250.5 -88.5t85.5 -259.5v-528q0 -57 16 -73.5t80 -25.5zM669 -83q119 0 119 -147q0 -102 -58.5 -175.5t-156.5 -94.5q-26 14 -34 51q87 40 96 134q-39 10 -63 41t-24 74q0 51 34 84t87 33z" />
    <glyph glyph-name="Ncaron" unicode="&#x147;" horiz-adv-x="1531" 
d="M774 1543l-298 243q19 53 66 98l237 -147l230 147q42 -40 63 -98zM1463 1434l-4 -96l-79 -12q-46 -7 -62.5 -28t-16.5 -70v-1228h-235l-516 862q-94 157 -151 316q11 -143 11 -258v-715q0 -53 18 -69.5t87 -29.5l57 -10l-4 -96h-474l5 96l68 13q47 9 63.5 28.5t16.5 67.5
v1023q0 53 -18.5 70.5t-87.5 31.5l-42 8l-5 96h397l516 -863q88 -148 138 -282q-7 111 -7 224v715q0 53 -18.5 70.5t-87.5 31.5l-42 8l-4 96h477z" />
    <glyph glyph-name="ncaron" unicode="&#x148;" horiz-adv-x="1275" 
d="M656 1201l-298 243q19 53 66 98l237 -146l230 146q42 -40 63 -98zM1253 94l-4 -94h-512l4 94l50 11q40 9 52 25t12 62v515q0 214 -173 214q-148 0 -227 -145v-584q0 -52 14.5 -66.5t75.5 -23.5l54 -8l-4 -94h-511l4 94l52 11q43 10 56 27.5t13 67.5v621q0 59 -12 78
t-55 28l-54 11l-4 90l327 48q19 -76 24 -182q53 87 138.5 134.5t191.5 47.5q165 0 250.5 -88.5t85.5 -259.5v-528q0 -57 16 -73.5t80 -25.5z" />
    <glyph glyph-name="napostrophe" unicode="&#x149;" horiz-adv-x="1275" 
d="M224 1435q0 -102 -58.5 -175.5t-156.5 -94.5q-26 14 -34 51q87 40 96 134q-39 10 -62.5 41t-23.5 74q0 51 33.5 84t86.5 33q119 0 119 -147zM1253 94l-4 -94h-512l4 94l50 11q40 9 52 25t12 62v515q0 214 -173 214q-148 0 -227 -145v-584q0 -52 14.5 -66.5t75.5 -23.5
l54 -8l-4 -94h-511l4 94l52 11q43 10 56 27.5t13 67.5v621q0 59 -12 78t-55 28l-54 11l-4 90l327 48q19 -76 24 -182q53 87 138.5 134.5t191.5 47.5q165 0 250.5 -88.5t85.5 -259.5v-528q0 -56 16 -72.5t80 -25.5z" />
    <glyph glyph-name="Eng" unicode="&#x14a;" horiz-adv-x="1529" 
d="M1463 1434l-4 -96l-79 -12q-46 -7 -62.5 -28t-16.5 -70v-889q0 -225 -37 -365.5t-120 -229.5q-107 -115 -298 -150q-40 35 -40 98q0 71 66 96q16 6 64 15t74 24q34 20 53 54t28 97q-28 36 -119 186l-420 694q-96 159 -153 319q11 -143 11 -257v-715q0 -53 18 -69.5
t87 -29.5l57 -10l-4 -96h-474l5 96l68 13q47 9 63.5 28.5t16.5 67.5v1023q0 53 -18.5 70.5t-87.5 31.5l-42 8l-5 96h397l516 -863q88 -148 138 -282q-7 111 -7 224v715q0 53 -18.5 70.5t-87.5 31.5l-42 8l-4 96h477z" />
    <glyph glyph-name="eng" unicode="&#x14b;" horiz-adv-x="1247" 
d="M765 1076q165 0 250.5 -88.5t85.5 -259.5v-414q0 -229 -36.5 -378t-118.5 -237q-107 -116 -308 -150q-40 35 -40 98q0 68 68 93q19 7 66 14.5t70 21.5q33 21 43 99.5t10 331.5v500q0 214 -173 214q-148 0 -227 -145v-584q0 -52 14.5 -66.5t75.5 -23.5l54 -8l-4 -94h-511
l4 94l52 11q43 10 56 27.5t13 67.5v621q0 59 -12 78t-55 28l-54 11l-4 90l327 48q19 -76 24 -182q53 87 138.5 134.5t191.5 47.5z" />
    <glyph glyph-name="Omacron" unicode="&#x14c;" horiz-adv-x="1550" 
d="M1056 1633h-563v140h563v-140zM92 717q0 348 187.5 548.5t495.5 200.5q322 0 502.5 -198t180.5 -551q0 -221 -84.5 -391t-240 -264.5t-358.5 -94.5q-208 0 -363.5 94.5t-237.5 264t-82 391.5zM364 717q0 -280 112 -448t299 -168t298.5 168t111.5 448q0 294 -107.5 454.5
t-302.5 160.5t-303 -160.5t-108 -454.5z" />
    <glyph glyph-name="omacron" unicode="&#x14d;" horiz-adv-x="1196" 
d="M879 1292h-563v139h563v-139zM88 526q0 131 39.5 236t109 173t161.5 104.5t200 36.5q248 0 378.5 -141t130.5 -409q0 -254 -142 -402.5t-367 -148.5q-240 0 -375 146.5t-135 404.5zM348 526q0 -199 67 -311t183 -112t183 112t67 311q0 209 -63.5 315.5t-186.5 106.5
t-186.5 -106.5t-63.5 -315.5z" />
    <glyph glyph-name="Obreve" unicode="&#x14e;" horiz-adv-x="1550" 
d="M593 1840q45 -134 184 -134t184 134q27 0 59 -12t49 -27q-30 -116 -105 -176t-189 -60t-189 60t-105 176q17 15 51 27t61 12zM92 717q0 348 187.5 548.5t495.5 200.5q322 0 502.5 -198t180.5 -551q0 -221 -84.5 -391t-240 -264.5t-358.5 -94.5q-208 0 -363.5 94.5
t-237.5 264t-82 391.5zM364 717q0 -280 112 -448t299 -168t298.5 168t111.5 448q0 294 -107.5 454.5t-302.5 160.5t-303 -160.5t-108 -454.5z" />
    <glyph glyph-name="obreve" unicode="&#x14f;" horiz-adv-x="1196" 
d="M415 1498q45 -134 185 -134q139 0 184 134q27 0 59 -12t49 -27q-30 -116 -105 -176t-189 -60t-189.5 60.5t-105.5 175.5q17 15 51 27t61 12zM88 526q0 131 39.5 236t109 173t161.5 104.5t200 36.5q248 0 378.5 -141t130.5 -409q0 -254 -142 -402.5t-367 -148.5
q-240 0 -375 146.5t-135 404.5zM348 526q0 -199 67 -311t183 -112t183 112t67 311q0 209 -63.5 315.5t-186.5 106.5t-186.5 -106.5t-63.5 -315.5z" />
    <glyph glyph-name="Ohungarumlaut" unicode="&#x150;" horiz-adv-x="1550" 
d="M571 1572l109 359q85 -14 156 -60l-152 -342q-60 7 -113 43zM873 1582l140 349q83 -21 150 -72l-180 -330q-59 13 -110 53zM92 717q0 348 187.5 548.5t495.5 200.5q322 0 502.5 -198t180.5 -551q0 -221 -84.5 -391t-240 -264.5t-358.5 -94.5q-208 0 -363.5 94.5
t-237.5 264t-82 391.5zM364 717q0 -280 112 -448t299 -168t298.5 168t111.5 448q0 294 -107.5 454.5t-302.5 160.5t-303 -160.5t-108 -454.5z" />
    <glyph glyph-name="ohungarumlaut" unicode="&#x151;" horiz-adv-x="1196" 
d="M373 1230l110 359q86 -14 155 -59l-152 -343q-60 7 -113 43zM675 1240l141 349q81 -21 149 -72l-180 -330q-59 13 -110 53zM88 526q0 131 39.5 236t109 173t161.5 104.5t200 36.5q248 0 378.5 -141t130.5 -409q0 -254 -142 -402.5t-367 -148.5q-240 0 -375 146.5
t-135 404.5zM348 526q0 -199 67 -311t183 -112t183 112t67 311q0 209 -63.5 315.5t-186.5 106.5t-186.5 -106.5t-63.5 -315.5z" />
    <glyph glyph-name="OE" unicode="&#x152;" horiz-adv-x="2025" 
d="M1799 368l147 -9q0 -165 -27 -359h-973q-83 -8 -171 -8q-209 0 -364 91t-237 254.5t-82 379.5q0 169 50 306.5t140 229t215.5 140.5t277.5 49q88 0 171 -8h936q27 -194 27 -359l-147 -9q-17 149 -57 196t-151 47h-304v-518h256q50 0 69 21t33 92l8 42l125 4v-455l-125 4
l-11 79q-7 47 -30 67t-69 20h-256v-451q0 -55 28 -72t117 -17h196q111 0 151 47t57 196zM364 717q0 -275 113.5 -433t323.5 -158q119 0 161.5 35t42.5 133v845q0 98 -42.5 133.5t-161.5 35.5q-219 0 -328 -150.5t-109 -440.5z" />
    <glyph glyph-name="oe" unicode="&#x153;" horiz-adv-x="1847" 
d="M1410 128q86 0 153 24t132 78l52 -113q-89 -75 -183 -108.5t-223 -33.5q-251 0 -369 193q-63 -92 -158.5 -142.5t-215.5 -50.5q-240 0 -375 146.5t-135 404.5q0 131 39.5 236t109 173t161.5 104.5t200 36.5q267 0 389 -192q64 92 160 142t214 50q187 0 294.5 -113.5
t107.5 -310.5q0 -74 -13.5 -98.5t-53.5 -24.5h-589v-3q0 -199 82 -298.5t221 -99.5zM598 103q116 0 183 112t67 311q0 209 -63.5 315.5t-186.5 106.5t-186.5 -106.5t-63.5 -315.5q0 -199 67 -311t183 -112zM1330 948q-185 0 -217 -301h358q32 0 44 15.5t12 56.5
q0 104 -54 166.5t-143 62.5z" />
    <glyph glyph-name="Racute" unicode="&#x154;" horiz-adv-x="1345" 
d="M966 1744l-402 -210q-42 41 -67 106l371 259q64 -69 98 -155zM1333 97l-5 -91q-62 -19 -151 -19q-113 0 -166 40t-110 169l-126 287q-38 85 -83 116.5t-130 31.5q-36 0 -67 -3v-423q0 -53 17.5 -70t83.5 -29l56 -10l-4 -96h-554l5 96l68 13q47 9 63.5 28.5t16.5 67.5
v1023q0 53 -18.5 70.5t-87.5 31.5l-42 8l-5 96h115q89 0 236 4.5t220 4.5q258 0 385 -94t127 -285q0 -139 -87 -234t-240 -127q51 -15 87 -49.5t73 -99.5q28 -49 90.5 -186t100.5 -197q24 -37 48 -52.5t62 -19.5zM495 1308v-541q74 -6 142 -6q132 0 207.5 74.5t75.5 204.5
q0 280 -265 280q-88 0 -160 -12z" />
    <glyph glyph-name="racute" unicode="&#x155;" horiz-adv-x="901" 
d="M790 1402l-402 -209q-43 41 -67 105l371 259q64 -69 98 -155zM858 1034q13 -36 13 -75q0 -60 -29 -94.5t-81 -34.5q-32 0 -78 22t-86 22q-107 0 -142 -222v-442q0 -56 17 -73t84 -27l91 -13l-4 -97h-559l4 94l52 11q43 10 56 27.5t13 67.5v621q0 59 -12 78t-55 28l-54 11
l-4 90l323 48q24 -89 25 -271q26 126 96 198.5t166 72.5q91 0 164 -42z" />
    <glyph glyph-name="Rcommaaccent" unicode="&#x156;" horiz-adv-x="1345" 
d="M1333 97l-5 -91q-62 -19 -151 -19q-113 0 -166 40t-110 169l-126 287q-38 85 -83 116.5t-130 31.5q-36 0 -67 -3v-423q0 -53 17.5 -70t83.5 -29l56 -10l-4 -96h-554l5 96l68 13q47 9 63.5 28.5t16.5 67.5v1023q0 53 -18.5 70.5t-87.5 31.5l-42 8l-5 96h115q89 0 236 4.5
t220 4.5q258 0 385 -94t127 -285q0 -139 -87 -234t-240 -127q51 -15 87 -49.5t73 -99.5q28 -49 90.5 -186t100.5 -197q24 -37 48 -52.5t62 -19.5zM495 1308v-541q74 -6 142 -6q132 0 207.5 74.5t75.5 204.5q0 280 -265 280q-88 0 -160 -12zM766 -83q119 0 119 -147
q0 -102 -58.5 -175.5t-156.5 -94.5q-27 15 -35 51q88 41 97 134q-39 10 -63 41t-24 74q0 51 34 84t87 33z" />
    <glyph glyph-name="rcommaaccent" unicode="&#x157;" horiz-adv-x="901" 
d="M858 1034q13 -36 13 -75q0 -60 -29 -94.5t-81 -34.5q-32 0 -78 22t-86 22q-107 0 -142 -222v-442q0 -56 17 -73t84 -27l91 -13l-4 -97h-559l4 94l52 11q43 10 56 27.5t13 67.5v621q0 59 -12 78t-55 28l-54 11l-4 90l323 48q24 -89 25 -271q26 126 96 198.5t166 72.5
q91 0 164 -42zM334 -83q119 0 119 -147q0 -102 -58.5 -175.5t-156.5 -94.5q-27 15 -35 51q88 41 97 134q-39 10 -63 41t-24 74q0 51 34 84t87 33z" />
    <glyph glyph-name="Rcaron" unicode="&#x158;" horiz-adv-x="1345" 
d="M677 1543l-298 243q19 53 66 98l238 -147l230 147q41 -39 62 -98zM1333 97l-5 -91q-62 -19 -151 -19q-113 0 -166 40t-110 169l-126 287q-38 85 -83 116.5t-130 31.5q-36 0 -67 -3v-423q0 -53 17.5 -70t83.5 -29l56 -10l-4 -96h-554l5 96l68 13q47 9 63.5 28.5t16.5 67.5
v1023q0 53 -18.5 70.5t-87.5 31.5l-42 8l-5 96h115q89 0 236 4.5t220 4.5q258 0 385 -94t127 -285q0 -139 -87 -234t-240 -127q51 -15 87 -49.5t73 -99.5q28 -49 90.5 -186t100.5 -197q24 -37 48 -52.5t62 -19.5zM495 1308v-541q74 -6 142 -6q132 0 207.5 74.5t75.5 204.5
q0 280 -265 280q-88 0 -160 -12z" />
    <glyph glyph-name="rcaron" unicode="&#x159;" horiz-adv-x="901" 
d="M471 1201l-298 243q19 53 66 98l238 -146l230 146q42 -40 63 -98zM858 1034q13 -36 13 -75q0 -60 -29 -94.5t-81 -34.5q-32 0 -78 22t-86 22q-107 0 -142 -222v-442q0 -56 17 -73t84 -27l91 -13l-4 -97h-559l4 94l52 11q43 10 56 27.5t13 67.5v621q0 59 -12 78t-55 28
l-54 11l-4 90l323 48q24 -89 25 -271q26 126 96 198.5t166 72.5q91 0 164 -42z" />
    <glyph glyph-name="Sacute" unicode="&#x15a;" horiz-adv-x="1128" 
d="M370 1640l371 259q64 -69 98 -155l-402 -210q-42 41 -67 106zM598 1466q113 0 232.5 -26.5t161.5 -26.5v-332l-136 -5q-27 140 -90 204.5t-175 64.5q-101 0 -163 -61.5t-62 -162.5q0 -71 37.5 -124t97 -87t131.5 -64.5t144 -67t131.5 -84.5t97 -127.5t37.5 -184.5
q0 -187 -140 -301t-370 -114q-120 0 -234.5 31.5t-195.5 86.5q-12 95 -12 174q0 48 5 138l141 5q18 -151 93.5 -232t199.5 -81q117 0 192 68.5t75 174.5q0 75 -37 131t-96.5 91.5t-131 67t-143 68t-131 82.5t-96.5 122t-37 176q0 175 132.5 285.5t341.5 110.5z" />
    <glyph glyph-name="sacute" unicode="&#x15b;" horiz-adv-x="948" 
d="M261 1298l371 259q66 -71 99 -155l-403 -209q-43 41 -67 105zM821 768l-118 -6q-21 99 -74 153t-130 54q-71 0 -114 -39t-43 -104q0 -49 29 -86t75 -61.5t101.5 -47.5t111 -51t101.5 -63t75 -91.5t29 -130.5q0 -151 -112.5 -235.5t-311.5 -84.5q-97 0 -189.5 27
t-153.5 73q-9 58 -9 120q0 51 4 110l123 6q21 -106 83 -167t149 -61q81 0 130 42.5t49 113.5q0 49 -28.5 87t-74 64t-100.5 49.5t-110 52t-100.5 63t-74 89.5t-28.5 126q0 143 104.5 224.5t288.5 81.5q72 0 169 -25t149 -25v-258z" />
    <glyph glyph-name="Scircumflex" unicode="&#x15c;" horiz-adv-x="1128" 
d="M582 1700l-240 -148q-42 40 -63 98l308 243l309 -243q-19 -52 -67 -98zM366 1121q0 -71 37.5 -124t97 -87t131.5 -64.5t144 -67t131.5 -84.5t97 -127.5t37.5 -184.5q0 -187 -140 -301t-370 -114q-120 0 -234.5 31.5t-195.5 86.5q-12 95 -12 174q0 48 5 138l141 5
q18 -152 93 -232.5t199 -80.5q117 0 192.5 68.5t75.5 174.5q0 75 -37 131t-96.5 91.5t-131 67t-143 68t-131 82.5t-96.5 122t-37 176q0 175 132.5 285.5t341.5 110.5q113 0 232.5 -26.5t161.5 -26.5v-332l-136 -5q-27 140 -90 204.5t-175 64.5q-101 0 -163 -61.5t-62 -162.5
z" />
    <glyph glyph-name="scircumflex" unicode="&#x15d;" horiz-adv-x="948" 
d="M481 1358l-240 -148q-42 40 -63 98l309 243l308 -243q-19 -53 -66 -98zM342 826q0 -49 29 -86t75 -61.5t101.5 -47.5t111 -51t101.5 -63t75 -91.5t29 -130.5q0 -151 -112.5 -235.5t-311.5 -84.5q-97 0 -189.5 27t-153.5 73q-9 58 -9 120q0 51 4 110l123 6
q21 -106 83 -167t149 -61q81 0 130 42.5t49 113.5q0 49 -28.5 87t-74 64t-100.5 49.5t-110 52t-100.5 63t-74 89.5t-28.5 126q0 143 104.5 224.5t288.5 81.5q72 0 169 -25t149 -25v-258l-118 -6q-21 99 -74 153t-130 54q-71 0 -114 -39t-43 -104z" />
    <glyph glyph-name="Scedilla" unicode="&#x15e;" horiz-adv-x="1128" 
d="M1042 382q0 -175 -123.5 -287t-331.5 -126l-37 -76q93 0 149.5 -45.5t56.5 -121.5q0 -94 -66.5 -149.5t-180.5 -55.5q-99 0 -167 58q8 50 34 83q55 -42 121 -42q44 0 69.5 23t25.5 63q0 42 -37 65t-106 23l-26 51l54 124q-106 7 -204.5 37t-170.5 79q-12 95 -12 174
q0 48 5 138l141 5q18 -151 93.5 -232t199.5 -81q117 0 192 68.5t75 174.5q0 75 -37 131t-96.5 91.5t-131 67t-143 68t-131 82.5t-96.5 122t-37 176q0 175 132.5 285.5t341.5 110.5q113 0 232.5 -26.5t161.5 -26.5v-332l-136 -5q-27 140 -90 204.5t-175 64.5
q-101 0 -163 -61.5t-62 -162.5q0 -71 37.5 -124t97 -87t131.5 -64.5t144 -67t131.5 -84.5t97 -127.5t37.5 -184.5z" />
    <glyph glyph-name="scedilla" unicode="&#x15f;" horiz-adv-x="948" 
d="M864 295q0 -140 -97.5 -223.5t-271.5 -94.5l-41 -84q93 0 149 -45.5t56 -121.5q0 -94 -66.5 -149.5t-180.5 -55.5q-99 0 -167 58q8 50 34 83q55 -42 122 -42q44 0 69 23t25 63q0 42 -37 65t-106 23l-26 51l58 133q-177 14 -287 97q-9 58 -9 120q0 51 4 110l123 6
q21 -106 83 -167t149 -61q81 0 130 42.5t49 113.5q0 49 -28.5 87t-74 64t-100.5 49.5t-110 52t-100.5 63t-74 89.5t-28.5 126q0 143 104.5 224.5t288.5 81.5q72 0 169 -25t149 -25v-258l-118 -6q-21 99 -74 153t-130 54q-71 0 -114 -39t-43 -104q0 -49 29 -86t75 -61.5
t101.5 -47.5t111 -51t101.5 -63t75 -91.5t29 -130.5z" />
    <glyph glyph-name="Scaron" unicode="&#x160;" horiz-adv-x="1128" 
d="M587 1543l-298 243q19 53 66 98l237 -147l230 147q42 -40 63 -98zM366 1121q0 -71 37.5 -124t97 -87t131.5 -64.5t144 -67t131.5 -84.5t97 -127.5t37.5 -184.5q0 -187 -140 -301t-370 -114q-120 0 -234.5 31.5t-195.5 86.5q-12 95 -12 174q0 48 5 138l141 5
q18 -151 93.5 -232t199.5 -81q117 0 192 68.5t75 174.5q0 75 -37 131t-96.5 91.5t-131 67t-143 68t-131 82.5t-96.5 122t-37 176q0 175 132.5 285.5t341.5 110.5q113 0 232.5 -26.5t161.5 -26.5v-332l-136 -5q-27 140 -90 204.5t-175 64.5q-101 0 -163 -61.5t-62 -162.5z
" />
    <glyph glyph-name="scaron" unicode="&#x161;" horiz-adv-x="948" 
d="M487 1201l-299 243q19 53 66 98l238 -146l230 146q42 -40 63 -98zM342 826q0 -49 29 -86t75 -61.5t101.5 -47.5t111 -51t101.5 -63t75 -91.5t29 -130.5q0 -151 -112.5 -235.5t-311.5 -84.5q-97 0 -189.5 27t-153.5 73q-9 58 -9 120q0 51 4 110l123 6q21 -106 83 -167
t149 -61q81 0 130 42.5t49 113.5q0 49 -28.5 87t-74 64t-100.5 49.5t-110 52t-100.5 63t-74 89.5t-28.5 126q0 143 104.5 224.5t288.5 81.5q72 0 169 -25t149 -25v-258l-118 -6q-21 99 -74 153t-130 54q-71 0 -114 -39t-43 -104z" />
    <glyph glyph-name="Tcedilla" unicode="&#x162;" horiz-adv-x="1341" 
d="M79 1434h1183q27 -194 27 -373l-151 -9q-9 83 -20 130t-34.5 77t-57.5 40t-92 10h-138v-1078q0 -66 18 -87.5t87 -32.5l87 -14l-4 -97h-257l-53 -107q93 0 149.5 -45.5t56.5 -121.5q0 -94 -66.5 -149.5t-180.5 -55.5q-99 0 -167 58q8 50 34 83q55 -42 121 -42
q44 0 69.5 23t25.5 63q0 42 -37 65t-106 23l-26 51l68 155h-252l4 97l99 18q47 8 63 32t16 84v1078h-138q-58 0 -92 -10t-57.5 -40t-34.5 -77t-20 -130l-151 9q0 179 27 373z" />
    <glyph glyph-name="tcedilla" unicode="&#x163;" horiz-adv-x="790" 
d="M520 -22l-41 -85q93 0 149 -45.5t56 -121.5q0 -94 -66.5 -149.5t-180.5 -55.5q-99 0 -167 58q8 50 34 83q55 -42 122 -42q44 0 69 23t25 63q0 42 -37 65t-106 23l-25 51l57 133q-112 11 -165 73.5t-52 180.5l3 691h-126l-4 105l147 24q33 121 70 196q19 39 35 51.5
t47 12.5q21 0 74 -10v-251h321v-128h-318v-652q0 -73 32.5 -106.5t101.5 -33.5q80 0 160 53l35 -106q-116 -87 -250 -100z" />
    <glyph glyph-name="Tcaron" unicode="&#x164;" horiz-adv-x="1341" 
d="M671 1543l-299 243q19 53 66 98l238 -147l230 147q42 -40 63 -98zM79 1434h1183q27 -194 27 -373l-151 -9q-9 83 -20 130t-34.5 77t-57.5 40t-92 10h-138v-1078q0 -66 18 -87.5t87 -32.5l87 -14l-4 -97h-621l4 97l99 18q47 8 63 32t16 84v1078h-138q-58 0 -92 -10
t-57.5 -40t-34.5 -77t-20 -130l-151 9q0 179 27 373z" />
    <glyph glyph-name="tcaron" unicode="&#x165;" horiz-adv-x="790" 
d="M776 1526q-28 -205 -96 -375q-71 0 -127 23q45 215 54 373q87 0 169 -21zM575 131q80 0 160 53l35 -106q-140 -103 -305 -103q-140 0 -207 63t-66 194l3 691h-126l-4 105l147 24q33 121 70 196q19 39 35 51.5t47 12.5q21 0 74 -10v-251h321v-128h-318v-652
q0 -73 32.5 -106.5t101.5 -33.5z" />
    <glyph glyph-name="Tbar" unicode="&#x166;" horiz-adv-x="1353" 
d="M802 1309v-512h313v-123h-313v-443q0 -65 18.5 -87t87.5 -33l87 -14l-4 -97h-621l4 97l99 18q47 8 63 32t16 84v443h-312v123h312v512h-138q-58 0 -92 -10t-57.5 -40t-34.5 -77t-20 -130l-151 9q0 179 27 373h1183q27 -194 27 -373l-151 -9q-9 83 -20 130t-34.5 77
t-57.5 40t-92 10h-139z" />
    <glyph glyph-name="tbar" unicode="&#x167;" horiz-adv-x="796" 
d="M735 184l35 -106q-140 -103 -305 -103q-140 0 -207 63t-66 194l2 360h-127v123h129l1 208h-128l-4 105l147 24q33 121 70 196q19 39 35 51.5t47 12.5q21 0 74 -10v-251h321v-128h-318v-208h318v-123h-318v-321q0 -73 32.5 -106.5t101.5 -33.5q80 0 160 53z" />
    <glyph glyph-name="Utilde" unicode="&#x168;" horiz-adv-x="1486" 
d="M915 1750q85 0 144 68l31 -95q-29 -52 -86 -87.5t-113 -35.5q-69 0 -140 31t-116 31q-84 0 -144 -69l-31 95q29 52 86 87.5t113 35.5q69 0 140 -30.5t116 -30.5zM625 1338l-79 -12q-46 -7 -62.5 -28t-16.5 -70v-716q0 -210 78.5 -311t239.5 -101q305 0 305 399v729
q0 54 -18.5 72t-87.5 30l-46 8l4 96h489l-4 -96l-79 -12q-46 -7 -62.5 -28t-16.5 -70v-748q0 -243 -134 -378t-377 -135q-275 0 -408 134.5t-133 410.5v716q0 53 -18.5 70.5t-87.5 31.5l-42 8l-4 96h564z" />
    <glyph glyph-name="utilde" unicode="&#x169;" horiz-adv-x="1265" 
d="M480 1320q-84 0 -144 -69l-31 96q29 52 86 87.5t113 35.5q68 0 140 -31t116 -31q85 0 144 68l31 -95q-29 -52 -86 -87.5t-113 -35.5q-68 0 -140 31t-116 31zM1213 108l-4 -96l-336 -33q-18 72 -23 178q-52 -87 -137 -134.5t-191 -47.5q-165 0 -249.5 89t-84.5 260v497
q0 58 -12.5 77.5t-55.5 28.5l-53 11l-4 90l370 48v-732q0 -213 171 -213q147 0 226 144v546q0 58 -14.5 76.5t-65.5 29.5l-53 11l-4 90l382 48v-851q0 -58 16.5 -80.5t66.5 -29.5z" />
    <glyph glyph-name="Umacron" unicode="&#x16a;" horiz-adv-x="1486" 
d="M1057 1633h-563v140h563v-140zM625 1338l-79 -12q-46 -7 -62.5 -28t-16.5 -70v-716q0 -210 78.5 -311t239.5 -101q305 0 305 399v729q0 54 -18.5 72t-87.5 30l-46 8l4 96h489l-4 -96l-79 -12q-46 -7 -62.5 -28t-16.5 -70v-748q0 -243 -134 -378t-377 -135
q-275 0 -408 134.5t-133 410.5v716q0 53 -18.5 70.5t-87.5 31.5l-42 8l-4 96h564z" />
    <glyph glyph-name="umacron" unicode="&#x16b;" horiz-adv-x="1265" 
d="M901 1292h-563v139h563v-139zM1213 108l-4 -96l-336 -33q-18 72 -23 178q-52 -87 -137 -134.5t-191 -47.5q-165 0 -249.5 89t-84.5 260v497q0 58 -12.5 77.5t-55.5 28.5l-53 11l-4 90l370 48v-732q0 -213 171 -213q147 0 226 144v546q0 58 -14.5 76.5t-65.5 29.5l-53 11
l-4 90l382 48v-851q0 -58 16.5 -80.5t66.5 -29.5z" />
    <glyph glyph-name="Ubreve" unicode="&#x16c;" horiz-adv-x="1486" 
d="M593 1840q45 -134 184 -134t184 134q27 0 59 -12t49 -27q-30 -116 -105 -176t-189 -60t-189 60t-105 176q17 15 51 27t61 12zM625 1338l-79 -12q-46 -7 -62.5 -28t-16.5 -70v-716q0 -210 78.5 -311t239.5 -101q305 0 305 399v729q0 54 -18.5 72t-87.5 30l-46 8l4 96h489
l-4 -96l-79 -12q-46 -7 -62.5 -28t-16.5 -70v-748q0 -243 -134 -378t-377 -135q-275 0 -408 134.5t-133 410.5v716q0 53 -18.5 70.5t-87.5 31.5l-42 8l-4 96h564z" />
    <glyph glyph-name="ubreve" unicode="&#x16d;" horiz-adv-x="1265" 
d="M620 1223q-114 0 -189 60t-105 176q17 15 51 27t61 12q45 -134 184 -134t184 134q27 0 59 -12t49 -27q-30 -116 -105 -176t-189 -60zM1213 108l-4 -96l-336 -33q-18 72 -23 178q-52 -87 -137 -134.5t-191 -47.5q-165 0 -249.5 89t-84.5 260v497q0 58 -12.5 77.5
t-55.5 28.5l-53 11l-4 90l370 48v-732q0 -213 171 -213q147 0 226 144v546q0 58 -14.5 76.5t-65.5 29.5l-53 11l-4 90l382 48v-851q0 -58 16.5 -80.5t66.5 -29.5z" />
    <glyph glyph-name="Uring" unicode="&#x16e;" horiz-adv-x="1486" 
d="M573 1735q0 85 60 143.5t142 58.5q88 0 145 -55t57 -147q0 -85 -60 -143.5t-142 -58.5q-88 0 -145 55t-57 147zM679 1735q0 -45 27.5 -72.5t68.5 -27.5t68.5 27.5t27.5 72.5t-27.5 72.5t-68.5 27.5t-68.5 -27.5t-27.5 -72.5zM625 1338l-79 -12q-46 -7 -62.5 -28
t-16.5 -70v-716q0 -210 78.5 -311t239.5 -101q305 0 305 399v729q0 54 -18.5 72t-87.5 30l-46 8l4 96h489l-4 -96l-79 -12q-46 -7 -62.5 -28t-16.5 -70v-748q0 -243 -134 -378t-377 -135q-275 0 -408 134.5t-133 410.5v716q0 53 -18.5 70.5t-87.5 31.5l-42 8l-4 96h564z" />
    <glyph glyph-name="uring" unicode="&#x16f;" horiz-adv-x="1265" 
d="M620 1191q-88 0 -145 55t-57 147q0 85 60 143.5t142 58.5q88 0 145 -55t57 -147q0 -85 -60 -143.5t-142 -58.5zM620 1493q-41 0 -68.5 -27.5t-27.5 -72.5t27.5 -72.5t68.5 -27.5t68.5 27.5t27.5 72.5t-27.5 72.5t-68.5 27.5zM1213 108l-4 -96l-336 -33q-18 72 -23 178
q-52 -87 -137 -134.5t-191 -47.5q-165 0 -249.5 89t-84.5 260v497q0 58 -12.5 77.5t-55.5 28.5l-53 11l-4 90l370 48v-732q0 -213 171 -213q147 0 226 144v546q0 58 -14.5 76.5t-65.5 29.5l-53 11l-4 90l382 48v-851q0 -58 16.5 -80.5t66.5 -29.5z" />
    <glyph glyph-name="Uhungarumlaut" unicode="&#x170;" horiz-adv-x="1486" 
d="M539 1572l110 359q84 -14 155 -60l-152 -342q-60 7 -113 43zM841 1582l140 349q83 -21 150 -72l-180 -330q-59 13 -110 53zM625 1338l-79 -12q-46 -7 -62.5 -28t-16.5 -70v-716q0 -210 78.5 -311t239.5 -101q305 0 305 399v729q0 54 -18.5 72t-87.5 30l-46 8l4 96h489
l-4 -96l-79 -12q-46 -7 -62.5 -28t-16.5 -70v-748q0 -243 -134 -378t-377 -135q-275 0 -408 134.5t-133 410.5v716q0 53 -18.5 70.5t-87.5 31.5l-42 8l-4 96h564z" />
    <glyph glyph-name="uhungarumlaut" unicode="&#x171;" horiz-adv-x="1265" 
d="M635 1530l-152 -343q-60 7 -113 43l109 359q87 -14 156 -59zM962 1517l-180 -330q-59 13 -110 53l140 349q83 -21 150 -72zM1213 108l-4 -96l-336 -33q-18 72 -23 178q-52 -87 -137 -134.5t-191 -47.5q-165 0 -249.5 89t-84.5 260v497q0 58 -12.5 77.5t-55.5 28.5l-53 11
l-4 90l370 48v-732q0 -213 171 -213q147 0 226 144v546q0 58 -14.5 76.5t-65.5 29.5l-53 11l-4 90l382 48v-851q0 -58 16.5 -80.5t66.5 -29.5z" />
    <glyph glyph-name="Uogonek" unicode="&#x172;" horiz-adv-x="1486" 
d="M1431 1434l-4 -96l-79 -12q-46 -7 -62.5 -28t-16.5 -70v-748q0 -198 -89.5 -325.5t-256.5 -168.5q-86 -31 -133.5 -83.5t-47.5 -118.5q0 -51 28 -81t75 -30q68 0 113 45q27 -38 33 -87q-83 -78 -211 -78q-96 0 -155.5 54t-59.5 141q0 64 35 123.5t93 97.5
q-241 16 -358.5 150.5t-117.5 392.5v716q0 53 -18.5 70.5t-87.5 31.5l-42 8l-4 96h564l-4 -96l-79 -12q-46 -7 -62.5 -28t-16.5 -70v-716q0 -210 78.5 -311t239.5 -101q305 0 305 399v729q0 54 -18.5 72t-87.5 30l-46 8l4 96h489z" />
    <glyph glyph-name="uogonek" unicode="&#x173;" horiz-adv-x="1265" 
d="M1213 108l-4 -96q-112 -16 -180.5 -79t-68.5 -149q0 -51 28 -81t75 -30q69 0 114 45q25 -36 32 -87q-83 -78 -211 -78q-96 0 -155.5 54t-59.5 141q0 69 33 132.5t87 100.5q-40 58 -52 178q-52 -88 -137.5 -136t-191.5 -48q-165 0 -249.5 89t-84.5 260v497
q0 58 -12.5 77.5t-55.5 28.5l-53 11l-4 90l370 48v-732q0 -213 171 -213q147 0 226 144v546q0 58 -14.5 76.5t-65.5 29.5l-53 11l-4 90l382 48v-851q0 -58 16.5 -80.5t66.5 -29.5z" />
    <glyph glyph-name="Wcircumflex" unicode="&#x174;" horiz-adv-x="2107" 
d="M1095 1700l-240 -148q-42 40 -63 98l308 243l309 -243q-19 -53 -66 -98zM2110 1434l-4 -96l-53 -7q-56 -7 -83.5 -42.5t-64.5 -147.5l-376 -1146h-178l-290 1015l-327 -1015h-179l-339 1146q-33 110 -60 145.5t-84 44.5l-41 7l-4 96h563l-4 -96l-53 -7q-49 -6 -68.5 -20
t-19.5 -48q0 -32 24 -122l220 -802l336 1095h159l300 -1095l246 802q28 89 28 124t-23.5 48t-87.5 20l-45 5l4 96h504z" />
    <glyph glyph-name="wcircumflex" unicode="&#x175;" horiz-adv-x="1712" 
d="M894 1358l-240 -148q-42 40 -63 98l309 243l308 -243q-19 -53 -66 -98zM1711 1051l-4 -93l-27 -6q-51 -11 -73.5 -34t-45.5 -87l-301 -834h-183l-217 697l-242 -697h-183l-273 834q-23 70 -41.5 91.5t-60.5 28.5l-39 7l-4 93h508l-4 -93l-49 -8q-44 -7 -62.5 -19.5
t-18.5 -38.5q0 -22 12 -61l172 -552l254 772h149l239 -771l180 551q17 51 17 72q0 24 -18 33t-69 15l-47 7l4 93h427z" />
    <glyph glyph-name="Ycircumflex" unicode="&#x176;" horiz-adv-x="1345" 
d="M695 1700l-240 -148q-42 40 -63 98l308 243l309 -243q-19 -52 -67 -98zM1346 1434l-4 -96l-37 -5q-24 -3 -36 -5t-28 -10.5t-25 -17.5t-27 -33.5t-33 -50.5t-44 -75l-315 -543v-367q0 -65 18.5 -87t87.5 -33l87 -14l-5 -97h-620l4 97l99 18q47 8 63 32t16 84v367
l-316 543q-29 50 -44 75.5t-32.5 50t-25.5 33.5t-22 17.5t-24 10.5t-30 5l-28 5l-4 96h574l-4 -96l-52 -6q-89 -10 -89 -64q0 -36 34 -94l241 -413l233 413q37 65 37 97q0 27 -22.5 41t-71.5 19l-62 7l4 96h503z" />
    <glyph glyph-name="ycircumflex" unicode="&#x177;" horiz-adv-x="1155" 
d="M607 1358l-240 -148q-42 40 -63 98l309 243l308 -243q-19 -53 -66 -98zM1152 1051l-4 -93l-27 -6q-50 -11 -70.5 -32t-48.5 -89l-348 -854q-99 -243 -201 -335.5t-275 -92.5q-36 0 -79 10q-27 45 -27 93t28.5 76.5t77.5 28.5q26 0 63.5 -11t58.5 -11q63 0 101.5 42
t86.5 164l19 48q-35 34 -70 122l-281 720q-29 74 -46 94t-56 26l-39 7l-4 93h519l-4 -93l-49 -8q-44 -7 -63 -20.5t-19 -39.5q0 -24 13 -59l214 -569l216 569q17 45 17 66q0 25 -19.5 36.5t-67.5 17.5l-47 7l4 93h427z" />
    <glyph glyph-name="Ydieresis" unicode="&#x178;" horiz-adv-x="1345" 
d="M501 1585q-55 0 -92 36t-37 90t37 90.5t92 36.5t92 -36.5t37 -90.5t-37 -90t-92 -36zM899 1585q-55 0 -92 36t-37 90t37 90.5t92 36.5t92 -36.5t37 -90.5t-37 -90t-92 -36zM1346 1434l-4 -96l-37 -5q-24 -3 -36 -5t-28 -10.5t-25 -17.5t-27 -33.5t-33 -50.5t-44 -75
l-315 -543v-367q0 -65 18.5 -87t87.5 -33l87 -14l-5 -97h-620l4 97l99 18q47 8 63 32t16 84v367l-316 543q-29 50 -44 75.5t-32.5 50t-25.5 33.5t-22 17.5t-24 10.5t-30 5l-28 5l-4 96h574l-4 -96l-52 -6q-89 -10 -89 -64q0 -36 34 -94l241 -413l233 413q37 65 37 97
q0 27 -22.5 41t-71.5 19l-62 7l4 96h503z" />
    <glyph glyph-name="Zacute" unicode="&#x179;" horiz-adv-x="1241" 
d="M919 1744l-403 -210q-42 41 -67 106l371 259q66 -71 99 -155zM1009 387l151 -9q0 -184 -27 -378h-1057l-5 102l779 1207h-399q-58 0 -92 -10t-57.5 -40t-34.5 -77t-20 -130l-150 9q0 186 26 373h1022l5 -102l-779 -1207h434q107 0 147 56t57 206z" />
    <glyph glyph-name="zacute" unicode="&#x17a;" horiz-adv-x="1046" 
d="M801 1402l-403 -209q-43 41 -67 105l371 259q66 -71 99 -155zM831 314l134 -9q0 -149 -22 -305h-866l-7 97l606 846h-289q-76 0 -110 -43.5t-48 -159.5l-134 9q0 146 22 302h835l7 -97l-606 -845h321q74 0 108 47t49 158z" />
    <glyph glyph-name="Zdotaccent" unicode="&#x17b;" horiz-adv-x="1241" 
d="M623 1578q-63 0 -103.5 38.5t-40.5 99.5t40.5 99.5t103.5 38.5t103.5 -38.5t40.5 -99.5t-40.5 -99.5t-103.5 -38.5zM1009 387l151 -9q0 -184 -27 -378h-1057l-5 102l779 1207h-399q-58 0 -92 -10t-57.5 -40t-34.5 -77t-20 -130l-150 9q0 186 26 373h1022l5 -102
l-779 -1207h434q107 0 147 56t57 206z" />
    <glyph glyph-name="zdotaccent" unicode="&#x17c;" horiz-adv-x="1046" 
d="M528 1237q-63 0 -103.5 38t-40.5 99t40.5 99.5t103.5 38.5t103.5 -38.5t40.5 -99.5t-40.5 -99t-103.5 -38zM831 314l134 -9q0 -149 -22 -305h-866l-7 97l606 846h-289q-76 0 -110 -43.5t-48 -159.5l-134 9q0 146 22 302h835l7 -97l-606 -845h321q74 0 108 47t49 158z" />
    <glyph glyph-name="Zcaron" unicode="&#x17d;" horiz-adv-x="1241" 
d="M623 1543l-298 243q19 53 66 98l238 -147l229 147q42 -40 63 -98zM1009 387l151 -9q0 -184 -27 -378h-1057l-5 102l779 1207h-399q-58 0 -92 -10t-57.5 -40t-34.5 -77t-20 -130l-150 9q0 186 26 373h1022l5 -102l-779 -1207h434q107 0 147 56t57 206z" />
    <glyph glyph-name="zcaron" unicode="&#x17e;" horiz-adv-x="1046" 
d="M528 1201l-298 243q19 53 66 98l237 -146l230 146q42 -40 63 -98zM831 314l134 -9q0 -149 -22 -305h-866l-7 97l606 846h-289q-76 0 -110 -43.5t-48 -159.5l-134 9q0 146 22 302h835l7 -97l-606 -845h321q74 0 108 47t49 158z" />
    <glyph glyph-name="longs" unicode="&#x17f;" horiz-adv-x="673" 
d="M868 1482q10 -27 10 -56q0 -49 -27.5 -78t-74.5 -29q-45 0 -82.5 20.5t-73.5 41t-77 20.5q-47 0 -66.5 -35t-19.5 -121v-1035q0 -56 17 -73t84 -27l92 -13l-5 -97h-558l4 94l52 11q43 10 56 27.5t13 67.5v723h-131l-4 105l137 21v110q0 176 95.5 267.5t279.5 91.5
q157 0 279 -36z" />
    <glyph glyph-name="Schwa" unicode="&#x18f;" horiz-adv-x="1384" 
d="M636 1466q312 0 483 -199t171 -550q0 -349 -180.5 -549.5t-479.5 -200.5q-256 0 -406.5 153t-150.5 413q0 92 16.5 122t67.5 30h869v32q0 148 -33.5 262.5t-93.5 185t-139 106.5t-173 36q-223 0 -396 -156l-65 120q111 103 231 149t279 46zM650 101q150 0 245.5 119
t121.5 336h-617q-43 0 -60.5 -22t-17.5 -77q0 -156 92 -256t236 -100z" />
    <glyph glyph-name="florin" unicode="&#x192;" horiz-adv-x="1083" 
d="M1050 1482q5 -17 5 -44q0 -56 -27.5 -87.5t-78.5 -31.5q-33 0 -61 13t-44.5 28t-42 28t-55.5 13q-93 0 -115 -156l-44 -317h270l-17 -128h-269l-113 -814q-31 -226 -120.5 -331.5t-243.5 -105.5q-88 0 -162 41l28 123q47 -24 98 -24q68 0 99 56t55 225l117 830h-132
l11 105q17 5 66.5 12.5t74.5 9.5l33 233q25 181 129.5 269.5t291.5 88.5q127 0 247 -36z" />
    <glyph glyph-name="AEacute" unicode="&#x1fc;" horiz-adv-x="1939" 
d="M1501 1744l-402 -210q-42 41 -67 106l371 259q64 -69 98 -155zM1713 368l147 -9q0 -165 -27 -359h-1066l4 96l68 13q47 9 63.5 28.5t16.5 67.5v253h-422l-92 -186q-42 -86 -42 -116q0 -24 19 -35t66 -18l45 -7l-4 -96h-489l4 96l53 8q55 9 84 34t65 95l499 981
q25 48 25 70q0 19 -17.5 29t-56.5 15l-67 10l-4 96h1211q27 -194 27 -359l-147 -9q-17 149 -57 196t-151 47h-304v-518h256q50 0 69 21t33 92l8 42l125 4v-455l-125 4l-11 79q-7 47 -30 67t-69 20h-256v-451q0 -55 28 -72t117 -17h196q111 0 151 47t57 196zM919 589v721
l-357 -721h357z" />
    <glyph glyph-name="aeacute" unicode="&#x1fd;" horiz-adv-x="1671" 
d="M1112 1402l-402 -209q-43 41 -67 105l371 259q64 -69 98 -155zM1232 128q86 0 153.5 24t132.5 78l52 -113q-89 -75 -183.5 -108.5t-223.5 -33.5q-284 0 -408 208q-52 -99 -148.5 -153.5t-222.5 -54.5q-141 0 -225.5 82.5t-84.5 219.5q0 165 124.5 261.5t340.5 96.5
q69 0 135 -9v106q0 121 -36.5 177.5t-113.5 56.5q-42 0 -76.5 -17t-58 -41t-46 -48.5t-52 -41.5t-64.5 -17q-48 0 -76.5 29.5t-28.5 80.5q0 23 8 53q178 112 403 112q123 0 196.5 -36t108.5 -112q134 148 346 148q186 0 293.5 -117.5t107.5 -319.5q0 -74 -13 -98.5
t-53 -24.5h-590q2 -194 84 -291t219 -97zM1153 948q-190 0 -219 -315h360q32 0 43.5 15.5t11.5 56.5q0 110 -53.5 176.5t-142.5 66.5zM463 131q153 0 234 197q-22 85 -23 181v2q-58 7 -111 7q-121 0 -184.5 -54.5t-63.5 -157.5q0 -82 39.5 -128.5t108.5 -46.5z" />
    <glyph glyph-name="Oslashacute" unicode="&#x1fe;" horiz-adv-x="1550" 
d="M1036 1744l-403 -210q-41 39 -66 106l370 259q66 -71 99 -155zM1219 1520l-69 -148q149 -90 228.5 -257t79.5 -398q0 -221 -84.5 -391t-240 -264.5t-358.5 -94.5q-142 0 -259 44l-70 -152l-115 55l71 153q-149 93 -229.5 262t-80.5 388q0 348 187.5 548.5t495.5 200.5
q146 0 260 -40l69 148zM775 1332q-195 0 -303 -160.5t-108 -454.5q0 -299 128 -470l472 1035q-82 50 -189 50zM775 101q187 0 298.5 168t111.5 448q0 316 -124 477l-473 -1038q82 -55 187 -55z" />
    <glyph glyph-name="oslashacute" unicode="&#x1ff;" horiz-adv-x="1196" 
d="M840 1402l-402 -209q-43 41 -67 105l371 259q64 -69 98 -155zM950 1143l-63 -136q220 -130 220 -481q0 -254 -142 -402.5t-367 -148.5q-98 0 -181 26l-66 -142l-106 49l66 141q-108 67 -165.5 189t-57.5 288q0 131 39.5 236t109 173t161.5 104.5t200 36.5q98 0 181 -23
l65 139zM598 948q-124 0 -189 -106.5t-65 -315.5q0 -182 58 -293l310 685q-50 30 -114 30zM598 103q118 0 185.5 112t67.5 311q0 191 -55 298l-312 -688q50 -33 114 -33z" />
    <glyph glyph-name="Scommaaccent" unicode="&#x218;" horiz-adv-x="1128" 
d="M366 1121q0 -71 37.5 -124t97 -87t131.5 -64.5t144 -67t131.5 -84.5t97 -127.5t37.5 -184.5q0 -187 -140 -301t-370 -114q-120 0 -234.5 31.5t-195.5 86.5q-12 95 -12 174q0 48 5 138l141 5q18 -151 93.5 -232t199.5 -81q117 0 192 68.5t75 174.5q0 75 -37 131
t-96.5 91.5t-131 67t-143 68t-131 82.5t-96.5 122t-37 176q0 175 132.5 285.5t341.5 110.5q113 0 232.5 -26.5t161.5 -26.5v-332l-136 -5q-27 140 -90 204.5t-175 64.5q-101 0 -163 -61.5t-62 -162.5zM561 -83q119 0 119 -147q0 -102 -58.5 -175.5t-156.5 -94.5
q-26 14 -34 51q87 40 96 134q-39 10 -63 41t-24 74q0 51 34 84t87 33z" />
    <glyph glyph-name="scommaaccent" unicode="&#x219;" horiz-adv-x="948" 
d="M342 826q0 -49 29 -86t75 -61.5t101.5 -47.5t111 -51t101.5 -63t75 -91.5t29 -130.5q0 -151 -112.5 -235.5t-311.5 -84.5q-97 0 -189.5 27t-153.5 73q-9 58 -9 120q0 51 4 110l123 6q21 -106 83 -167t149 -61q81 0 130 42.5t49 113.5q0 49 -28.5 87t-74 64t-100.5 49.5
t-110 52t-100.5 63t-74 89.5t-28.5 126q0 143 104.5 224.5t288.5 81.5q72 0 169 -25t149 -25v-258l-118 -6q-21 99 -74 153t-130 54q-71 0 -114 -39t-43 -104zM468 -83q119 0 119 -147q0 -102 -58.5 -175.5t-156.5 -94.5q-26 14 -34 51q88 41 97 134q-39 10 -63 41t-24 74
q0 51 33.5 84t86.5 33z" />
    <glyph glyph-name="uni021A" unicode="&#x21a;" horiz-adv-x="1341" 
d="M79 1434h1183q27 -194 27 -373l-151 -9q-9 83 -20 130t-34.5 77t-57.5 40t-92 10h-138v-1078q0 -66 18 -87.5t87 -32.5l87 -14l-4 -97h-621l4 97l99 18q47 8 63 32t16 84v1078h-138q-58 0 -92 -10t-57.5 -40t-34.5 -77t-20 -130l-151 9q0 179 27 373zM672 -83
q119 0 119 -147q0 -102 -58.5 -175.5t-156.5 -94.5q-26 14 -34 51q87 40 96 134q-39 10 -63 41t-24 74q0 51 34 84t87 33z" />
    <glyph glyph-name="uni021B" unicode="&#x21b;" horiz-adv-x="790" 
d="M735 184l35 -106q-140 -103 -305 -103q-140 0 -207 63t-66 194l3 691h-126l-4 105l147 24q33 121 70 196q19 39 35 51.5t47 12.5q21 0 74 -10v-251h321v-128h-318v-652q0 -73 32.5 -106.5t101.5 -33.5q80 0 160 53zM467 -83q119 0 119 -147q0 -102 -59 -175.5t-157 -94.5
q-26 14 -34 51q88 41 97 134q-39 10 -63 41t-24 74q0 51 34 84t87 33z" />
    <glyph glyph-name="dotlessj" unicode="&#x237;" horiz-adv-x="595" 
d="M437 1076v-762q0 -229 -36.5 -378t-118.5 -237q-107 -116 -308 -150q-40 35 -40 98q0 67 69 93q19 7 65.5 14t69.5 22q33 21 42 98t9 333v614q0 58 -12 78t-53 28l-53 11l-5 90z" />
    <glyph glyph-name="schwa" unicode="&#x259;" horiz-adv-x="1079" 
d="M499 1076q235 0 362 -145t127 -405q0 -131 -38.5 -236.5t-106 -173.5t-157.5 -104.5t-195 -36.5q-192 0 -303 113.5t-111 310.5q0 74 13.5 98.5t53.5 24.5h592v4q0 199 -82.5 298t-223.5 99q-79 0 -140.5 -24t-127.5 -78l-52 114q89 75 178 108t211 33zM510 103
q188 0 220 301h-361q-32 0 -44 -15t-12 -56q0 -105 54 -167.5t143 -62.5z" />
    <glyph glyph-name="circumflex" unicode="&#x2c6;" 
d="M512 1551l308 -243q-19 -53 -66 -98l-247 148l-241 -148q-41 39 -62 98z" />
    <glyph glyph-name="caron" unicode="&#x2c7;" 
d="M517 1396l230 146q42 -40 63 -98l-298 -243l-298 243q19 53 66 98z" />
    <glyph glyph-name="breve" unicode="&#x2d8;" 
d="M330 1498q45 -134 184 -134t184 134q27 0 59 -12t49 -27q-30 -116 -105 -176t-189 -60t-189 60t-105 176q17 15 51 27t61 12z" />
    <glyph glyph-name="dotaccent" unicode="&#x2d9;" 
d="M368 1374q0 61 40.5 99.5t103.5 38.5t103.5 -38.5t40.5 -99.5t-40.5 -99t-103.5 -38t-103.5 38t-40.5 99z" />
    <glyph glyph-name="ring" unicode="&#x2da;" 
d="M310 1393q0 85 60 143.5t142 58.5q88 0 145 -55t57 -147q0 -85 -60 -143.5t-142 -58.5q-88 0 -145 55t-57 147zM416 1393q0 -45 27.5 -72.5t68.5 -27.5t68.5 27.5t27.5 72.5t-27.5 72.5t-68.5 27.5t-68.5 -27.5t-27.5 -72.5z" />
    <glyph glyph-name="ogonek" unicode="&#x2db;" 
d="M526 8l185 -8q-112 -28 -173.5 -84.5t-61.5 -131.5q0 -51 28 -81t75 -30q68 0 113 45q27 -38 33 -87q-83 -78 -211 -78q-96 0 -155.5 54t-59.5 141q0 89 65.5 164t161.5 96z" />
    <glyph glyph-name="tilde" unicode="&#x2dc;" 
d="M652 1408q85 0 144 68l31 -95q-29 -52 -86 -87.5t-113 -35.5q-68 0 -140 31t-116 31q-84 0 -144 -69l-31 96q29 52 86 87.5t113 35.5q68 0 140 -31t116 -31z" />
    <glyph glyph-name="hungarumlaut" unicode="&#x2dd;" 
d="M216 1230l109 359q87 -14 156 -59l-152 -343q-60 7 -113 43zM518 1240l140 349q83 -21 150 -72l-180 -330q-59 13 -110 53z" />
    <glyph glyph-name="gravecomb" unicode="&#x300;" horiz-adv-x="0" 
d="M376 1557l371 -259q-24 -64 -67 -105l-403 209q33 84 99 155z" />
    <glyph glyph-name="acutecomb" unicode="&#x301;" horiz-adv-x="0" 
d="M277 1298l371 259q66 -71 99 -155l-403 -209q-43 41 -67 105z" />
    <glyph glyph-name="uni0302" unicode="&#x302;" horiz-adv-x="0" 
d="M512 1551l308 -243q-19 -53 -66 -98l-247 148l-241 -148q-41 39 -62 98z" />
    <glyph glyph-name="tildecomb" unicode="&#x303;" horiz-adv-x="0" 
d="M652 1408q85 0 144 68l31 -95q-29 -52 -86 -87.5t-113 -35.5q-68 0 -140 31t-116 31q-84 0 -144 -69l-31 96q29 52 86 87.5t113 35.5q68 0 140 -31t116 -31z" />
    <glyph glyph-name="uni0304" unicode="&#x304;" horiz-adv-x="0" 
d="M794 1292h-564v139h564v-139z" />
    <glyph glyph-name="uni0306" unicode="&#x306;" horiz-adv-x="0" 
d="M330 1498q45 -134 184 -134t184 134q27 0 59 -12t49 -27q-30 -116 -105 -176t-189 -60t-189 60t-105 176q17 15 51 27t61 12z" />
    <glyph glyph-name="uni0307" unicode="&#x307;" horiz-adv-x="0" 
d="M368 1374q0 61 40.5 99.5t103.5 38.5t103.5 -38.5t40.5 -99.5t-40.5 -99t-103.5 -38t-103.5 38t-40.5 99z" />
    <glyph glyph-name="uni0308" unicode="&#x308;" horiz-adv-x="0" 
d="M184 1370q0 54 37 90t92 36t92 -36t37 -90t-37 -90.5t-92 -36.5t-92 36.5t-37 90.5zM582 1370q0 54 37 90t92 36t92 -36t37 -90t-37 -90.5t-92 -36.5t-92 36.5t-37 90.5z" />
    <glyph glyph-name="uni030A" unicode="&#x30a;" horiz-adv-x="0" 
d="M310 1393q0 85 60 143.5t142 58.5q88 0 145 -55t57 -147q0 -85 -60 -143.5t-142 -58.5q-88 0 -145 55t-57 147zM416 1393q0 -45 27.5 -72.5t68.5 -27.5t68.5 27.5t27.5 72.5t-27.5 72.5t-68.5 27.5t-68.5 -27.5t-27.5 -72.5z" />
    <glyph glyph-name="uni030B" unicode="&#x30b;" horiz-adv-x="0" 
d="M216 1230l109 359q87 -14 156 -59l-152 -343q-60 7 -113 43zM518 1240l140 349q83 -21 150 -72l-180 -330q-59 13 -110 53z" />
    <glyph glyph-name="uni030C" unicode="&#x30c;" horiz-adv-x="0" 
d="M517 1396l230 146q42 -40 63 -98l-298 -243l-298 243q19 53 66 98z" />
    <glyph glyph-name="uni0312" unicode="&#x312;" horiz-adv-x="0" 
d="M539 1441q39 -10 63 -40.5t24 -73.5q0 -51 -33.5 -84.5t-86.5 -33.5q-120 0 -120 147q0 102 59 176t157 95q26 -14 34 -52q-88 -41 -97 -134z" />
    <glyph glyph-name="uni0326" unicode="&#x326;" horiz-adv-x="0" 
d="M518 -83q120 0 120 -147q0 -102 -59 -175.5t-157 -94.5q-26 14 -34 51q88 41 97 134q-39 10 -63 41t-24 74q0 51 33.5 84t86.5 33z" />
    <glyph glyph-name="uni0327" unicode="&#x327;" horiz-adv-x="0" 
d="M583 36l-70 -143q93 0 149.5 -45.5t56.5 -121.5q0 -94 -66.5 -149.5t-180.5 -55.5q-99 0 -167 58q8 50 34 83q55 -42 121 -42q44 0 69.5 23t25.5 63q0 42 -37 65t-106 23l-26 51l83 191h114z" />
    <glyph glyph-name="Delta" unicode="&#x394;" horiz-adv-x="1462" 
d="M1412 0h-1361l598 1438h165zM687 1109l-405 -976h810z" />
    <glyph glyph-name="Omega" unicode="&#x3a9;" horiz-adv-x="1628" 
d="M1413 324l125 -10q0 -142 -26 -314h-622v154q136 39 218 216t82 433q0 254 -93 391.5t-283 137.5t-283 -137.5t-93 -391.5q0 -256 82 -433t218 -216v-154h-622q-26 172 -26 314l124 10q17 -107 60.5 -144.5t149.5 -37.5h139q-177 76 -287 256.5t-110 404.5q0 307 173 485
t475 178q316 0 482 -176t166 -487q0 -220 -114.5 -402t-288.5 -259h144q106 0 149.5 37.5t60.5 144.5z" />
    <glyph glyph-name="mu" unicode="&#x3bc;" horiz-adv-x="1296" 
d="M1221 108l-4 -96l-336 -32q-18 72 -23 177q-52 -86 -135 -134t-181 -48q-61 0 -109 18q6 -77 6 -149v-250l-243 -40v1267q0 58 -12.5 77.5t-55.5 28.5l-53 11l-4 90l370 48v-732q0 -213 171 -213q146 0 225 144v546q0 58 -14 76.5t-65 29.5l-53 11l-4 90l382 48v-851
q0 -58 16.5 -80.5t66.5 -29.5z" />
    <glyph glyph-name="pi" unicode="&#x3c0;" horiz-adv-x="1339" 
d="M1083 926v-703q0 -62 16 -82t66 -20q29 0 79 5l6 -102q-104 -44 -208 -44q-115 0 -159.5 48t-44.5 173v725h-373v-926h-245v926h-191l15 146h1243v-146h-204z" />
    <glyph glyph-name="Wgrave" unicode="&#x1e80;" horiz-adv-x="2107" 
d="M938 1899l371 -259q-25 -65 -67 -106l-403 210q33 84 99 155zM2110 1434l-4 -96l-53 -7q-56 -7 -83.5 -42.5t-64.5 -147.5l-376 -1146h-178l-290 1015l-327 -1015h-178l-340 1146q-33 110 -60 145.5t-84 44.5l-41 7l-4 96h563l-4 -96l-53 -7q-49 -6 -68.5 -20t-19.5 -48
q0 -32 24 -122l220 -802l336 1095h159l300 -1095l246 802q28 89 28 124t-23.5 48t-87.5 20l-45 5l4 96h504z" />
    <glyph glyph-name="wgrave" unicode="&#x1e81;" horiz-adv-x="1712" 
d="M751 1557l371 -259q-24 -64 -67 -105l-403 209q33 84 99 155zM1711 1051l-4 -93l-27 -6q-51 -11 -73.5 -34t-45.5 -87l-301 -834h-183l-217 697l-242 -697h-183l-273 834q-23 70 -41.5 91.5t-60.5 28.5l-39 7l-4 93h508l-4 -93l-49 -8q-44 -7 -62.5 -19.5t-18.5 -38.5
q0 -22 12 -61l172 -552l254 772h149l239 -771l180 551q17 51 17 72q0 24 -18 33t-69 15l-47 7l4 93h427z" />
    <glyph glyph-name="Wacute" unicode="&#x1e82;" horiz-adv-x="2107" 
d="M1361 1744l-403 -210q-41 39 -66 106l370 259q66 -71 99 -155zM2110 1434l-4 -96l-53 -7q-56 -7 -83.5 -42.5t-64.5 -147.5l-376 -1146h-178l-290 1015l-327 -1015h-178l-340 1146q-33 110 -60 145.5t-84 44.5l-41 7l-4 96h563l-4 -96l-53 -7q-49 -6 -68.5 -20t-19.5 -48
q0 -32 24 -122l220 -802l336 1095h159l300 -1095l246 802q28 89 28 124t-23.5 48t-87.5 20l-45 5l4 96h504z" />
    <glyph glyph-name="wacute" unicode="&#x1e83;" horiz-adv-x="1712" 
d="M1147 1402l-403 -209q-43 41 -67 105l371 259q66 -71 99 -155zM1711 1051l-4 -93l-27 -6q-51 -11 -73.5 -34t-45.5 -87l-301 -834h-183l-217 697l-242 -697h-183l-273 834q-23 70 -41.5 91.5t-60.5 28.5l-39 7l-4 93h508l-4 -93l-49 -8q-44 -7 -62.5 -19.5t-18.5 -38.5
q0 -22 12 -61l172 -552l254 772h149l239 -771l180 551q17 51 17 72q0 24 -18 33t-69 15l-47 7l4 93h427z" />
    <glyph glyph-name="Wdieresis" unicode="&#x1e84;" horiz-adv-x="2107" 
d="M901 1585q-55 0 -92 36t-37 90t37 90.5t92 36.5t92 -36.5t37 -90.5t-37 -90t-92 -36zM1300 1585q-55 0 -92 36t-37 90t37 90.5t92 36.5t92 -36.5t37 -90.5t-37 -90t-92 -36zM2110 1434l-4 -96l-53 -7q-56 -7 -83.5 -42.5t-64.5 -147.5l-376 -1146h-178l-290 1015
l-327 -1015h-179l-339 1146q-33 110 -60 145.5t-84 44.5l-41 7l-4 96h563l-4 -96l-53 -7q-49 -6 -68.5 -20t-19.5 -48q0 -32 24 -122l220 -802l336 1095h159l300 -1095l246 802q28 89 28 124t-23.5 48t-87.5 20l-45 5l4 96h504z" />
    <glyph glyph-name="wdieresis" unicode="&#x1e85;" horiz-adv-x="1712" 
d="M700 1243q-55 0 -92 36.5t-37 90.5t37 90t92 36t92 -36t37 -90t-37 -90.5t-92 -36.5zM1099 1243q-55 0 -92 36.5t-37 90.5t37 90t92 36t92 -36t37 -90t-37 -90.5t-92 -36.5zM1711 1051l-4 -93l-27 -6q-51 -11 -73.5 -34t-45.5 -87l-301 -834h-183l-217 697l-242 -697
h-183l-273 834q-23 70 -41.5 91.5t-60.5 28.5l-39 7l-4 93h508l-4 -93l-49 -8q-44 -7 -62.5 -19.5t-18.5 -38.5q0 -22 12 -61l172 -552l254 772h149l239 -771l180 551q17 51 17 72q0 24 -18 33t-69 15l-47 7l4 93h427z" />
    <glyph glyph-name="Ygrave" unicode="&#x1ef2;" horiz-adv-x="1345" 
d="M540 1899l371 -259q-25 -65 -67 -106l-402 210q34 86 98 155zM1346 1434l-4 -96l-37 -5q-24 -3 -36 -5t-28 -10.5t-25 -17.5t-27 -33.5t-33 -50.5t-44 -75l-315 -543v-367q0 -65 18.5 -87t87.5 -33l87 -14l-5 -97h-620l4 97l99 18q47 8 63 32t16 84v367l-316 543
q-29 50 -44 75.5t-32.5 50t-25.5 33.5t-22 17.5t-24 10.5t-30 5l-28 5l-4 96h574l-4 -96l-52 -6q-89 -10 -89 -64q0 -36 34 -94l241 -413l233 413q37 65 37 97q0 27 -22.5 41t-71.5 19l-62 7l4 96h503z" />
    <glyph glyph-name="ygrave" unicode="&#x1ef3;" horiz-adv-x="1155" 
d="M427 1557l370 -259q-25 -65 -66 -105l-403 209q33 84 99 155zM1152 1051l-4 -93l-27 -6q-50 -11 -70.5 -32t-48.5 -89l-348 -854q-99 -243 -201 -335.5t-275 -92.5q-36 0 -79 10q-27 45 -27 93t28.5 76.5t77.5 28.5q26 0 63.5 -11t58.5 -11q63 0 101.5 42t86.5 164l19 48
q-35 34 -70 122l-281 720q-29 74 -46 94t-56 26l-39 7l-4 93h519l-4 -93l-49 -8q-44 -7 -63 -20.5t-19 -39.5q0 -24 13 -59l214 -569l216 569q17 45 17 66q0 25 -19.5 36.5t-67.5 17.5l-47 7l4 93h427z" />
    <glyph glyph-name="enspace" unicode="&#x2002;" 
 />
    <glyph glyph-name="uni2003" unicode="&#x2003;" horiz-adv-x="2048" 
 />
    <glyph glyph-name="uni2004" unicode="&#x2004;" horiz-adv-x="681" 
 />
    <glyph glyph-name="uni2005" unicode="&#x2005;" horiz-adv-x="512" 
 />
    <glyph glyph-name="uni2006" unicode="&#x2006;" horiz-adv-x="339" 
 />
    <glyph glyph-name="uni2007" unicode="&#x2007;" horiz-adv-x="1155" 
 />
    <glyph glyph-name="uni2008" unicode="&#x2008;" horiz-adv-x="577" 
 />
    <glyph glyph-name="uni2009" unicode="&#x2009;" horiz-adv-x="256" 
 />
    <glyph glyph-name="uni200A" unicode="&#x200a;" horiz-adv-x="153" 
 />
    <glyph glyph-name="zerowidthspace" unicode="&#x200b;" horiz-adv-x="0" 
 />
    <glyph glyph-name="endash" unicode="&#x2013;" horiz-adv-x="1290" 
d="M1157 485h-1024v153h1024v-153z" />
    <glyph glyph-name="emdash" unicode="&#x2014;" horiz-adv-x="2314" 
d="M2181 485h-2048v153h2048v-153z" />
    <glyph glyph-name="quoteleft" unicode="&#x2018;" horiz-adv-x="507" 
d="M278 1291q54 -11 87 -53t33 -100q0 -68 -44 -111.5t-112 -43.5q-76 0 -116 50.5t-40 145.5q0 141 85 256t207 138q35 -19 47 -67q-137 -62 -147 -215z" />
    <glyph glyph-name="quoteright" unicode="&#x2019;" horiz-adv-x="512" 
d="M275 1549q76 0 116 -50.5t40 -145.5q0 -141 -85.5 -256.5t-206.5 -138.5q-35 19 -47 68q137 62 147 215q-54 11 -87 52.5t-33 99.5q0 68 44 112t112 44z" />
    <glyph glyph-name="quotesinglbase" unicode="&#x201a;" horiz-adv-x="509" 
d="M252 286q76 0 116 -50.5t40 -145.5q0 -141 -85.5 -256.5t-206.5 -138.5q-35 19 -47 67q137 62 147 215q-54 11 -87 53t-33 100q0 68 44 112t112 44z" />
    <glyph glyph-name="quotedblleft" unicode="&#x201c;" horiz-adv-x="944" 
d="M425 1506q-137 -62 -147 -215q54 -11 87 -53t33 -100q0 -68 -44 -111.5t-112 -43.5q-76 0 -116 50.5t-40 145.5q0 141 85 256t207 138q35 -19 47 -67zM714 1291q54 -11 87 -53t33 -100q0 -68 -44 -111.5t-112 -43.5q-76 0 -116 50.5t-40 145.5q0 141 85.5 256t207.5 138
q34 -19 46 -67q-137 -62 -147 -215z" />
    <glyph glyph-name="quotedblright" unicode="&#x201d;" horiz-adv-x="948" 
d="M275 1549q76 0 116 -50.5t40 -145.5q0 -141 -85.5 -256.5t-206.5 -138.5q-35 19 -47 68q137 62 147 215q-54 11 -87 52.5t-33 99.5q0 68 44 112t112 44zM712 1549q76 0 116 -50.5t40 -145.5q0 -141 -85.5 -256.5t-207.5 -138.5q-34 18 -46 68q137 62 147 215
q-54 11 -87 52.5t-33 99.5q0 68 44 112t112 44z" />
    <glyph glyph-name="quotedblbase" unicode="&#x201e;" horiz-adv-x="946" 
d="M252 286q76 0 116 -50.5t40 -145.5q0 -141 -85.5 -256.5t-206.5 -138.5q-35 19 -47 67q137 62 147 215q-54 11 -87 53t-33 100q0 68 44 112t112 44zM689 286q76 0 115.5 -50.5t39.5 -145.5q0 -141 -85.5 -256.5t-206.5 -138.5q-34 19 -46 67q136 61 146 215
q-54 11 -86.5 53t-32.5 100q0 68 44 112t112 44z" />
    <glyph glyph-name="dagger" unicode="&#x2020;" horiz-adv-x="1019" 
d="M963 979v-186l-80 -4l-17 10q-29 18 -79 18h-185v-615q0 -278 -34 -560h-116q-34 282 -34 560v615h-185q-51 0 -79 -18l-17 -10l-80 4v186l80 4l17 -10q30 -19 79 -19h185v320q0 30 -6.5 43.5t-24.5 23.5l-24 13l5 80h285l4 -80l-24 -13q-18 -10 -24.5 -23.5t-6.5 -43.5
v-320h185q49 0 79 19l17 10z" />
    <glyph glyph-name="daggerdbl" unicode="&#x2021;" horiz-adv-x="1124" 
d="M654 817v-559h184q52 0 80 18l16 10l80 -4v-186l-80 -4l-16 11q-28 18 -80 18h-184v-319q0 -30 6.5 -44t24.5 -24l23 -12l-4 -80h-285l-4 80l23 12q18 10 25 24t7 44v319h-185q-51 0 -80 -18l-16 -11l-80 4v186l80 4l16 -10q29 -18 80 -18h185v559h-185q-51 0 -80 -18
l-16 -10l-80 4v186l80 4l16 -10q30 -19 80 -19h185v320q0 30 -6.5 43.5t-25.5 23.5l-23 13l4 80h285l4 -80l-23 -13q-18 -10 -24.5 -23.5t-6.5 -43.5v-320h184q50 0 80 19l16 10l80 -4v-186l-80 -4l-16 10q-29 18 -80 18h-184z" />
    <glyph glyph-name="bullet" unicode="&#x2022;" horiz-adv-x="874" 
d="M137 680q0 129 86 214.5t215 85.5t214.5 -85.5t85.5 -214.5t-85.5 -214.5t-214.5 -85.5t-215 85.5t-86 214.5z" />
    <glyph glyph-name="ellipsis" unicode="&#x2026;" horiz-adv-x="1490" 
d="M96 130q0 68 44 112t112 44t112 -44t44 -112t-44 -112t-112 -44t-112 44t-44 112zM589 130q0 68 44 112t112 44t112 -44t44 -112t-44 -112t-112 -44t-112 44t-44 112zM1083 130q0 68 44 112t112 44t112 -44t44 -112t-44 -112t-112 -44t-112 44t-44 112z" />
    <glyph glyph-name="perthousand" unicode="&#x2030;" horiz-adv-x="2705" 
d="M479 -102h-161l1063 1638h161zM62 1071q0 182 99.5 280.5t258.5 98.5q178 0 268 -95.5t90 -283.5q0 -179 -98 -280t-260 -101q-171 0 -264.5 99.5t-93.5 281.5zM258 1071q0 -128 43.5 -198.5t118.5 -70.5t118.5 70.5t43.5 198.5q0 267 -162 267t-162 -267zM1081 364
q0 181 100 280t259 99q178 0 268 -95.5t90 -283.5q0 -178 -98 -279t-260 -101q-172 0 -265.5 99t-93.5 281zM1927 364q0 182 99.5 280.5t258.5 98.5q178 0 268 -95.5t90 -283.5q0 -178 -98 -279t-260 -101q-172 0 -265 99t-93 281zM1278 364q0 -128 43.5 -198.5t118.5 -70.5
t118 70.5t43 198.5q0 267 -161 267q-162 0 -162 -267zM2123 364q0 -128 43.5 -198.5t118.5 -70.5t118.5 70.5t43.5 198.5q0 267 -162 267t-162 -267z" />
    <glyph glyph-name="guilsinglleft" unicode="&#x2039;" horiz-adv-x="649" 
d="M555 875l-244 -340q146 -221 244 -359l-99 -72q-107 56 -385 422q278 366 385 422z" />
    <glyph glyph-name="guilsinglright" unicode="&#x203a;" horiz-adv-x="649" 
d="M94 875l100 73q107 -56 385 -422q-278 -366 -385 -422l-100 72l245 340q-134 203 -245 359z" />
    <glyph glyph-name="fraction" unicode="&#x2044;" horiz-adv-x="428" 
d="M-237 -102h-161l1063 1638h161z" />
    <glyph glyph-name="Euro" unicode="&#x20ac;" horiz-adv-x="1458" 
d="M1344 400v-328q-207 -105 -444 -105q-278 0 -443.5 146.5t-206.5 417.5h-182v117h171q-2 46 -2 69t2 69h-171v116h185q49 264 225.5 414t421.5 150q107 0 235.5 -24.5t195.5 -24.5q4 -72 4 -185q0 -112 -4 -173l-141 -9q-17 146 -84.5 214t-200.5 68q-155 0 -254 -111
t-129 -319h425v-116h-436q-1 -22 -1 -69t1 -69h436v-117h-425q30 -204 127.5 -317t255.5 -113q143 0 214.5 73.5t88.5 234.5z" />
    <glyph glyph-name="uni2113" unicode="&#x2113;" horiz-adv-x="843" 
d="M560 131q94 0 174 53l17 -106q-140 -103 -290 -103q-141 0 -209.5 63t-68.5 194v204q-11 -6 -24 -12t-29.5 -14t-25.5 -12l-32 107q31 16 111 62v451q0 258 81.5 373.5t259.5 115.5q130 0 201.5 -82.5t71.5 -232.5q0 -355 -377 -617v-304q0 -73 34 -106.5t106 -33.5z
M420 1107v-369q97 93 139.5 200t42.5 247q0 182 -86 182q-52 0 -74 -59.5t-22 -200.5z" />
    <glyph glyph-name="uni2116" unicode="&#x2116;" horiz-adv-x="2340" 
d="M1920 729q-169 0 -262.5 95t-93.5 267q0 173 99.5 267t256.5 94q176 0 266 -91.5t90 -269.5q0 -169 -98 -265.5t-258 -96.5zM986 1434h477l-4 -96l-79 -12q-46 -7 -62.5 -28t-16.5 -70v-1228h-235l-516 862q-94 157 -151 316q11 -143 11 -258v-715q0 -53 18 -69.5
t87 -29.5l57 -10l-4 -96h-474l5 96l68 13q47 9 63.5 28.5t16.5 67.5v1023q0 53 -18.5 70.5t-87.5 31.5l-42 8l-5 96h397l516 -863q88 -148 138 -282q-7 111 -7 224v715q0 53 -18.5 70.5t-87.5 31.5l-42 8zM1920 1356q-76 0 -112.5 -64.5t-36.5 -200.5q0 -128 39 -197
t110 -69t110 69t39 197q0 136 -36.5 200.5t-112.5 64.5zM1600 595h640v-105h-640v105z" />
    <glyph glyph-name="uni2117" unicode="&#x2117;" horiz-adv-x="1724" 
d="M862 1487q220 0 396 -99t275 -275t99 -396q0 -218 -103.5 -395.5t-279.5 -276t-387 -98.5t-387 98.5t-279.5 276t-103.5 395.5t103.5 395.5t279.5 276t387 98.5zM862 76q173 0 316.5 82t227 229.5t83.5 329.5t-83.5 329.5t-227 229.5t-316.5 82t-316.5 -82t-227 -229.5
t-83.5 -329.5t83.5 -329.5t227 -229.5t316.5 -82zM880 1061q154 0 225.5 -52t71.5 -163q0 -101 -81 -158.5t-224 -57.5q-14 0 -60 4v-132q0 -30 8 -40t37 -14l48 -8l-2 -63h-334l2 63l28 6q23 5 30 13.5t7 33.5v448q0 26 -7.5 34.5t-36.5 14.5l-21 4l-2 63h72q47 0 121.5 2
t117.5 2zM870 711q61 0 93.5 34.5t32.5 100.5q0 72 -28.5 104.5t-90.5 32.5q-27 0 -67 -4v-265q36 -3 60 -3z" />
    <glyph glyph-name="trademark" unicode="&#x2122;" horiz-adv-x="1898" 
d="M99 1434h639q14 -97 14 -194l-103 -5q-8 75 -25.5 96.5t-70.5 21.5h-45v-482q0 -31 8 -41.5t37 -14.5l40 -6l-3 -64h-343l2 64l43 7q22 4 29.5 15t7.5 40v482h-46q-52 0 -69.5 -21.5t-25.5 -96.5l-103 5q0 97 14 194zM1790 809l-2 -64h-308l2 64l27 6q21 5 27.5 14
t5.5 33l-17 237q-6 83 -8 174q-29 -100 -71 -210l-119 -318h-152l-108 311q-43 124 -64 216q-3 -111 -11 -186l-21 -224q0 -3 -0.5 -7t-0.5 -6q0 -18 8.5 -25t31.5 -11l26 -4l-2 -64h-238l2 64l27 6q22 5 28.5 12.5t8.5 34.5l43 455v12q0 17 -8.5 24t-36.5 13l-19 4l-2 64
h279l167 -507l178 507h288l-2 -64l-32 -4q-23 -3 -31 -13.5t-6 -35.5l39 -454q2 -29 9.5 -37.5t35.5 -12.5z" />
    <glyph glyph-name="Ohm" unicode="&#x2126;" horiz-adv-x="1628" 
d="M1413 324l125 -10q0 -142 -26 -314h-622v154q136 39 218 216t82 433q0 254 -93 391.5t-283 137.5t-283 -137.5t-93 -391.5q0 -256 82 -433t218 -216v-154h-622q-26 172 -26 314l124 10q17 -107 60.5 -144.5t149.5 -37.5h139q-177 76 -287 256.5t-110 404.5q0 307 173 485
t475 178q316 0 482 -176t166 -487q0 -220 -114.5 -402t-288.5 -259h144q106 0 149.5 37.5t60.5 144.5z" />
    <glyph glyph-name="estimated" unicode="&#x212e;" horiz-adv-x="1574" 
d="M385 653v-327q73 -113 183.5 -173.5t230.5 -60.5q85 0 159 22.5t126.5 61t89.5 82.5t61 94h187q-35 -74 -89.5 -139.5t-130.5 -122t-180 -90t-223 -33.5q-155 0 -287.5 59t-223.5 160.5t-142 239t-51 291.5q0 160 55 300t149.5 238t224 154.5t275.5 56.5q166 0 300 -56
t222 -156t135.5 -237t47.5 -300q0 -44 -2 -64h-1117zM799 1341q-128 0 -236 -54.5t-178 -161.5v-334h836v321q-70 114 -180 171.5t-242 57.5z" />
    <glyph glyph-name="uni2153" unicode="&#x2153;" horiz-adv-x="1724" 
d="M1398 1536l-1063 -1638h-161l1063 1638h161zM74 658l63 9q42 6 59 18.5t17 40.5v563q-69 -25 -123 -34l-30 -5l-12 73l242 119h117v-716q0 -31 15 -41.5t64 -18.5l51 -8l-2 -76h-463zM1453 452q204 -37 204 -212q0 -120 -90 -187t-253 -67q-151 0 -257 54q-5 18 -5 39
q0 83 73 83q26 0 48.5 -13t37 -28.5t41.5 -28.5t61 -13q64 0 101.5 43.5t37.5 116.5q0 77 -54.5 114t-168.5 37q-32 0 -66 -6l-7 102q137 0 202 37t65 114q0 121 -136 121q-93 0 -179 -66l-28 104q104 74 270 74q134 0 206 -54t72 -155q0 -78 -46 -132.5t-129 -76.5z" />
    <glyph glyph-name="uni2154" unicode="&#x2154;" horiz-adv-x="1843" 
d="M1518 1536l-1063 -1638h-161l1063 1638h161zM626 582h-566v100q344 284 344 504q0 74 -32 108t-101 34q-46 0 -94.5 -21t-85.5 -57l-29 117q45 39 120 62t155 23q134 0 203 -62t69 -183q0 -267 -346 -502q86 9 181 9h182v-132zM1573 452q204 -37 204 -212
q0 -120 -90 -187t-253 -67q-151 0 -257 54q-5 18 -5 39q0 83 73 83q26 0 48 -13t36.5 -28.5t41.5 -28.5t61 -13q64 0 102 43.5t38 116.5q0 77 -54.5 114t-168.5 37q-32 0 -66 -6l-7 102q137 0 202 37t65 114q0 121 -136 121q-93 0 -179 -66l-28 104q104 74 270 74
q134 0 206 -54t72 -155q0 -78 -46 -132.5t-129 -76.5z" />
    <glyph glyph-name="uni2155" unicode="&#x2155;" horiz-adv-x="1724" 
d="M1398 1536l-1063 -1638h-161l1063 1638h161zM74 658l63 9q42 6 59 18.5t17 40.5v563q-69 -25 -123 -34l-30 -5l-12 73l242 119h117v-716q0 -31 15 -41.5t64 -18.5l51 -8l-2 -76h-463zM1395 526q121 0 193.5 -73.5t72.5 -196.5q0 -132 -88 -201t-252 -69q-152 0 -258 54
q-5 18 -5 39q0 83 73 83q26 0 48.5 -13t37 -28.5t41.5 -28.5t61 -13q65 0 102.5 46.5t37.5 130.5q0 70 -38.5 109.5t-105.5 39.5q-73 0 -123 -57l-104 29l49 475h504v-144h-394l-28 -247q65 65 176 65z" />
    <glyph glyph-name="uni2156" unicode="&#x2156;" horiz-adv-x="1845" 
d="M1518 1536l-1063 -1638h-161l1063 1638h161zM626 582h-566v100q344 284 344 504q0 74 -32 108t-101 34q-46 0 -94.5 -21t-85.5 -57l-29 117q45 39 120 62t155 23q134 0 203 -62t69 -183q0 -267 -346 -502q86 9 181 9h182v-132zM1515 526q121 0 193 -73t72 -197
q0 -132 -87.5 -201t-251.5 -69q-152 0 -258 54q-5 18 -5 39q0 83 73 83q26 0 48.5 -13t37 -28.5t41.5 -28.5t61 -13q65 0 102 46.5t37 130.5q0 70 -38 109.5t-105 39.5q-73 0 -123 -57l-104 29l48 475h505v-144h-394l-28 -247q65 65 176 65z" />
    <glyph glyph-name="uni2157" unicode="&#x2157;" horiz-adv-x="1878" 
d="M1550 1536l-1063 -1638h-160l1063 1638h160zM658 822q0 -120 -90.5 -187.5t-252.5 -67.5q-150 0 -258 55q-5 18 -5 38q0 84 73 84q26 0 48.5 -13t37 -29t41.5 -29t61 -13q64 0 101.5 43.5t37.5 117.5q0 77 -54.5 114t-168.5 37q-32 0 -66 -6l-7 102q137 0 202 36.5
t65 113.5q0 121 -136 121q-92 0 -178 -66l-29 105q104 74 271 74q134 0 206 -54.5t72 -155.5q0 -78 -46 -132t-129 -76q204 -37 204 -212zM1548 526q121 0 193 -73t72 -197q0 -132 -87.5 -201t-251.5 -69q-152 0 -258 54q-5 18 -5 39q0 83 73 83q26 0 48.5 -13t37 -28.5
t41.5 -28.5t61 -13q65 0 102 46.5t37 130.5q0 70 -38 109.5t-105 39.5q-73 0 -123 -57l-105 29l49 475h505v-144h-394l-28 -247q65 65 176 65z" />
    <glyph glyph-name="uni2158" unicode="&#x2158;" horiz-adv-x="1914" 
d="M1587 1536l-1063 -1638h-161l1063 1638h161zM420 797h-386v80l395 558h176v-523h99v-115h-99v-215h-185v215zM430 912v334l-242 -334h242zM1584 526q121 0 193.5 -73.5t72.5 -196.5q0 -132 -88 -201t-252 -69q-151 0 -257 54q-5 18 -5 39q0 83 72 83q26 0 48.5 -13
t37 -28.5t41.5 -28.5t61 -13q65 0 102.5 46.5t37.5 130.5q0 70 -38 109.5t-105 39.5q-74 0 -124 -57l-104 29l49 475h505v-144h-394l-28 -247q65 65 175 65z" />
    <glyph glyph-name="uni2159" unicode="&#x2159;" horiz-adv-x="1765" 
d="M1398 1536l-1063 -1638h-161l1063 1638h161zM74 658l63 9q42 6 59 18.5t17 40.5v563q-69 -25 -123 -34l-30 -5l-12 73l242 119h117v-716q0 -31 15 -41.5t64 -18.5l51 -8l-2 -76h-463zM1459 539q116 0 182 -72t66 -199q0 -129 -87 -205.5t-233 -76.5q-163 0 -241.5 99
t-78.5 302q0 231 109 357t311 126q114 0 196 -35l-19 -105q-77 34 -158 34q-125 0 -191.5 -91.5t-67.5 -267.5q25 63 80.5 98.5t131.5 35.5zM1391 87q57 0 91.5 45t34.5 123q0 79 -29.5 123t-86.5 44t-94 -45.5t-37 -121.5q0 -79 32 -123.5t89 -44.5z" />
    <glyph glyph-name="uni215A" unicode="&#x215a;" horiz-adv-x="1921" 
d="M1551 1536l-1063 -1638h-160l1063 1638h160zM661 838q0 -132 -88 -201.5t-252 -69.5q-149 0 -257 55q-5 18 -5 38q0 84 72 84q26 0 48.5 -13t37 -29t41.5 -29t61 -13q65 0 102.5 46.5t37.5 130.5q0 70 -38 109.5t-105 39.5q-74 0 -124 -57l-104 30l49 475h504v-144h-393
l-28 -247q64 64 175 64q121 0 193.5 -73t72.5 -196zM1613 539q116 0 181.5 -72t65.5 -199q0 -129 -86.5 -205.5t-232.5 -76.5q-163 0 -241.5 99t-78.5 302q0 231 109 357t311 126q113 0 195 -35l-18 -105q-77 34 -158 34q-125 0 -191.5 -91.5t-67.5 -267.5q25 63 80.5 98.5
t131.5 35.5zM1545 87q57 0 91.5 45t34.5 123q0 79 -29.5 123t-86.5 44t-94 -45.5t-37 -121.5q0 -79 32 -123.5t89 -44.5z" />
    <glyph glyph-name="oneeighth" unicode="&#x215b;" horiz-adv-x="1757" 
d="M1398 1536l-1063 -1638h-161l1063 1638h161zM74 658l63 9q42 6 59 18.5t17 40.5v563q-69 -25 -123 -34l-30 -5l-12 73l242 119h117v-716q0 -31 15 -41.5t64 -18.5l51 -8l-2 -76h-463zM1504 483q88 -43 138 -96.5t50 -141.5q0 -115 -89.5 -187t-232.5 -72
q-144 0 -223.5 60t-79.5 171q0 72 43.5 128t122.5 88q-67 38 -105 87t-38 124q0 104 80 165t216 61q131 0 204 -52t73 -146q0 -65 -41.5 -114t-117.5 -75zM1389 781q-52 0 -81.5 -28.5t-29.5 -78.5q0 -49 34 -81.5t99 -64.5q90 50 90 143q0 53 -28.5 81.5t-83.5 28.5z
M1367 75q66 0 101 33t35 95q0 34 -13 62t-41 50t-53.5 36.5t-67.5 34.5q-99 -58 -99 -169q0 -65 37 -103.5t101 -38.5z" />
    <glyph glyph-name="threeeighths" unicode="&#x215c;" horiz-adv-x="1908" 
d="M1550 1536l-1063 -1638h-160l1063 1638h160zM658 822q0 -120 -90.5 -187.5t-252.5 -67.5q-150 0 -258 55q-5 18 -5 38q0 84 73 84q26 0 48.5 -13t37 -29t41.5 -29t61 -13q64 0 101.5 43.5t37.5 117.5q0 77 -54.5 114t-168.5 37q-32 0 -66 -6l-7 102q137 0 202 36.5
t65 113.5q0 121 -136 121q-92 0 -178 -66l-29 105q104 74 271 74q134 0 206 -54.5t72 -155.5q0 -78 -46 -132t-129 -76q204 -37 204 -212zM1657 483q88 -43 137.5 -96.5t49.5 -141.5q0 -115 -89.5 -187t-232.5 -72q-144 0 -223.5 60t-79.5 171q0 71 44 127.5t123 88.5
q-68 38 -106 87t-38 124q0 104 80 165t216 61q131 0 204 -52t73 -146q0 -66 -41 -114.5t-117 -74.5zM1541 781q-52 0 -81 -28.5t-29 -78.5q0 -49 34 -81.5t98 -64.5q90 50 90 143q0 53 -28.5 81.5t-83.5 28.5zM1519 75q66 0 101 33t35 95q0 34 -13 62t-40.5 50t-53 36.5
t-67.5 34.5q-100 -58 -100 -169q0 -65 37 -103.5t101 -38.5z" />
    <glyph glyph-name="fiveeighths" unicode="&#x215d;" horiz-adv-x="1910" 
d="M1551 1536l-1063 -1638h-160l1063 1638h160zM661 838q0 -132 -88 -201.5t-252 -69.5q-149 0 -257 55q-5 18 -5 38q0 84 72 84q26 0 48.5 -13t37 -29t41.5 -29t61 -13q65 0 102.5 46.5t37.5 130.5q0 70 -38 109.5t-105 39.5q-74 0 -124 -57l-104 30l49 475h504v-144h-393
l-28 -247q64 64 175 64q121 0 193.5 -73t72.5 -196zM1658 483q88 -43 137.5 -96.5t49.5 -141.5q0 -115 -89.5 -187t-232.5 -72q-144 0 -223.5 60t-79.5 171q0 71 44 127.5t123 88.5q-67 38 -105 87t-38 124q0 104 79.5 165t215.5 61q131 0 204 -52t73 -146q0 -66 -41 -114.5
t-117 -74.5zM1543 781q-52 0 -81.5 -28.5t-29.5 -78.5q0 -49 34 -81.5t98 -64.5q91 51 91 143q0 53 -28.5 81.5t-83.5 28.5zM1520 75q66 0 101 33t35 95q0 34 -13 62t-40.5 50t-53 36.5t-67.5 34.5q-99 -58 -99 -169q0 -65 36.5 -103.5t100.5 -38.5z" />
    <glyph glyph-name="seveneighths" unicode="&#x215e;" horiz-adv-x="1779" 
d="M1422 1536l-1063 -1638h-161l1063 1638h161zM326 577q-38 -8 -76 -8q-105 0 -105 90q0 64 68 220q89 204 251 414h-421v141h584l5 -92l-73 -139q-141 -269 -196 -473q-23 -84 -37 -153zM1529 483q88 -43 137.5 -96.5t49.5 -141.5q0 -115 -89.5 -187t-232.5 -72
q-144 0 -223.5 60t-79.5 171q0 72 43.5 128t122.5 88q-67 38 -105 87t-38 124q0 104 80 165t216 61q131 0 204 -52t73 -146q0 -66 -41 -114.5t-117 -74.5zM1413 781q-52 0 -81 -28.5t-29 -78.5q0 -49 34 -81.5t98 -64.5q90 50 90 143q0 53 -28.5 81.5t-83.5 28.5zM1391 75
q66 0 101 33t35 95q0 34 -13 62t-41 50t-53.5 36.5t-67.5 34.5q-99 -58 -99 -169q0 -65 37 -103.5t101 -38.5z" />
    <glyph glyph-name="onefraction" unicode="&#x215f;" horiz-adv-x="999" 
d="M1398 1536l-1063 -1638h-161l1063 1638h161zM74 658l63 9q42 6 59 18.5t17 40.5v563q-69 -25 -123 -34l-30 -5l-12 73l242 119h117v-716q0 -31 15 -41.5t64 -18.5l51 -8l-2 -76h-463z" />
    <glyph glyph-name="arrowleft" unicode="&#x2190;" horiz-adv-x="1646" 
d="M1543 455h-974q-94 0 -209 9q66 -62 156 -178l254 -328l-94 -54l-629 628l629 629l94 -54l-254 -328q-90 -116 -156 -178q115 9 209 9h974v-155z" />
    <glyph glyph-name="arrowup" unicode="&#x2191;" horiz-adv-x="1646" 
d="M1452 680l-54 -95l-328 255q-120 93 -178 155q8 -102 8 -208v-974h-154v974q0 93 9 208q-58 -62 -178 -155l-328 -255l-54 95l628 628z" />
    <glyph glyph-name="arrowright" unicode="&#x2192;" horiz-adv-x="1646" 
d="M1599 532l-628 -628l-95 54l255 328q93 120 155 178q-115 -9 -208 -9h-974v155h974q93 0 208 -9q-62 58 -155 178l-255 328l95 54z" />
    <glyph glyph-name="arrowdown" unicode="&#x2193;" horiz-adv-x="1646" 
d="M1452 385l-629 -628l-628 628l54 95l328 -255q120 -93 178 -155q-9 115 -9 208v974h154v-974q0 -106 -8 -208q58 62 178 155l328 255z" />
    <glyph glyph-name="uni2196" unicode="&#x2196;" horiz-adv-x="1646" 
d="M1386 79l-109 -109l-689 689q-69 69 -141 153v-29q0 -78 -16 -206l-52 -413l-105 29v889h889l29 -105l-413 -52q-128 -16 -206 -16h-29q77 -66 153 -142z" />
    <glyph glyph-name="uni2197" unicode="&#x2197;" horiz-adv-x="1646" 
d="M1373 1082v-889l-105 -29l-52 412q-17 136 -17 207q0 5 0.5 14.5t0.5 14.5q-66 -77 -142 -153l-688 -689l-109 109l688 688q70 70 154 142h-29q-79 0 -207 16l-412 52l29 105h889z" />
    <glyph glyph-name="uni2198" unicode="&#x2198;" horiz-adv-x="1646" 
d="M1373 872v-889h-889l-29 105l412 52q128 16 207 16h29q-91 78 -154 141l-688 689l109 109l688 -689q76 -76 142 -153q0 5 -0.5 14.5t-0.5 14.5q0 70 17 206l52 413z" />
    <glyph glyph-name="uni2199" unicode="&#x2199;" horiz-adv-x="1646" 
d="M573 156q78 0 206 -16l412 -52l-28 -105h-889v889l105 29l52 -413q16 -128 16 -206v-29q72 84 141 153l689 689l109 -109l-689 -689q-69 -69 -153 -141h29z" />
    <glyph glyph-name="partialdiff" unicode="&#x2202;" horiz-adv-x="1196" 
d="M464 1451q308 0 473 -174t165 -499q0 -230 -70 -413t-195.5 -285.5t-283.5 -102.5q-225 0 -349.5 118.5t-124.5 332.5q0 225 122 361.5t322 136.5q150 0 240 -76t115 -223h2q6 66 6 169q0 227 -121 368t-317 141q-78 0 -141 -17l-9 142q66 21 166 21zM543 126
q109 0 178 96.5t69 248.5q0 138 -62.5 221.5t-166.5 83.5q-109 0 -170 -94.5t-61 -262.5q0 -138 56.5 -215.5t156.5 -77.5z" />
    <glyph glyph-name="increment" unicode="&#x2206;" horiz-adv-x="1462" 
d="M1412 0h-1361l598 1438h165zM687 1109l-405 -976h810z" />
    <glyph glyph-name="product" unicode="&#x220f;" horiz-adv-x="1552" 
d="M1310 1228v-1381q0 -53 18 -69.5t88 -29.5l56 -11l-4 -95h-558l4 95l69 14q46 9 61.5 28.5t15.5 67.5v1454h-573v-1454q0 -53 18 -70t86 -29l57 -11l-5 -95h-558l4 95l69 14q47 9 63 28.5t16 67.5v1381q0 53 -18 71t-87 31l-43 8l-4 96h1387l-4 -96l-79 -12
q-46 -7 -62.5 -28t-16.5 -70z" />
    <glyph glyph-name="summation" unicode="&#x2211;" horiz-adv-x="1280" 
d="M307 -190h516q58 0 92 9.5t57.5 40t34.5 77t20 129.5l151 -9q0 -221 -27 -415h-1082l-4 99l472 770l-472 824l4 99h1082q27 -194 27 -373l-151 -9q-9 83 -20 130t-34.5 77t-57.5 40t-92 10h-458l419 -721z" />
    <glyph glyph-name="minus" unicode="&#x2212;" horiz-adv-x="1193" 
d="M1061 489h-928v145h928v-145z" />
    <glyph glyph-name="radical" unicode="&#x221a;" horiz-adv-x="1247" 
d="M1235 1495l-536 -1500h-205l-275 834q-21 63 -44.5 87.5t-70.5 31.5l-59 10l-4 93h360l246 -771l418 1215h170z" />
    <glyph glyph-name="infinity" unicode="&#x221e;" horiz-adv-x="1947" 
d="M1489 965q166 0 267 -87.5t101 -231.5q0 -149 -121 -247t-307 -98q-129 0 -231.5 43.5t-265.5 169.5q-150 -113 -259 -163t-215 -50q-166 0 -267 87.5t-101 231.5q0 149 121 247t307 98q129 0 231.5 -43.5t265.5 -169.5q150 113 259 163t215 50zM1464 476q85 0 139 47
t54 122q0 83 -53.5 133t-143.5 50q-65 0 -140.5 -36t-194.5 -127q146 -115 213 -152t126 -37zM290 621q0 -83 53.5 -133t143.5 -50q65 0 140.5 36t194.5 127q-146 115 -213 152t-126 37q-85 0 -139 -47t-54 -122z" />
    <glyph glyph-name="integral" unicode="&#x222b;" horiz-adv-x="761" 
d="M547 43q0 -209 -76 -317.5t-224 -108.5q-109 0 -208 50q-8 29 -8 52q0 46 23 70.5t66 24.5q28 0 48.5 -13.5t30.5 -29t24.5 -29t32.5 -13.5q36 0 52 60.5t16 189.5q0 133 -27.5 319t-55 382t-27.5 352q0 209 76.5 317.5t224.5 108.5q108 0 207 -50q8 -29 8 -52
q0 -46 -23 -70.5t-66 -24.5q-28 0 -48.5 13.5t-30.5 29t-24.5 29t-32.5 13.5q-36 0 -52 -60.5t-16 -189.5q0 -133 27.5 -319t55 -382t27.5 -352z" />
    <glyph glyph-name="approxequal" unicode="&#x2248;" horiz-adv-x="1218" 
d="M842 760q70 0 119.5 23t96.5 78l39 -108q-104 -139 -270 -139q-93 0 -173 21t-146.5 42t-126.5 21q-70 0 -120 -23t-97 -78l-38 107q105 140 269 140q93 0 173 -21t147 -42t127 -21zM842 453q70 0 119.5 23t96.5 78l39 -108q-104 -139 -270 -139q-93 0 -173 21t-146.5 42
t-126.5 21q-70 0 -120 -23t-97 -78l-38 108q104 139 269 139q93 0 173 -21t147 -42t127 -21z" />
    <glyph glyph-name="notequal" unicode="&#x2260;" horiz-adv-x="1185" 
d="M692 653l-60 -168h447v-143h-497l-91 -257l-123 42l76 215h-336v143h387l59 168h-446v144h497l91 256l123 -41l-76 -215h336v-144h-387z" />
    <glyph glyph-name="lessequal" unicode="&#x2264;" horiz-adv-x="1005" 
d="M879 966l-539 -242l539 -242v-178l-768 364v105l768 363v-170zM111 187h768v-143h-768v143z" />
    <glyph glyph-name="greaterequal" unicode="&#x2265;" horiz-adv-x="1005" 
d="M896 773v-105l-769 -364v170l539 242l-539 242v178zM127 187h769v-143h-769v143z" />
    <glyph glyph-name="filledbox" unicode="&#x25a0;" horiz-adv-x="1843" 
d="M1638 0h-1433v1434h1433v-1434z" />
    <glyph glyph-name="whiteSquare" unicode="&#x25a1;" horiz-adv-x="1843" 
d="M1638 0h-1433v1434h1433v-1434zM1474 165v1104h-1104v-1104h1104z" />
    <glyph glyph-name="triagup" unicode="&#x25b2;" horiz-adv-x="1372" 
d="M1229 236h-1086l543 1095z" />
    <glyph glyph-name="whiteuppointingtriangle" unicode="&#x25b3;" horiz-adv-x="1372" 
d="M1229 236h-1086l543 1095zM686 990l-288 -600h576z" />
    <glyph glyph-name="blackuppointingsmalltriangle" unicode="&#x25b4;" horiz-adv-x="958" 
d="M887 369h-815l407 821z" />
    <glyph glyph-name="whiteuppointingsmalltriangle" unicode="&#x25b5;" horiz-adv-x="958" 
d="M887 369h-815l407 821zM656 508l-177 366l-176 -366h353z" />
    <glyph glyph-name="blackrightpointingtriangle" unicode="&#x25b6;" horiz-adv-x="1372" 
d="M205 174v1086l1095 -543z" />
    <glyph glyph-name="whiterightpointingtriangle" unicode="&#x25b7;" horiz-adv-x="1372" 
d="M205 174v1086l1095 -543zM959 717l-599 288v-576z" />
    <glyph glyph-name="uni25B8" unicode="&#x25b8;" horiz-adv-x="958" 
d="M102 309v815l822 -407z" />
    <glyph glyph-name="whiterightpointingsmalltriangle" unicode="&#x25b9;" horiz-adv-x="958" 
d="M102 309v815l822 -407zM241 541l367 176l-367 176v-352z" />
    <glyph glyph-name="triagdn" unicode="&#x25bc;" horiz-adv-x="1372" 
d="M143 1208h1086l-543 -1095z" />
    <glyph glyph-name="whitedownpointingtriangle" unicode="&#x25bd;" horiz-adv-x="1372" 
d="M143 1208h1086l-543 -1095zM686 454l288 600h-576z" />
    <glyph glyph-name="uni25BE" unicode="&#x25be;" horiz-adv-x="958" 
d="M72 1075h815l-408 -821z" />
    <glyph glyph-name="whitedownpointingsmalltriangle" unicode="&#x25bf;" horiz-adv-x="958" 
d="M72 1075h815l-408 -821zM303 936l176 -366l177 366h-353z" />
    <glyph glyph-name="blackleftpointingtriangle" unicode="&#x25c0;" horiz-adv-x="1372" 
d="M1167 1260v-1086l-1095 543z" />
    <glyph glyph-name="whiteleftpointingtriangle" unicode="&#x25c1;" horiz-adv-x="1372" 
d="M1167 1260v-1086l-1095 543zM413 717l600 -288v576z" />
    <glyph glyph-name="uni25C2" unicode="&#x25c2;" horiz-adv-x="958" 
d="M856 1124v-815l-821 408z" />
    <glyph glyph-name="whiteleftpointingsmalltriangle" unicode="&#x25c3;" horiz-adv-x="958" 
d="M856 1124v-815l-821 408zM717 893l-366 -176l366 -176v352z" />
    <glyph glyph-name="blackDiamond" unicode="&#x25c6;" horiz-adv-x="1114" 
d="M1063 717l-506 -506l-506 506l506 506z" />
    <glyph glyph-name="whiteDiamond" unicode="&#x25c7;" horiz-adv-x="1114" 
d="M1063 717l-506 -506l-506 506l506 506zM854 717l-297 296l-297 -296l297 -297z" />
    <glyph glyph-name="whitediamondcontainingblacksmalldiamond" unicode="&#x25c8;" horiz-adv-x="1114" 
d="M1063 717l-506 -506l-506 506l506 506zM864 717l-307 306l-307 -306l307 -307zM557 838l121 -121l-121 -121l-121 121z" />
    <glyph glyph-name="lozenge" unicode="&#x25ca;" horiz-adv-x="1202" 
d="M1144 717l-475 -722h-157l-454 722l475 721h157zM922 702l-324 513l-317 -483l323 -514z" />
    <glyph glyph-name="whitecircle" unicode="&#x25cb;" horiz-adv-x="1843" 
d="M102 717q0 167 65 318.5t174.5 261t261.5 174.5t319 65t318.5 -65t261 -174.5t174.5 -261t65 -318.5t-65 -318.5t-174.5 -261t-261 -174.5t-318.5 -65t-319 65t-261.5 174.5t-174.5 261t-65 318.5zM273 717q0 -176 87 -325.5t236.5 -236.5t325.5 -87q132 0 252 51.5
t206.5 138.5t138 207t51.5 252t-51.5 252t-138 207t-206.5 138.5t-252 51.5q-176 0 -325.5 -87t-236.5 -236.5t-87 -325.5z" />
    <glyph glyph-name="blackcircle" unicode="&#x25cf;" horiz-adv-x="1843" 
d="M102 717q0 167 65 318.5t174.5 261t261.5 174.5t319 65t318.5 -65t261 -174.5t174.5 -261t65 -318.5t-65 -318.5t-174.5 -261t-261 -174.5t-318.5 -65t-319 65t-261.5 174.5t-174.5 261t-65 318.5z" />
    <glyph glyph-name="uni25FB" unicode="&#x25fb;" horiz-adv-x="1314" 
d="M1130 244h-946v946h946v-946zM974 401v632h-633v-632h633z" />
    <glyph glyph-name="uni25FC" unicode="&#x25fc;" horiz-adv-x="1314" 
d="M1130 244h-946v946h946v-946z" />
    <glyph glyph-name="uni25FD" unicode="&#x25fd;" horiz-adv-x="958" 
d="M838 358h-717v717h717v-717zM689 507v419h-419v-419h419z" />
    <glyph glyph-name="uni25FE" unicode="&#x25fe;" horiz-adv-x="958" 
d="M838 358h-717v717h717v-717z" />
    <glyph glyph-name="threequartersemdash" unicode="&#xf6de;" horiz-adv-x="1802" 
d="M1669 485h-1536v153h1536v-153z" />
    <glyph glyph-name="J.titl" horiz-adv-x="1083" 
d="M1018 1338l-79 -12q-46 -7 -62.5 -28t-16.5 -70l2 -781q1 -261 -102.5 -370.5t-350.5 -109.5q-175 0 -273.5 82t-98.5 228q0 52 14 88q38 36 105 36q53 0 83 -25.5t30 -71.5q0 -11 -3.5 -34t-3.5 -40q0 -70 42 -107t121 -37q99 0 141.5 63t42.5 210v844q0 65 -18.5 86
t-87.5 31l-91 14l-5 100h615z" />
    <glyph glyph-name="IJ.titl" horiz-adv-x="1828" 
d="M655 1338l-79 -12q-46 -7 -62.5 -28t-16.5 -70v-1023q0 -53 18 -69.5t87 -29.5l57 -10l-4 -96h-561l5 96l68 13q47 9 63.5 28.5t16.5 67.5v1023q0 53 -18.5 70.5t-87.5 31.5l-42 8l-5 96h565zM1762 1338l-79 -12q-46 -7 -62.5 -28t-16.5 -70l2 -781q1 -262 -102 -371
t-350 -109q-175 0 -274 82t-99 228q0 50 15 88q38 36 105 36q53 0 82.5 -25.5t29.5 -71.5q0 -11 -3.5 -34t-3.5 -40q0 -70 42 -107t121 -37q99 0 141.5 63t42.5 210v844q0 65 -18.5 86t-86.5 31l-92 14l-4 100h614z" />
    <glyph glyph-name="Jcircumflex.titl" horiz-adv-x="1083" 
d="M709 1700l-240 -148q-42 40 -63 98l308 243l309 -243q-19 -53 -66 -98zM407 1434h615l-4 -96l-79 -12q-46 -7 -62.5 -28t-16.5 -70l2 -781q1 -261 -102.5 -370.5t-350.5 -109.5q-175 0 -273.5 82t-98.5 228q0 52 14 88q38 36 105 36q53 0 83 -25.5t30 -71.5
q0 -11 -3.5 -34t-3.5 -40q0 -70 42 -107t121 -37q99 0 141.5 63t42.5 210v844q0 65 -18.5 86t-87.5 31l-91 14z" />
    <glyph glyph-name="registered.sups" horiz-adv-x="1323" 
d="M662 1778q130 0 243 -46t193 -126t126 -193t46 -243q0 -129 -48 -243t-130 -194t-193.5 -126t-236.5 -46t-236.5 46t-193.5 126t-130 194t-48 243q0 172 81.5 312t220.5 218t306 78zM662 676q203 0 342 141t139 353t-139 352.5t-342 140.5t-342.5 -140.5t-139.5 -352.5
t139.5 -353t342.5 -141zM894 997q11 -21 17.5 -27.5t19.5 -9.5l9 -2l-2 -49q-35 -9 -89 -9q-50 0 -72.5 17t-44.5 72l-34 83q-13 34 -26.5 44.5t-40.5 10.5q-11 0 -23 -2v-127q0 -19 5 -25t23 -10l18 -4l-2 -55h-240l2 55l19 3q16 3 21 10.5t5 25.5v342q0 20 -5 26t-25 11
l-15 4l-2 53h62q39 0 96 2t91 2q118 0 172 -33t54 -105q0 -97 -114 -127q42 -13 68 -63q7 -13 24.5 -52t28.5 -61zM651 1195q40 0 62.5 22.5t22.5 65.5q0 87 -82 87q-23 0 -49 -2v-169q26 -4 46 -4z" />
    <glyph glyph-name="caron.alt" 
d="M454 1547q88 0 170 -21q-28 -205 -96 -375q-72 0 -128 23q45 215 54 373z" />
    <glyph glyph-name="acute.loclPLK" 
d="M369 1229l88 363q96 -7 198 -48l-137 -348q-80 4 -149 33z" />
    <glyph glyph-name="Cacute.loclPLK" horiz-adv-x="1320" 
d="M663 1571l87 363q96 -7 198 -48l-137 -348q-79 4 -148 33zM775 1466q113 0 248.5 -24.5t201.5 -24.5q4 -72 4 -185q0 -112 -4 -173l-141 -9q-17 146 -90.5 214t-214.5 68q-196 0 -305.5 -160.5t-109.5 -454.5q0 -285 107.5 -450.5t307.5 -165.5q151 0 228.5 74t94.5 234
l136 -9v-328q-97 -49 -219.5 -77t-243.5 -28q-331 0 -507 198t-176 552q0 173 53 315t145.5 236.5t217 146t267.5 51.5z" />
    <glyph glyph-name="cacute.loclPLK" horiz-adv-x="999" 
d="M461 1229l87 363q96 -7 198 -48l-137 -348q-79 4 -148 33zM554 -25q-219 0 -342.5 146.5t-123.5 404.5q0 131 39.5 236t109 173t161.5 104.5t200 36.5q182 0 328 -83q12 -29 12 -65q0 -52 -30.5 -83t-82.5 -31q-36 0 -62.5 14t-43.5 33.5t-34.5 39t-46 33.5t-66.5 14
q-108 0 -166 -107t-58 -315q0 -189 73 -292.5t202 -103.5q143 0 267 102l52 -115q-88 -74 -180 -108t-208 -34z" />
    <glyph glyph-name="Nacute.loclPLK" horiz-adv-x="1531" 
d="M963 1886l-136 -348q-80 4 -149 33l88 363q95 -7 197 -48zM1463 1434l-4 -96l-79 -12q-46 -7 -62.5 -28t-16.5 -70v-1228h-235l-516 862q-94 157 -151 316q11 -143 11 -258v-715q0 -53 18 -69.5t87 -29.5l57 -10l-4 -96h-474l5 96l68 13q47 9 63.5 28.5t16.5 67.5v1023
q0 53 -18.5 70.5t-87.5 31.5l-42 8l-5 96h397l516 -863q88 -148 138 -282q-7 111 -7 224v715q0 53 -18.5 70.5t-87.5 31.5l-42 8l-4 96h477z" />
    <glyph glyph-name="nacute.loclPLK" horiz-adv-x="1275" 
d="M861 1544l-137 -348q-79 4 -148 33l88 363q95 -7 197 -48zM1253 94l-4 -94h-512l4 94l50 11q40 9 52 25t12 62v515q0 214 -173 214q-148 0 -227 -145v-584q0 -52 14.5 -66.5t75.5 -23.5l54 -8l-4 -94h-511l4 94l52 11q43 10 56 27.5t13 67.5v621q0 59 -12 78t-55 28
l-54 11l-4 90l327 48q19 -76 24 -182q53 87 138.5 134.5t191.5 47.5q165 0 250.5 -88.5t85.5 -259.5v-528q0 -56 16 -72.5t80 -25.5z" />
    <glyph glyph-name="Oacute.loclPLK" horiz-adv-x="1550" 
d="M663 1571l87 363q96 -7 198 -48l-137 -348q-79 4 -148 33zM92 717q0 348 187.5 548.5t495.5 200.5q322 0 502.5 -198t180.5 -551q0 -221 -84.5 -391t-240 -264.5t-358.5 -94.5q-208 0 -363.5 94.5t-237.5 264t-82 391.5zM364 717q0 -280 112 -448t299 -168t298.5 168
t111.5 448q0 294 -107.5 454.5t-302.5 160.5t-303 -160.5t-108 -454.5z" />
    <glyph glyph-name="oacute.loclPLK" horiz-adv-x="1196" 
d="M486 1229l87 363q96 -7 198 -48l-137 -348q-79 4 -148 33zM88 526q0 131 39.5 236t109 173t161.5 104.5t200 36.5q248 0 378.5 -141t130.5 -409q0 -254 -142 -402.5t-367 -148.5q-240 0 -375 146.5t-135 404.5zM348 526q0 -199 67 -311t183 -112t183 112t67 311
q0 209 -63.5 315.5t-186.5 106.5t-186.5 -106.5t-63.5 -315.5z" />
    <glyph glyph-name="Sacute.loclPLK" horiz-adv-x="1128" 
d="M472 1571l88 363q96 -7 198 -48l-137 -348q-80 4 -149 33zM598 1466q113 0 232.5 -26.5t161.5 -26.5v-332l-136 -5q-27 140 -90 204.5t-175 64.5q-101 0 -163 -61.5t-62 -162.5q0 -71 37.5 -124t97 -87t131.5 -64.5t144 -67t131.5 -84.5t97 -127.5t37.5 -184.5
q0 -187 -140 -301t-370 -114q-120 0 -234.5 31.5t-195.5 86.5q-12 95 -12 174q0 48 5 138l141 5q18 -151 93.5 -232t199.5 -81q117 0 192 68.5t75 174.5q0 75 -37 131t-96.5 91.5t-131 67t-143 68t-131 82.5t-96.5 122t-37 176q0 175 132.5 285.5t341.5 110.5z" />
    <glyph glyph-name="sacute.loclPLK" horiz-adv-x="948" 
d="M374 1229l87 363q96 -7 198 -48l-137 -348q-79 4 -148 33zM821 768l-118 -6q-21 99 -74 153t-130 54q-71 0 -114 -39t-43 -104q0 -49 29 -86t75 -61.5t101.5 -47.5t111 -51t101.5 -63t75 -91.5t29 -130.5q0 -151 -112.5 -235.5t-311.5 -84.5q-97 0 -189.5 27t-153.5 73
q-9 58 -9 120q0 51 4 110l123 6q21 -106 83 -167t149 -61q81 0 130 42.5t49 113.5q0 49 -28.5 87t-74 64t-100.5 49.5t-110 52t-100.5 63t-74 89.5t-28.5 126q0 143 104.5 224.5t288.5 81.5q72 0 169 -25t149 -25v-258z" />
    <glyph glyph-name="Zacute.loclPLK" horiz-adv-x="1241" 
d="M806 1886l-137 -348q-79 4 -148 33l87 363q96 -7 198 -48zM1009 387l151 -9q0 -184 -27 -378h-1057l-5 102l779 1207h-399q-58 0 -92 -10t-57.5 -40t-34.5 -77t-20 -130l-150 9q0 186 26 373h1022l5 -102l-779 -1207h434q107 0 147 56t57 206z" />
    <glyph glyph-name="zacute.loclPLK" horiz-adv-x="1046" 
d="M708 1544l-136 -348q-80 4 -149 33l88 363q95 -7 197 -48zM831 314l134 -9q0 -149 -22 -305h-866l-7 97l606 846h-289q-76 0 -110 -43.5t-48 -159.5l-134 9q0 146 22 302h835l7 -97l-606 -845h321q74 0 108 47t49 158z" />
    <glyph glyph-name="Iacute_J.loclNLD" horiz-adv-x="1456" 
d="M885 1640l371 259q66 -71 99 -155l-403 -210q-42 41 -67 106zM157 1640l370 259q66 -71 99 -155l-403 -210q-41 39 -66 106zM655 1338l-79 -12q-46 -7 -62.5 -28t-16.5 -70v-1023q0 -53 18 -69.5t87 -29.5l57 -10l-4 -96h-561l5 96l68 13q47 9 63.5 28.5t16.5 67.5v1023
q0 53 -18.5 70.5t-87.5 31.5l-42 8l-5 96h565zM1226 1228v-889q0 -225 -37.5 -365.5t-120.5 -229.5q-106 -114 -310 -149q-40 35 -40 97q0 72 68 97q19 7 65.5 14t69.5 22q33 21 42.5 97t9.5 330v976q0 54 -18 71.5t-85 30.5l-43 8l-4 96h565l-4 -96l-79 -12
q-46 -7 -62.5 -28t-16.5 -70z" />
    <glyph glyph-name="iacute_j.loclNLD" horiz-adv-x="1251" 
d="M97 1298l371 259q64 -69 98 -155l-402 -209q-43 41 -67 105zM731 1298l370 259q66 -71 99 -155l-403 -209q-41 40 -66 105zM459 1076v-876q0 -56 16 -72.5t81 -25.5l55 -8l-4 -94h-518l4 94l52 11q43 10 56 27.5t13 67.5v621q0 58 -12.5 77.5t-55.5 28.5l-53 11l-4 90z
M1093 1076v-762q0 -229 -36.5 -378t-118.5 -237q-107 -116 -308 -150q-40 35 -40 98q0 68 68 93q19 7 66 14.5t70 21.5q33 21 42 98t9 333v614q0 58 -12 78t-53 28l-54 11l-4 90z" />
    <glyph glyph-name="Iacute_J.loclNLD.titl" horiz-adv-x="1828" 
d="M1264 1640l371 259q64 -69 98 -155l-402 -210q-42 41 -67 106zM157 1640l370 259q66 -71 99 -155l-403 -210q-41 39 -66 106zM655 1338l-79 -12q-46 -7 -62.5 -28t-16.5 -70v-1023q0 -53 18 -69.5t87 -29.5l57 -10l-4 -96h-561l5 96l68 13q47 9 63.5 28.5t16.5 67.5v1023
q0 53 -18.5 70.5t-87.5 31.5l-42 8l-5 96h565zM1762 1338l-79 -12q-46 -7 -62.5 -28t-16.5 -70l2 -781q1 -262 -102 -371t-350 -109q-175 0 -274 82t-99 228q0 50 15 88q38 36 105 36q53 0 82.5 -25.5t29.5 -71.5q0 -11 -3.5 -34t-3.5 -40q0 -70 42 -107t121 -37
q99 0 141.5 63t42.5 210v844q0 65 -18.5 86t-86.5 31l-92 14l-4 100h614z" />
    <glyph glyph-name="i.loclTRK" horiz-adv-x="655" 
d="M171 1374q0 62 41 101.5t105 39.5t105 -39.5t41 -101.5t-40.5 -101t-105.5 -39t-105.5 39t-40.5 101zM459 1076v-876q0 -56 16.5 -73t80.5 -26l55 -7l-4 -94h-518l4 94l52 11q43 10 56 27.5t13 67.5v621q0 58 -12.5 77.5t-55.5 28.5l-53 11l-4 90z" />
    <glyph glyph-name="s.hist" horiz-adv-x="673" 
d="M868 1482q10 -27 10 -56q0 -49 -27.5 -78t-74.5 -29q-45 0 -82.5 20.5t-73.5 41t-77 20.5q-47 0 -66.5 -35t-19.5 -121v-1035q0 -56 17 -73t84 -27l92 -13l-5 -97h-558l4 94l52 11q43 10 56 27.5t13 67.5v723h-131l-4 105l137 21v110q0 176 95.5 267.5t279.5 91.5
q157 0 279 -36z" />
    <glyph glyph-name="f_t" horiz-adv-x="1476" 
d="M1422 184l35 -106q-140 -103 -305 -103q-140 0 -207 63t-66 194l3 691h-425v-713q0 -56 17 -73t84 -27l92 -13l-5 -97h-558l4 94l52 11q43 10 56 27.5t13 67.5v723h-131l-4 105l137 21v110q0 176 95 267.5t278 91.5q153 0 275 -36q10 -27 10 -56q0 -49 -27.5 -78
t-74.5 -29q-45 0 -82 20.5t-72.5 41t-76.5 20.5q-47 0 -66.5 -35t-19.5 -121v-194h448q37 129 70 197q19 40 34 52t46 12q21 0 74 -10v-251h321v-128h-318v-652q0 -73 32 -106.5t101 -33.5q81 0 161 53z" />
    <glyph glyph-name="t_f" horiz-adv-x="1544" 
d="M1625 1482q10 -27 10 -56q0 -49 -27.5 -78t-74.5 -29q-45 0 -83 20.5t-74.5 41t-77.5 20.5q-47 0 -66.5 -35t-19.5 -121v-194h292v-128h-290v-713q0 -56 17 -73t84 -27l91 -13l-4 -97h-554l4 94l50 11q41 9 54 27t13 68v723h-528v-652q0 -72 32 -106t99 -34q61 0 141 53
l35 -106q-140 -103 -283 -103q-140 0 -207 63t-66 194l3 691h-126l-4 105l147 24q33 121 70 196q19 39 35 51.5t47 12.5q21 0 74 -10v-251h533v108q0 176 95.5 267.5t279.5 91.5q157 0 279 -36z" />
    <glyph glyph-name="t_i" horiz-adv-x="1404" 
d="M1072 1234q-65 0 -105.5 39t-40.5 101t41 101.5t105 39.5t104.5 -39.5t40.5 -101.5t-40.5 -101t-104.5 -39zM1366 94l-4 -94h-514l4 94l50 11q41 9 54 27t13 68v621q0 56 -23 79t-79 23h-426v-652q0 -72 32 -106t99 -34q61 0 141 53l35 -106q-140 -103 -283 -103
q-140 0 -207 63t-66 194l3 691h-126l-4 105l147 24q33 121 70 196q19 39 35 51.5t47 12.5q21 0 74 -10v-251h614l162 18v-869q0 -57 16 -73.5t80 -25.5z" />
    <glyph glyph-name="t_j" horiz-adv-x="1366" 
d="M1072 1234q-65 0 -105.5 39t-40.5 101t41 101.5t105 39.5t104.5 -39.5t40.5 -101.5t-40.5 -101t-104.5 -39zM1052 1051l162 18v-755q0 -229 -36.5 -378t-118.5 -237q-107 -116 -308 -150q-40 35 -40 98q0 67 69 93q19 7 65.5 14t69.5 22q33 21 42 98t9 333v614
q0 56 -23 79t-79 23h-423v-652q0 -73 32.5 -106.5t101.5 -33.5q80 0 160 53l35 -106q-140 -103 -305 -103q-140 0 -207 63t-66 194l3 691h-126l-4 105l147 24q33 121 70 196q19 39 35 51.5t47 12.5q21 0 74 -10v-251h614z" />
    <glyph glyph-name="t_t" horiz-adv-x="1484" 
d="M1431 184l35 -106q-140 -103 -306 -103q-140 0 -206.5 63t-65.5 194l3 691h-450v-652q0 -72 32 -106t99 -34q77 0 157 53l35 -106q-140 -103 -299 -103q-140 0 -207 63t-66 194l3 691h-126l-4 105l147 24q33 121 70 196q19 39 35 51.5t47 12.5q21 0 74 -10v-251h469
q35 124 71 197q19 39 35 51.5t47 12.5q21 0 74 -10v-251h321v-128h-319v-652q0 -73 32.5 -106.5t101.5 -33.5q81 0 161 53z" />
    <glyph glyph-name="f_f_t" horiz-adv-x="2136" 
d="M2081 184l35 -106q-140 -103 -305 -103q-140 0 -207 63t-66 194l3 691h-425v-713q0 -56 17 -73t84 -27l91 -13l-4 -97h-556l4 94l50 11q43 10 56 27.5t13 67.5v723h-414v-723q0 -57 15.5 -73.5t78.5 -25.5l56 -7l-4 -94h-516l4 94l52 11q43 10 56 27.5t13 67.5v723h-131
l-4 105l137 21v53q0 199 109.5 297t314.5 98q166 0 319 -67q103 88 289 88q153 0 275 -36q10 -27 10 -56q0 -49 -27.5 -78t-74.5 -29q-45 0 -82 20.5t-72.5 41t-76.5 20.5q-47 0 -66.5 -35t-19.5 -121v-194h273h174q35 124 71 197q19 40 34 52t46 12q21 0 74 -10v-251h321
v-128h-319v-652q0 -73 32.5 -106.5t101.5 -33.5q81 0 161 53zM873 1051v71q0 106 7 152q-43 6 -88.5 33t-94.5 50t-107 23q-68 0 -101.5 -42.5t-33.5 -150.5v-136h418z" />
    <glyph glyph-name="t_t_f" horiz-adv-x="2240" 
d="M2321 1482q9 -24 9 -56q0 -49 -27 -78t-74 -29q-45 0 -83.5 20.5t-75 41t-77.5 20.5q-47 0 -66.5 -35t-19.5 -121v-194h292v-128h-290v-713q0 -56 17 -73t84 -27l92 -13l-4 -97h-554l4 94l50 11q41 9 53.5 27t12.5 68v723h-528v-652q0 -72 32.5 -106t99.5 -34
q60 0 140 53l35 -106q-140 -103 -283 -103q-140 0 -206.5 63t-65.5 194l3 691h-450v-652q0 -72 32 -106t99 -34q77 0 157 53l35 -106q-140 -103 -299 -103q-140 0 -207 63t-66 194l3 691h-126l-4 105l147 24q33 121 70 196q19 39 35 51.5t47 12.5q21 0 74 -10v-251h469
q35 124 71 197q19 39 35 51.5t47 12.5q21 0 74 -10v-251h532v108q0 175 96 267t280 92q157 0 279 -36z" />
    <glyph glyph-name="t_t_i" horiz-adv-x="2099" 
d="M1767 1234q-65 0 -105.5 39t-40.5 101t41 101.5t105 39.5t105 -39.5t41 -101.5t-40.5 -101t-105.5 -39zM2061 94l-4 -94h-513l4 94l50 11q41 9 53.5 27t12.5 68v621q0 56 -22.5 79t-78.5 23h-427v-652q0 -72 32.5 -106t99.5 -34q60 0 140 53l35 -106q-140 -103 -283 -103
q-140 0 -206.5 63t-65.5 194l3 691h-450v-652q0 -72 32 -106t99 -34q77 0 157 53l35 -106q-140 -103 -299 -103q-140 0 -207 63t-66 194l3 691h-126l-4 105l147 24q33 121 70 196q19 39 35 51.5t47 12.5q22 0 75 -10v-251h468q35 124 71 197q19 39 35 51.5t47 12.5
q21 0 74 -10v-251h614l161 18v-869q0 -56 16.5 -73t80.5 -26z" />
    <glyph glyph-name="t_t_j" horiz-adv-x="2062" 
d="M1767 1234q-65 0 -105.5 39t-40.5 101t41 101.5t105 39.5t105 -39.5t41 -101.5t-40.5 -101t-105.5 -39zM1748 1051l161 18v-755q0 -230 -36 -378.5t-118 -236.5q-107 -116 -308 -150q-40 35 -40 98q0 68 68 93q19 7 65.5 14t69.5 22q33 21 42.5 99t9.5 332v614
q0 56 -23 79t-79 23h-424v-652q0 -73 32.5 -106.5t101.5 -33.5q81 0 161 53l35 -106q-140 -103 -306 -103q-140 0 -206.5 63t-65.5 194l3 691h-450v-652q0 -72 32 -106t99 -34q77 0 157 53l35 -106q-140 -103 -299 -103q-140 0 -207 63t-66 194l3 691h-126l-4 105l147 24
q33 121 70 196q19 39 35 51.5t47 12.5q21 0 74 -10v-251h469q35 124 71 197q19 39 35 51.5t47 12.5q21 0 74 -10v-251h614z" />
    <glyph glyph-name="zero.lf" horiz-adv-x="1224" 
d="M103 721q0 362 138 553.5t372 191.5q260 0 384.5 -185.5t124.5 -559.5q0 -358 -135.5 -552t-373.5 -194q-251 0 -380.5 191t-129.5 555zM355 721q0 -295 65.5 -447.5t192.5 -152.5t192 152.5t65 447.5q0 307 -62 453t-195 146t-195.5 -146.5t-62.5 -452.5z" />
    <glyph glyph-name="one.lf" horiz-adv-x="833" 
d="M796 104l-4 -104h-694l4 104l116 17q65 9 90.5 29t25.5 67v1010q-95 -45 -198 -67l-51 -10l-18 104l365 196h147v-1233q0 -54 23 -71t103 -29z" />
    <glyph glyph-name="two.lf" horiz-adv-x="1034" 
d="M943 178v-178h-862v138q570 509 570 889q0 142 -54 209t-169 67q-76 0 -154 -38t-140 -105l-49 159q70 70 178.5 108.5t233.5 38.5q204 0 309 -105.5t105 -310.5q0 -448 -573 -882q106 10 273 10h332z" />
    <glyph glyph-name="three.lf" horiz-adv-x="1085" 
d="M666 765q155 -28 238 -121t83 -240q0 -201 -137.5 -315t-378.5 -114q-228 0 -393 100q-5 20 -5 50q0 55 26 84.5t75 29.5q31 0 58 -14t49.5 -34t47.5 -40t63 -34t85 -14q114 0 182.5 82.5t68.5 217.5q0 145 -93.5 212.5t-293.5 67.5q-49 0 -86 -7l-10 139q224 0 330 67
t106 207q0 110 -58.5 167.5t-167.5 57.5q-148 0 -293 -121l-49 143q153 130 403 130q204 0 314.5 -91t110.5 -261q0 -126 -75 -219.5t-200 -129.5z" />
    <glyph glyph-name="four.lf" horiz-adv-x="1150" 
d="M1074 529v-158h-165v-371h-240v371h-628v104l648 962h220v-908h165zM673 529v611l-415 -611h415z" />
    <glyph glyph-name="five.lf" horiz-adv-x="1093" 
d="M582 883q187 0 302.5 -123.5t115.5 -324.5q0 -222 -135.5 -341t-378.5 -119q-227 0 -392 100q-6 24 -6 50q0 55 26 84.5t75 29.5q31 0 58 -14t49.5 -34t47.5 -40t63 -34t85 -14q115 0 183 87t68 243q0 132 -70 209.5t-191 77.5q-131 0 -220 -109l-139 44l85 779h762v-196
h-614l-53 -457q47 47 121.5 74.5t157.5 27.5z" />
    <glyph glyph-name="six.lf" horiz-adv-x="1159" 
d="M672 903q187 0 294 -122.5t107 -334.5q0 -213 -132.5 -342t-353.5 -129q-245 0 -365 166.5t-120 501.5q0 388 169 605.5t472 217.5q172 0 293 -52l-29 -144q-123 51 -245 51q-199 0 -310 -165t-119 -471q42 103 130 160.5t209 57.5zM592 113q103 0 166.5 87t63.5 230
q0 146 -55 231.5t-157 85.5q-105 0 -173 -88t-68 -229q0 -144 60 -230.5t163 -86.5z" />
    <glyph glyph-name="seven.lf" horiz-adv-x="970" 
d="M943 1318l-157 -331q-110 -232 -174 -404.5t-125 -392.5q-25 -89 -43 -201q-40 -9 -91 -9q-73 0 -105.5 30.5t-32.5 97.5q0 91 71 277q187 489 439 857h-673v192h885z" />
    <glyph glyph-name="eight.lf" horiz-adv-x="1155" 
d="M749 800q55 -27 94.5 -51.5t83 -61.5t71 -77.5t45 -97.5t17.5 -123q0 -181 -138 -297.5t-352 -116.5q-220 0 -345.5 104t-125.5 286q0 126 73.5 224t206.5 151q-53 31 -92.5 62.5t-74.5 74.5t-53 98.5t-18 122.5q0 166 121.5 267t320.5 101q197 0 310 -89.5t113 -243.5
q0 -113 -67 -199.5t-190 -133.5zM587 1339q-93 0 -146.5 -56t-53.5 -154q0 -48 17 -88t52 -72t71 -55t90 -50q89 42 130 106t41 157q0 101 -52.5 156.5t-148.5 55.5zM566 103q118 0 183 63.5t65 179.5q0 36 -10 69t-23 57.5t-40 50.5t-47 42.5t-59.5 39t-62 34l-67.5 34.5
q-92 -45 -140 -122.5t-48 -180.5q0 -122 67.5 -194.5t181.5 -72.5z" />
    <glyph glyph-name="nine.lf" horiz-adv-x="1159" 
d="M573 1466q245 0 365 -166.5t120 -501.5q0 -388 -169 -605.5t-472 -217.5q-169 0 -293 53l29 144q123 -51 245 -51q199 0 309.5 165t118.5 471q-42 -103 -130 -160.5t-209 -57.5q-187 0 -293.5 122t-106.5 335t132.5 341.5t353.5 128.5zM550 694q105 0 172.5 88t67.5 229
q0 144 -59.5 230.5t-162.5 86.5t-166.5 -87t-63.5 -230q0 -146 55 -231.5t157 -85.5z" />
    <glyph glyph-name="zero.tf" horiz-adv-x="1155" 
d="M68 721q0 362 138 553.5t372 191.5q260 0 384.5 -185.5t124.5 -559.5q0 -358 -135.5 -552t-373.5 -194q-251 0 -380.5 191t-129.5 555zM320 721q0 -295 65.5 -447.5t192.5 -152.5t192 152.5t65 447.5q0 307 -62 453t-195 146t-195.5 -146.5t-62.5 -452.5z" />
    <glyph glyph-name="one.tf" horiz-adv-x="1155" 
d="M1022 119l-4 -119h-818l4 119l117 17q103 15 140 34t37 60v981q-129 -58 -260 -85l-50 -11l-19 108l427 227h147v-1220q0 -47 35.5 -63.5t151.5 -34.5z" />
    <glyph glyph-name="two.tf" horiz-adv-x="1155" 
d="M1003 178v-178h-862v138q571 510 571 889q0 142 -54.5 209t-169.5 67q-76 0 -154 -38t-140 -105l-49 159q70 70 178.5 108.5t233.5 38.5q204 0 309 -105.5t105 -310.5q0 -448 -572 -882q106 10 272 10h332z" />
    <glyph glyph-name="three.tf" horiz-adv-x="1155" 
d="M700 765q155 -28 238.5 -121t83.5 -240q0 -201 -138 -315t-379 -114q-227 0 -392 100q-6 24 -6 50q0 55 26 84.5t75 29.5q31 0 58 -14t49.5 -34t47.5 -40t63 -34t85 -14q114 0 182.5 82.5t68.5 217.5q0 145 -93 212.5t-293 67.5q-50 0 -87 -7l-9 139q224 0 330 67
t106 207q0 110 -58.5 167.5t-167.5 57.5q-149 0 -294 -121l-49 143q153 130 403 130q204 0 314.5 -91t110.5 -261q0 -126 -75 -219.5t-200 -129.5z" />
    <glyph glyph-name="four.tf" horiz-adv-x="1155" 
d="M1075 529v-158h-165v-371h-240v371h-628v104l649 962h219v-908h165zM675 529v611l-416 -611h416z" />
    </font>
</defs>
</svg>
