<?xml version="1.0" standalone="no"?>
<!DOCTYPE svg PUBLIC "-//W3C//DTD SVG 1.1//EN" "http://www.w3.org/Graphics/SVG/1.1/DTD/svg11.dtd" >
<svg xmlns="http://www.w3.org/2000/svg" xmlns:xlink="http://www.w3.org/1999/xlink" version="1.1">
<metadata>
Created by FontForge 20170731 at Thu Oct  8 12:50:49 2020
 By Aleksey,,,
Copyright (c) The Font Bureau, Inc., 2008. All rights reserved.
</metadata>
<defs>
<font id="BentonSansCond-Regular" horiz-adv-x="1155" >
  <font-face 
    font-family="BentonSansCond Regular"
    font-weight="400"
    font-stretch="condensed"
    units-per-em="2048"
    panose-1="2 0 5 6 4 0 0 2 0 4"
    ascent="1612"
    descent="-436"
    x-height="1081"
    cap-height="1516"
    bbox="-147 -420 2302 1935"
    underline-thickness="40"
    underline-position="-312"
    unicode-range="U+0020-FB02"
  />
<missing-glyph horiz-adv-x="407" 
 />
    <glyph glyph-name="fi" unicode="fi" horiz-adv-x="1032" 
d="M725 1296v179h166v-179h-166zM201 0v944h-158v137h158v164q0 134 73.5 203.5t214.5 69.5q66 0 76 -5v-137q-1 0 -27 1t-30 1q-143 0 -143 -137v-160h192v-137h-192v-944h-164zM727 0v1081h162v-1081h-162z" />
    <glyph glyph-name="fl" unicode="fl" horiz-adv-x="1032" 
d="M727 0v1516h162v-1516h-162zM201 0v944h-158v137h158v164q0 134 73.5 203.5t214.5 69.5q66 0 76 -5v-137q-1 0 -27 1t-30 1q-143 0 -143 -137v-160h192v-137h-192v-944h-164z" />
    <glyph glyph-name="f_f_l" unicode="ffl" horiz-adv-x="1667" 
d="M201 0v944h-158v137h158v164q0 273 295 273q69 0 79 -5v-137q-2 0 -30 1t-31 1q-149 0 -149 -137v-160h202v-137h-202v-944h-164zM809 0v944h-158v137h158v164q0 273 295 273q70 0 80 -5v-137q-2 0 -30.5 1t-31.5 1q-149 0 -149 -137v-160h203v-137h-203v-944h-164z
M1358 0v1516h166v-1516h-166z" />
    <glyph glyph-name="f_f_i" unicode="ffi" horiz-adv-x="1667" 
d="M201 0v944h-158v137h158v164q0 273 295 273q69 0 79 -5v-137q-2 0 -30 1t-31 1q-149 0 -149 -137v-160h202v-137h-202v-944h-164zM809 0v944h-158v137h158v164q0 273 295 273q70 0 80 -5v-137q-2 0 -30.5 1t-31.5 1q-149 0 -149 -137v-160h203v-137h-203v-944h-164z
M1358 1296v179h168v-179h-168zM1358 0v1081h166v-1081h-166z" />
    <glyph glyph-name="f_f" unicode="ff" horiz-adv-x="1216" 
d="M201 0v944h-158v137h158v164q0 273 295 273q69 0 79 -5v-137q-2 0 -30 1t-31 1q-149 0 -149 -137v-160h202v-137h-202v-944h-164zM809 0v944h-158v137h158v164q0 273 295 273q70 0 80 -5v-137q-2 0 -30.5 1t-31.5 1q-149 0 -149 -137v-160h203v-137h-203v-944h-164z" />
    <glyph glyph-name="f_j" unicode="fj" horiz-adv-x="1058" 
d="M201 0v944h-158v137h158v164q0 273 295 273q69 0 79 -5v-137q-2 0 -30 1t-31 1q-149 0 -149 -137v-160h202v-137h-202v-944h-164zM750 1296v179h168v-179h-168zM690 -412q-64 0 -86 9v129q30 -5 58 -5q88 0 88 117v1243h165v-1249q0 -126 -51 -185t-174 -59z" />
    <glyph glyph-name=".notdef" horiz-adv-x="407" 
 />
    <glyph glyph-name=".notdef" horiz-adv-x="407" 
 />
    <glyph glyph-name=".null" horiz-adv-x="0" 
 />
    <glyph glyph-name="nonmarkingreturn" horiz-adv-x="682" 
 />
    <glyph glyph-name="space" unicode=" " horiz-adv-x="407" 
 />
    <glyph glyph-name="space" unicode="&#xa0;" horiz-adv-x="407" 
 />
    <glyph glyph-name="exclam" unicode="!" horiz-adv-x="575" 
d="M229 416l-41 1100h201l-41 -1100h-119zM190 0v205h197v-205h-197z" />
    <glyph glyph-name="quotedbl" unicode="&#x22;" horiz-adv-x="751" 
d="M489 995l-28 408v113h155v-113l-28 -408h-99zM164 995l-31 408v113h160v-113l-29 -408h-100z" />
    <glyph glyph-name="numbersign" unicode="#" horiz-adv-x="1253" 
d="M190 0l78 438h-200v135h225l65 369h-215v135h240l78 439h151l-77 -439h290l78 439h152l-78 -439h207v-135h-232l-65 -369h221v-135h-246l-76 -438h-153l78 438h-289l-78 -438h-154zM444 571h291l66 373h-291z" />
    <glyph glyph-name="dollar" unicode="$" horiz-adv-x="1144" 
d="M502 0q-290 32 -408 342l146 53q49 -111 113.5 -174t154.5 -80v580q-47 21 -78 36.5t-74 40t-70.5 47.5t-58 56t-48 69t-29 83t-11.5 100q0 151 98 251.5t265 115.5v157h131v-159q251 -35 356 -304l-141 -63q-42 96 -94 149t-127 70v-528q53 -23 84.5 -38t79.5 -42
t77.5 -50.5t63.5 -59t53 -73t32 -88t13 -108.5q0 -163 -106 -266.5t-291 -118.5v-188h-131v190zM508 1376q-99 -10 -152 -68t-53 -145q0 -64 28.5 -115t70 -84t106.5 -67v479zM627 137q107 11 172 70t65 164q0 106 -61.5 173t-175.5 122v-529z" />
    <glyph glyph-name="percent" unicode="%" horiz-adv-x="1710" 
d="M391 612q-143 0 -221 119.5t-78 345.5q0 225 78 344t221 119t219 -119t76 -344q0 -227 -76 -346t-219 -119zM397 0l770 1516h144l-770 -1516h-144zM1323 -20q-143 0 -221 119t-78 345q0 225 78 344t221 119q141 0 217 -119t76 -344q0 -226 -75.5 -345t-217.5 -119z
M391 741q79 0 116.5 81.5t37.5 254.5q0 334 -154 334q-80 0 -117.5 -80.5t-37.5 -253.5q0 -336 155 -336zM1323 106q79 0 116.5 82t37.5 256q0 332 -154 332q-82 0 -120 -80t-38 -252q0 -338 158 -338z" />
    <glyph glyph-name="ampersand" unicode="&#x26;" horiz-adv-x="1275" 
d="M508 -29q-221 0 -335 100.5t-114 284.5q0 80 24 150t69.5 127.5t95 102t117.5 91.5q-95 192 -95 365q0 156 85 254t237 98q143 0 215 -81.5t72 -207.5q0 -61 -18 -116.5t-45 -98.5t-71.5 -87.5t-86 -77t-99.5 -72.5q23 -40 113 -178q147 -206 209 -275q90 163 112 412
h154q-38 -314 -158 -510q133 -118 250 -121v-151q-183 6 -348 145q-154 -154 -383 -154zM502 918q109 77 167 151.5t58 173.5q0 73 -32 117.5t-103 44.5q-80 0 -121 -54.5t-41 -148.5q0 -131 72 -284zM514 111q166 0 270 110q-97 109 -239 314q-80 116 -115 174
q-203 -154 -203 -340q0 -124 71.5 -191t215.5 -67z" />
    <glyph glyph-name="quotesingle" unicode="'" horiz-adv-x="430" 
d="M164 995l-31 408v113h160v-113l-29 -408h-100z" />
    <glyph glyph-name="parenleft" unicode="(" horiz-adv-x="714" 
d="M537 -420q-437 427 -437 981q0 550 437 977l96 -80q-167 -186 -262 -415.5t-95 -481.5q0 -256 96 -489t263 -412z" />
    <glyph glyph-name="parenright" unicode=")" horiz-adv-x="714" 
d="M176 -420l-96 80q168 186 263 415.5t95 483.5q0 255 -95.5 487.5t-262.5 411.5l96 80q436 -426 436 -979q0 -549 -436 -979z" />
    <glyph glyph-name="asterisk" unicode="*" horiz-adv-x="948" 
d="M330 754l-111 65l195 283l-338 -27v123l340 -27l-197 285l111 68l145 -316l143 316l109 -68l-195 -285l340 27v-123l-340 27l195 -283l-109 -65l-143 313z" />
    <glyph glyph-name="plus" unicode="+" horiz-adv-x="1095" 
d="M475 170v434h-375v141h375v437h146v-437h374v-141h-374v-434h-146z" />
    <glyph glyph-name="comma" unicode="," horiz-adv-x="485" 
d="M166 -209l55 209h-76v213h191v-193l-92 -229h-78z" />
    <glyph glyph-name="hyphen" unicode="-" horiz-adv-x="630" 
d="M106 571v140h420v-140h-420z" />
    <glyph glyph-name="hyphen" unicode="&#xad;" horiz-adv-x="630" 
d="M106 571v140h420v-140h-420z" />
    <glyph glyph-name="period" unicode="." horiz-adv-x="485" 
d="M145 0v213h191v-213h-191z" />
    <glyph glyph-name="slash" unicode="/" horiz-adv-x="989" 
d="M35 0l749 1516h170l-749 -1516h-170z" />
    <glyph glyph-name="zero" unicode="0" horiz-adv-x="1153" 
d="M578 -29q-238 0 -363 202t-125 585t125 584.5t363 201.5q237 0 361 -201.5t124 -584.5t-124 -585t-361 -202zM578 121q315 0 315 637q0 635 -315 635q-157 0 -237.5 -154t-80.5 -481q0 -637 318 -637z" />
    <glyph glyph-name="one" unicode="1" horiz-adv-x="780" 
d="M94 0v150h244v1187q-48 -30 -116 -49.5t-124 -19.5v149q162 6 246 99h160v-1366h217v-150h-627z" />
    <glyph glyph-name="two" unicode="2" horiz-adv-x="1032" 
d="M76 0v33q0 105 23.5 195t63.5 156t91.5 124t108.5 104.5t114 90.5t108.5 89.5t91.5 94.5t63.5 112t23.5 136q0 124 -60.5 191t-173.5 67q-190 0 -292 -252l-142 59q142 344 445 344q186 0 287.5 -108.5t101.5 -292.5q0 -80 -23 -151.5t-61.5 -127t-88.5 -107t-105 -96.5
t-110.5 -88.5t-105.5 -90t-89 -95.5t-62 -109.5t-23 -127.5h670v-150h-856z" />
    <glyph glyph-name="three" unicode="3" horiz-adv-x="1046" 
d="M502 -25q-183 0 -296 85.5t-175 246.5l143 60q52 -133 130 -189.5t192 -56.5q135 0 212.5 80t77.5 211q0 162 -93 241.5t-298 79.5h-53v139h88q169 0 245.5 72t76.5 213q0 108 -57.5 173t-182.5 65q-172 0 -297 -172l-121 82q78 112 188.5 175.5t245.5 63.5
q98 0 174 -29.5t122.5 -81t70 -118t23.5 -144.5q0 -139 -69 -232.5t-179 -129.5q282 -90 282 -397q0 -193 -124.5 -315t-325.5 -122z" />
    <glyph glyph-name="four" unicode="4" horiz-adv-x="1083" 
d="M664 0v354h-613v131l586 1031h190v-1010h213v-152h-213v-354h-163zM227 506h439v778h-2z" />
    <glyph glyph-name="five" unicode="5" horiz-adv-x="1032" 
d="M508 -29q-159 0 -266.5 78.5t-182.5 226.5l140 68q114 -227 305 -227q98 0 165.5 53t96.5 136t29 190q0 174 -71.5 268t-193.5 94q-91 0 -155.5 -41.5t-118.5 -124.5l-129 29l49 795h709l-8 -154h-562l-34 -506q96 143 286 143q181 0 287.5 -128t106.5 -367
q0 -248 -121 -390.5t-332 -142.5z" />
    <glyph glyph-name="six" unicode="6" horiz-adv-x="1077" 
d="M563 -29q-217 0 -345 192t-128 568q0 242 55.5 423t171 285.5t279.5 104.5q219 0 352 -194l-129 -86q-22 31 -41.5 52.5t-47.5 41.5t-63 30.5t-77 10.5q-110 0 -186 -79.5t-112 -215.5t-38 -320q149 170 350 170q202 0 303 -129.5t101 -347.5q0 -223 -119 -364.5
t-326 -141.5zM571 115q130 0 201.5 93t71.5 265q0 334 -264 334q-192 0 -324 -178q17 -256 97.5 -385t217.5 -129z" />
    <glyph glyph-name="seven" unicode="7" horiz-adv-x="962" 
d="M190 0l533 1362h-647v154h823v-142l-537 -1374h-172z" />
    <glyph glyph-name="eight" unicode="8" horiz-adv-x="1075" 
d="M539 -31q-226 0 -351 110.5t-125 280.5q0 77 24.5 142t73 117t105 92t135.5 82q-66 38 -113 75t-86 83.5t-59 104.5t-20 126q0 72 27 137t77.5 116t131 81t180.5 30q101 0 181.5 -30t130 -81t75.5 -115.5t26 -137.5q0 -125 -69.5 -210t-206.5 -161q81 -44 136 -83.5
t103.5 -93t72.5 -120.5t24 -149q0 -171 -126.5 -283.5t-346.5 -112.5zM549 877q124 67 181.5 133.5t57.5 163.5t-61 164t-186 67q-123 0 -187.5 -66t-64.5 -161q0 -98 62.5 -164t197.5 -137zM539 106q138 0 220.5 73.5t82.5 195.5q0 59 -21.5 108.5t-67 92.5t-96.5 77
t-129 76q-153 -85 -225 -165t-72 -191q0 -118 84 -192.5t224 -74.5z" />
    <glyph glyph-name="nine" unicode="9" horiz-adv-x="1077" 
d="M485 -29q-230 0 -368 205l127 86q53 -71 107 -109t138 -38q162 0 247 167.5t85 448.5q-146 -170 -348 -170q-201 0 -302 130t-101 347q0 222 120 364t326 142q218 0 344.5 -191.5t126.5 -568.5q0 -243 -54 -423t-168.5 -285t-279.5 -105zM502 709q188 0 317 178
q-15 255 -95.5 383.5t-215.5 128.5q-132 0 -203.5 -92t-71.5 -265q0 -333 269 -333z" />
    <glyph glyph-name="colon" unicode=":" horiz-adv-x="491" 
d="M150 868v213h190v-213h-190zM150 0v213h190v-213h-190z" />
    <glyph glyph-name="semicolon" unicode=";" horiz-adv-x="491" 
d="M150 868v213h190v-213h-190zM168 -209l55 209h-73v213h190v-190l-94 -232h-78z" />
    <glyph glyph-name="less" unicode="&#x3c;" horiz-adv-x="1169" 
d="M1040 145l-921 457v123l921 457v-154l-751 -364l751 -365v-154z" />
    <glyph glyph-name="equal" unicode="=" horiz-adv-x="1095" 
d="M129 827v138h838v-138h-838zM129 367v137h838v-137h-838z" />
    <glyph glyph-name="greater" unicode="&#x3e;" horiz-adv-x="1169" 
d="M131 145v154l750 365l-750 364v154l924 -457v-123z" />
    <glyph glyph-name="question" unicode="?" horiz-adv-x="954" 
d="M362 416q-2 39 -2 123q0 82 25.5 148.5t61 108.5t96.5 95q58 49 90 85.5t53 88t21 115.5q0 100 -59 158.5t-165 58.5q-171 0 -278 -213l-137 63q143 297 426 297q178 0 278 -99t100 -253q0 -56 -12 -105.5t-28 -82.5t-47.5 -71t-53 -58t-63.5 -56q-71 -65 -103.5 -112.5
t-46.5 -112.5t-14 -178h-142zM334 0v207h198v-207h-198z" />
    <glyph glyph-name="at" unicode="@" horiz-adv-x="1523" 
d="M760 -29q-310 0 -495 208t-185 577q0 239 88 419t242.5 274.5t353.5 94.5q148 0 274 -54.5t215.5 -153.5t140 -242.5t50.5 -315.5q0 -221 -83 -340t-226 -119q-93 0 -148.5 44t-75.5 116q-129 -153 -278 -153q-121 0 -188 88t-66 248q0 242 98.5 394t257.5 152
q135 0 217 -110l13 92h133l-76 -600q-21 -176 127 -176q89 0 143 89t54 273q0 310 -161 494t-421 184q-263 0 -423.5 -186.5t-160.5 -509.5q0 -330 159.5 -514.5t422.5 -184.5q189 0 360 95l41 -74q-175 -109 -403 -109zM668 440q110 0 217 119l53 424q-78 107 -190 107
q-101 0 -164.5 -115.5t-65.5 -298.5q-3 -236 150 -236z" />
    <glyph glyph-name="A" unicode="A" 
d="M336 436l-121 -436h-162l445 1522h159l445 -1522h-172l-121 436h-473zM768 586l-66 231q-79 278 -127 467h-4q-47 -188 -127 -463l-65 -235h389z" />
    <glyph glyph-name="B" unicode="B" horiz-adv-x="1187" 
d="M156 0v1516h442q221 0 338 -94.5t117 -286.5q0 -77 -20 -138.5t-55 -102.5t-76 -66.5t-89 -39.5v-4q281 -60 281 -372q0 -197 -122.5 -304.5t-338.5 -107.5h-477zM326 850h262q149 0 225 61.5t76 194.5q0 136 -70 196t-227 60h-266v-512zM326 150h303q154 0 226.5 69.5
t72.5 208.5q0 149 -84.5 214t-247.5 65h-270v-557z" />
    <glyph glyph-name="C" unicode="C" horiz-adv-x="1200" 
d="M633 -27q-253 0 -396 202.5t-143 586.5q0 373 146 577.5t395 204.5q379 0 469 -479l-160 -29q-37 178 -109.5 264t-203.5 86q-174 0 -269.5 -164.5t-95.5 -457.5q0 -308 95.5 -472.5t273.5 -164.5q133 0 210.5 88.5t117.5 280.5l157 -27q-47 -232 -166.5 -364
t-320.5 -132z" />
    <glyph glyph-name="D" unicode="D" horiz-adv-x="1226" 
d="M156 0v1516h333q321 0 482.5 -182t161.5 -574q0 -391 -163 -575.5t-481 -184.5h-333zM328 154h184q231 0 340 144.5t109 461.5q0 310 -109.5 454t-341.5 144h-182v-1204z" />
    <glyph glyph-name="E" unicode="E" horiz-adv-x="1040" 
d="M156 0v1516h774v-158h-602v-479h440v-156h-440v-567h637v-156h-809z" />
    <glyph glyph-name="F" unicode="F" horiz-adv-x="978" 
d="M156 0v1516h764v-158h-592v-490h432v-155h-432v-713h-172z" />
    <glyph glyph-name="G" unicode="G" horiz-adv-x="1251" 
d="M621 -27q-252 0 -389.5 206t-137.5 583q0 368 143.5 575t397.5 207q195 0 308 -123t159 -356l-156 -31q-39 182 -113 267t-202 85q-170 0 -267.5 -159.5t-97.5 -460.5q0 -317 96.5 -478t276.5 -161q152 0 236 114.5t88 336.5h-289v147h442v-725h-137v207h-2
q-42 -98 -133 -166t-223 -68z" />
    <glyph glyph-name="H" unicode="H" horiz-adv-x="1269" 
d="M156 0v1516h172v-637h614v637h172v-1516h-172v721h-614v-721h-172z" />
    <glyph glyph-name="I" unicode="I" horiz-adv-x="507" 
d="M168 0v1516h172v-1516h-172z" />
    <glyph glyph-name="J" unicode="J" horiz-adv-x="882" 
d="M385 -23q-91 0 -182 31t-164 88l82 125q56 -43 123.5 -68.5t128.5 -25.5q89 0 140.5 52.5t51.5 160.5v1176h172v-1178q0 -175 -94.5 -268t-257.5 -93z" />
    <glyph glyph-name="K" unicode="K" horiz-adv-x="1163" 
d="M156 0v1516h172v-795q38 65 157 233l394 562h182l-420 -588l487 -928h-182l-411 782l-207 -282v-500h-172z" />
    <glyph glyph-name="L" unicode="L" horiz-adv-x="991" 
d="M156 0v1516h172v-1360h600v-156h-772z" />
    <glyph glyph-name="M" unicode="M" horiz-adv-x="1505" 
d="M156 0v1516h215l383 -1276h4l375 1276h215v-1516h-166v1241h-4q-21 -111 -105 -385l-260 -856h-135l-260 860q-68 218 -105 383h-4v-1243h-153z" />
    <glyph glyph-name="N" unicode="N" horiz-adv-x="1284" 
d="M156 0v1516h200l475 -928q78 -150 134 -269h4v1197h157v-1516h-157l-508 977q-107 207 -144 287h-4v-1264h-157z" />
    <glyph glyph-name="O" unicode="O" horiz-adv-x="1284" 
d="M643 -29q-119 0 -219.5 52t-174 149.5t-114.5 248t-41 337.5t41 337t114.5 248t174 149.5t219.5 51.5q244 0 395.5 -207t151.5 -579q0 -187 -41 -337.5t-114.5 -248t-173 -149.5t-218.5 -52zM643 127q173 0 273 166.5t100 464.5t-100 463t-273 165q-176 0 -276.5 -165
t-100.5 -463q0 -299 100.5 -465t276.5 -166z" />
    <glyph glyph-name="P" unicode="P" horiz-adv-x="1132" 
d="M156 0v1516h424q217 0 342 -106.5t125 -326.5q0 -98 -24.5 -175.5t-67 -128.5t-103.5 -84t-131 -47.5t-152 -14.5h-243v-633h-170zM326 782h249q155 0 230.5 69.5t75.5 225.5q0 149 -75.5 215t-232.5 66h-247v-576z" />
    <glyph glyph-name="Q" unicode="Q" horiz-adv-x="1284" 
d="M954 -385q-207 0 -303 98.5t-98 272.5q-209 32 -334 233t-125 539q0 373 152.5 579.5t398.5 206.5q242 0 393.5 -207t151.5 -579q0 -347 -129 -546t-342 -228q9 -128 74.5 -175t199.5 -47h88v-147h-127zM645 123q172 0 271.5 168t99.5 467q0 298 -99.5 463t-271.5 165
q-176 0 -277.5 -165t-101.5 -463q0 -299 101.5 -467t277.5 -168z" />
    <glyph glyph-name="R" unicode="R" horiz-adv-x="1167" 
d="M156 0v1516h430q224 0 342.5 -107.5t118.5 -323.5q0 -172 -79.5 -273.5t-207.5 -135.5l307 -676h-176l-297 645h-268v-645h-170zM326 793h249q156 0 231 66.5t75 223.5q0 147 -75 211t-231 64h-249v-565z" />
    <glyph glyph-name="S" unicode="S" horiz-adv-x="1120" 
d="M571 -25q-349 0 -503 359l147 67q118 -274 356 -274q132 0 208.5 66.5t76.5 177.5q0 37 -9.5 70t-23 58.5t-39.5 51t-48 42.5t-59.5 38.5t-62.5 34.5t-69 34q-157 75 -219 118q-162 111 -186 281q-5 32 -5 68q0 164 118 270.5t294 106.5q168 0 279.5 -87.5t172.5 -231.5
l-147 -72q-104 240 -307 240q-107 0 -173.5 -61t-66.5 -158q0 -37 9.5 -70t23 -58.5t38.5 -51t46.5 -43t58.5 -39t61.5 -34.5t67.5 -34q159 -75 225 -121q165 -115 186 -292q3 -27 3 -56q0 -170 -124.5 -285t-328.5 -115z" />
    <glyph glyph-name="T" unicode="T" horiz-adv-x="1062" 
d="M444 0v1358h-391v158h955v-158h-392v-1358h-172z" />
    <glyph glyph-name="U" unicode="U" horiz-adv-x="1232" 
d="M616 -27q-243 0 -358 139t-115 386v1018h172v-996q0 -197 70 -296t233 -99q162 0 233 98.5t71 292.5v1000h165v-1014q0 -118 -27.5 -213t-83 -166.5t-147 -110.5t-213.5 -39z" />
    <glyph glyph-name="V" unicode="V" horiz-adv-x="1144" 
d="M492 -6l-439 1522h172l228 -820q53 -187 122 -460h5q34 137 122 456l228 824h162l-439 -1522h-161z" />
    <glyph glyph-name="W" unicode="W" horiz-adv-x="1591" 
d="M399 -6l-338 1522h164l164 -779q48 -226 90 -448h4q20 120 86 448l154 779h156l159 -799q60 -282 84 -428h4q32 181 84 428l166 799h154l-338 -1522h-145l-248 1220h-4l-250 -1220h-146z" />
    <glyph glyph-name="X" unicode="X" horiz-adv-x="1136" 
d="M37 0l440 819l-373 697h185l289 -553l282 553h166l-369 -693l441 -823h-180l-357 682l-356 -682h-168z" />
    <glyph glyph-name="Y" unicode="Y" horiz-adv-x="1077" 
d="M453 0v625l-420 891h176l332 -734h4l332 734h165l-417 -887v-629h-172z" />
    <glyph glyph-name="Z" unicode="Z" horiz-adv-x="1079" 
d="M68 0v129l725 1229h-676v158h876v-130l-721 -1230h721v-156h-925z" />
    <glyph glyph-name="bracketleft" unicode="[" horiz-adv-x="694" 
d="M145 -410v1926h476v-130h-308v-1667h308v-129h-476z" />
    <glyph glyph-name="backslash" unicode="\" horiz-adv-x="978" 
d="M778 0l-749 1516h172l747 -1516h-170z" />
    <glyph glyph-name="bracketright" unicode="]" horiz-adv-x="694" 
d="M72 -410v129h307v1667h-307v130h475v-1926h-475z" />
    <glyph glyph-name="asciicircum" unicode="^" horiz-adv-x="1169" 
d="M133 758l393 758h117l395 -758h-155l-297 583l-297 -583h-156z" />
    <glyph glyph-name="underscore" unicode="_" horiz-adv-x="880" 
d="M-6 -266v133h893v-133h-893z" />
    <glyph glyph-name="grave" unicode="`" horiz-adv-x="909" 
d="M426 1196l-246 320h193l164 -320h-111z" />
    <glyph glyph-name="a" unicode="a" horiz-adv-x="964" 
d="M332 -14q-122 0 -190 71.5t-68 198.5q0 337 604 457v65q0 92 -40 136t-122 44q-170 0 -319 -145l-93 100q191 191 428 191q308 0 308 -326v-512q0 -194 26 -266h-166q-22 79 -22 139q-140 -153 -346 -153zM387 121q160 0 291 141v332q-442 -95 -442 -315q0 -158 151 -158
z" />
    <glyph glyph-name="b" unicode="b" horiz-adv-x="1040" 
d="M584 -16q-168 0 -287 145v-129h-166v1513h166v-571q131 162 297 162q167 0 268 -140.5t101 -420.5t-104.5 -419.5t-274.5 -139.5zM553 121q113 0 177.5 103t64.5 317q0 209 -66 314.5t-178 105.5q-71 0 -129.5 -39t-124.5 -113v-541q122 -147 256 -147z" />
    <glyph glyph-name="c" unicode="c" horiz-adv-x="933" 
d="M492 -23q-178 0 -295 148t-117 416q0 141 34 251t93 177t134 101t161 34q79 0 141 -25t104 -71.5t69 -100.5t48 -125l-151 -41q-32 110 -80.5 165t-134.5 55q-110 0 -181 -105t-71 -315q0 -198 66.5 -311t185.5 -113q86 0 141 54t86 169l145 -39q-94 -324 -378 -324z" />
    <glyph glyph-name="d" unicode="d" horiz-adv-x="1040" 
d="M449 -16q-167 0 -267 138t-100 419q0 280 103.5 421.5t271.5 141.5q169 0 291 -152v564h163v-1250q0 -192 27 -266h-170q-20 58 -20 141q-134 -157 -299 -157zM494 121q126 0 254 147v543q-127 150 -256 150q-114 0 -179 -104.5t-65 -319.5q0 -209 66 -312.5t180 -103.5z
" />
    <glyph glyph-name="e" unicode="e" horiz-adv-x="962" 
d="M496 -23q-185 0 -300.5 145.5t-115.5 418.5q0 141 34.5 251.5t93.5 177t132.5 100.5t157.5 34q182 0 283.5 -143t101.5 -414v-41h-639q4 -188 73 -288.5t187 -100.5q90 0 148.5 46.5t107.5 141.5l114 -72q-59 -120 -155.5 -188t-222.5 -68zM246 631h479q-8 154 -65.5 243
t-163.5 89q-97 0 -167 -84t-83 -248z" />
    <glyph glyph-name="f" unicode="f" horiz-adv-x="608" 
d="M201 0v944h-158v137h158v164q0 273 295 273q69 0 79 -5v-137q-2 0 -30 1t-31 1q-149 0 -149 -137v-160h202v-137h-202v-944h-164z" />
    <glyph glyph-name="g" unicode="g" horiz-adv-x="1009" 
d="M741 995q42 36 102 64t115 37v-156q-91 0 -163 -29q49 -87 49 -198q0 -177 -104 -282t-269 -105q-83 0 -147 24q-62 -34 -62 -84q0 -32 25.5 -47.5t99.5 -25.5l168 -21q199 -23 285 -87t86 -189q0 -142 -131.5 -224t-337.5 -82q-224 0 -325 66.5t-101 193.5
q0 160 176 242q-90 49 -90 135q0 46 32 92.5t84 77.5q-68 53 -105.5 135t-37.5 181q0 174 106 282.5t273 108.5q169 0 272 -109zM471 449q102 0 159.5 70.5t57.5 191.5q0 123 -56.5 192.5t-162.5 69.5q-103 0 -161 -71t-58 -191q0 -121 58.5 -191.5t162.5 -70.5zM322 59
q-67 -32 -102.5 -80.5t-35.5 -103.5q0 -86 66 -126t225 -40q133 0 215 44.5t82 121.5q0 68 -53 104.5t-191 53.5l-176 22z" />
    <glyph glyph-name="h" unicode="h" horiz-adv-x="1028" 
d="M131 0v1516h166v-584q63 70 154 121t188 51q131 0 198.5 -76.5t67.5 -224.5v-803h-164v768q0 98 -35.5 144t-117.5 46q-72 0 -150 -45t-141 -110v-803h-166z" />
    <glyph glyph-name="i" unicode="i" horiz-adv-x="450" 
d="M141 1296v179h168v-179h-168zM141 0v1081h166v-1081h-166z" />
    <glyph glyph-name="j" unicode="j" horiz-adv-x="450" 
d="M141 1296v179h168v-179h-168zM82 -412q-64 0 -86 9v129q30 -5 57 -5q88 0 88 117v1243h166v-1249q0 -126 -51 -185t-174 -59z" />
    <glyph glyph-name="k" unicode="k" horiz-adv-x="940" 
d="M131 0v1516h164v-992q10 18 149 213l248 344h170l-293 -395l330 -686h-170l-262 551l-172 -227v-324h-164z" />
    <glyph glyph-name="l" unicode="l" horiz-adv-x="450" 
d="M141 0v1516h166v-1516h-166z" />
    <glyph glyph-name="m" unicode="m" horiz-adv-x="1595" 
d="M131 0v1081h166v-149q68 73 153 122.5t177 49.5q107 0 165.5 -43t79.5 -129q160 172 338 172q130 0 196.5 -76.5t66.5 -224.5v-803h-164v768q0 99 -35 144.5t-117 45.5q-123 0 -272 -145v-813h-166v768q0 100 -32 145t-114 45q-123 0 -276 -153v-805h-166z" />
    <glyph glyph-name="n" unicode="n" horiz-adv-x="1028" 
d="M131 0v1081h166v-149q63 70 154 121t188 51q131 0 198.5 -76.5t67.5 -224.5v-803h-164v768q0 98 -35.5 144t-117.5 46q-72 0 -150 -45t-141 -110v-803h-166z" />
    <glyph glyph-name="o" unicode="o" horiz-adv-x="1013" 
d="M508 -23q-91 0 -168.5 36.5t-135.5 106t-91 177.5t-33 244q0 270 119.5 416.5t308.5 146.5q188 0 307 -146.5t119 -416.5q0 -269 -119.5 -416.5t-306.5 -147.5zM508 117q126 0 193 113.5t67 310.5q0 120 -26.5 212.5t-86.5 150t-147 57.5q-128 0 -195 -113t-67 -307
q0 -123 26 -215.5t86 -150.5t150 -58z" />
    <glyph glyph-name="p" unicode="p" horiz-adv-x="1040" 
d="M131 -410v1491h166v-137q132 160 297 160q167 0 267 -140.5t100 -420.5t-104 -419.5t-273 -139.5t-287 147v-541h-166zM553 121q113 0 177.5 103t64.5 317q0 209 -66 314.5t-178 105.5q-124 0 -254 -150v-543q122 -147 256 -147z" />
    <glyph glyph-name="q" unicode="q" horiz-adv-x="1040" 
d="M743 -410v551q-62 -73 -131.5 -116t-162.5 -43q-167 0 -267 138t-100 419t101 423t268 142q88 0 158 -41t134 -117v135h166v-1491h-166zM494 119q69 0 125 36.5t124 110.5v543q-66 75 -124.5 113.5t-126.5 38.5q-114 0 -179 -103.5t-65 -316.5q0 -211 66.5 -316.5
t179.5 -105.5z" />
    <glyph glyph-name="r" unicode="r" horiz-adv-x="706" 
d="M131 0v1081h166v-186h4q51 91 138 150t204 59h23l-11 -156q-31 2 -39 2q-103 0 -186.5 -60.5t-132.5 -160.5v-729h-166z" />
    <glyph glyph-name="s" unicode="s" horiz-adv-x="890" 
d="M444 -23q-265 0 -403 222l113 82q54 -81 129.5 -124.5t162.5 -43.5q103 0 159.5 42t56.5 117q0 54 -31 93.5t-81 64t-110 46t-120 48t-110 61t-81 92.5t-31 136q0 129 95.5 210t246.5 81q229 0 357 -195l-111 -86q-94 144 -248 144q-89 0 -134.5 -40t-45.5 -106
q0 -54 31 -93t80 -63t109 -45t119.5 -46.5t108.5 -60t80 -93.5t31 -139q0 -138 -106.5 -221t-266.5 -83z" />
    <glyph glyph-name="t" unicode="t" horiz-adv-x="665" 
d="M467 -12q-148 0 -209 58t-61 198v700h-160v137h160v385h163v-385h238v-137h-238v-663q0 -87 30.5 -123.5t113.5 -36.5q57 0 92 14v-133q-44 -14 -129 -14z" />
    <glyph glyph-name="u" unicode="u" horiz-adv-x="1028" 
d="M389 -23q-130 0 -198 77t-68 225v802h164v-772q0 -97 36.5 -142.5t122.5 -45.5q133 0 285 155v805h166v-1081h-166v150q-158 -173 -342 -173z" />
    <glyph glyph-name="v" unicode="v" horiz-adv-x="903" 
d="M365 -4l-328 1085h166l176 -614l78 -291h4q34 141 76 291l174 614h155l-327 -1085h-174z" />
    <glyph glyph-name="w" unicode="w" horiz-adv-x="1306" 
d="M315 -4l-276 1085h160l133 -542q18 -71 67 -301h4q27 146 66 307l119 536h145l121 -532q49 -200 68 -313h4q28 143 69 313l127 532h146l-275 -1085h-145l-191 825h-4l-194 -825h-144z" />
    <glyph glyph-name="x" unicode="x" horiz-adv-x="894" 
d="M37 0l325 565l-292 516h172l219 -391l207 391h159l-292 -512l325 -569h-172l-246 446l-245 -446h-160z" />
    <glyph glyph-name="y" unicode="y" horiz-adv-x="931" 
d="M180 -412q-90 0 -168 25l33 131q72 -16 131 -16q67 0 103 38.5t65 129.5l31 94l-338 1091h170l164 -565q41 -138 88 -326h4q45 174 92 338l160 553h157l-372 -1200q-50 -158 -118 -225.5t-202 -67.5z" />
    <glyph glyph-name="z" unicode="z" horiz-adv-x="880" 
d="M66 0v106l526 838h-481v137h677v-108l-526 -838h549v-135h-745z" />
    <glyph glyph-name="braceleft" unicode="{" horiz-adv-x="686" 
d="M502 -410q-252 0 -252 281v379q0 98 -21.5 150.5t-61 70.5t-110.5 18v127q71 0 111 18.5t61 71.5t21 150v379q0 281 256 281h125v-130h-76q-71 0 -104 -37t-33 -114v-387q0 -97 -20 -157.5t-50.5 -88t-83.5 -47.5v-4q53 -20 83.5 -47.5t50.5 -88t20 -157.5v-389
q0 -77 33 -113.5t104 -36.5h76v-129h-129z" />
    <glyph glyph-name="bar" unicode="|" horiz-adv-x="630" 
d="M233 -410v1926h164v-1926h-164z" />
    <glyph glyph-name="braceright" unicode="}" horiz-adv-x="686" 
d="M55 -410v129h76q71 0 104 36.5t33 113.5v395q0 97 20 156t50 84.5t84 46.5v4q-54 21 -84 46.5t-50 84.5t-20 156v393q0 77 -33 114t-104 37h-76v130h133q131 0 189.5 -68.5t58.5 -206.5v-385q0 -97 21 -150t61 -71.5t111 -18.5v-127q-71 0 -110.5 -18t-61 -70.5
t-21.5 -150.5v-385q0 -137 -58.5 -206t-187.5 -69h-135z" />
    <glyph glyph-name="asciitilde" unicode="~" horiz-adv-x="1138" 
d="M809 535q-70 0 -165 30.5t-180 61t-132 30.5q-77 0 -90 -94l-119 15q12 113 66 169t141 56q70 0 164.5 -30.5t179 -61.5t129.5 -31q40 0 64 21t30 73l119 -14q-23 -225 -207 -225z" />
    <glyph glyph-name="exclamdown" unicode="&#xa1;" horiz-adv-x="575" 
d="M186 1311v205h197v-205h-197zM186 0l39 1100h119l41 -1100h-199z" />
    <glyph glyph-name="cent" unicode="&#xa2;" horiz-adv-x="933" 
d="M299 31q-101 63 -160 193t-59 317q0 141 34 251t93 177t134 101t161 34h28l41 190h127l-47 -219q146 -64 213 -293l-151 -41q-37 131 -99 185l-176 -807q24 -8 60 -8q86 0 141 56.5t86 172.5l145 -39q-94 -324 -378 -324q-38 0 -76 9l-51 -232h-125zM508 967h-10
q-110 0 -181 -108t-71 -318q0 -238 94 -355z" />
    <glyph glyph-name="sterling" unicode="&#xa3;" horiz-adv-x="1101" 
d="M385 725h-233v131h174q-44 100 -67 171t-23 140q0 172 96 274.5t260 102.5q92 0 161 -30.5t110 -85.5t63 -121.5t28 -149.5l-155 -18q-10 124 -58 192t-151 68q-90 0 -141.5 -58t-51.5 -170q0 -47 17 -108t30.5 -92.5t49.5 -114.5h294v-131h-239q59 -157 59 -289
q0 -121 -35 -217q55 -51 99 -78.5t90 -27.5q76 0 113 63.5t40 210.5h146q-2 -96 -17.5 -168.5t-48 -130t-88 -87.5t-133.5 -30q-74 0 -134.5 35t-125.5 98q-93 -133 -256 -133q-92 0 -158.5 55.5t-66.5 151.5q0 102 64 168t165 66q94 0 193 -82q4 58 4 94q0 128 -74 301z
M422 199q-90 94 -160 94q-45 0 -72.5 -29.5t-27.5 -79.5q0 -46 28.5 -73t71.5 -27q111 0 160 115z" />
    <glyph glyph-name="yen" unicode="&#xa5;" horiz-adv-x="1077" 
d="M621 530v-180h354v-129h-354v-221h-164v221h-355v129h355v180h-355v129h336l-405 857h176l332 -734h4l332 734h165l-405 -857h338v-129h-354z" />
    <glyph glyph-name="brokenbar" unicode="&#xa6;" horiz-adv-x="630" 
d="M233 678v838h164v-838h-164zM233 -410v838h164v-838h-164z" />
    <glyph glyph-name="section" unicode="&#xa7;" horiz-adv-x="964" 
d="M475 -418q-89 0 -154.5 24t-106.5 71t-65 102t-40 131l147 39q26 -113 73.5 -171.5t143.5 -58.5q89 0 131.5 49t42.5 128q0 78 -51.5 139.5t-173.5 144.5q-64 42 -100 67.5t-81 61t-69 63.5t-47 64.5t-32 76t-9 85.5q0 104 64.5 190t160.5 142q-84 70 -120.5 137
t-36.5 156q0 137 91.5 230t245.5 93q74 0 131.5 -17t96.5 -45t68 -71.5t45.5 -90.5t29.5 -108l-149 -36q-25 115 -73.5 171t-145.5 56q-87 0 -134 -48.5t-47 -125.5t54 -139t180 -146q63 -42 99 -67.5t80.5 -61t68 -63.5t46 -64.5t31.5 -76t9 -85.5q0 -104 -64 -189.5
t-160 -141.5q82 -71 117 -137.5t35 -155.5q0 -137 -90 -229.5t-242 -92.5zM551 279q174 94 174 231q0 44 -12.5 78t-48.5 71.5t-81 71.5t-128 90l-39 27q-84 -44 -131 -103t-47 -127q0 -84 56.5 -145.5t215.5 -167.5q7 -6 22.5 -15t18.5 -11z" />
    <glyph glyph-name="dieresis" unicode="&#xa8;" horiz-adv-x="909" 
d="M537 1194v184h163v-184h-163zM211 1194v184h166v-184h-166z" />
    <glyph glyph-name="copyright" unicode="&#xa9;" horiz-adv-x="1458" 
d="M729 -29q-183 0 -332.5 105t-233 284.5t-83.5 395.5q0 162 49.5 307.5t135.5 251t206.5 167.5t257.5 62t257.5 -61.5t206.5 -166.5t135.5 -250t49.5 -306q0 -216 -84.5 -397t-234 -286.5t-330.5 -105.5zM729 61q155 0 282 93t198 252t71 350t-71.5 351t-198 253.5
t-281.5 93.5t-282 -93t-198 -251.5t-71 -349.5t71.5 -351.5t198.5 -254t281 -93.5zM731 317q-143 0 -224 117t-81 334q0 210 82 327t223 117q114 0 179.5 -73.5t95.5 -208.5l-115 -21q-22 97 -58 144t-102 47q-87 0 -134.5 -89.5t-47.5 -242.5q0 -159 47 -247.5t137 -88.5
q65 0 103.5 49t62.5 154l113 -23q-61 -295 -281 -295z" />
    <glyph glyph-name="ordfeminine" unicode="&#xaa;" horiz-adv-x="753" 
d="M272 743q-88 0 -138 51t-50 144q0 242 424 326v45q0 125 -107 125q-112 0 -223 -107l-76 76q139 139 314 139q112 0 164.5 -58.5t52.5 -174.5v-361q0 -135 22 -192h-131q-16 66 -16 96q-106 -109 -236 -109zM309 850q106 0 199 100v226q-297 -64 -297 -222
q0 -104 98 -104z" />
    <glyph glyph-name="guillemotleft" unicode="&#xab;" horiz-adv-x="931" 
d="M690 0l-254 541l254 538h162l-248 -538l248 -541h-162zM322 0l-254 541l254 538h161l-245 -538l245 -541h-161z" />
    <glyph glyph-name="registered" unicode="&#xae;" horiz-adv-x="927" 
d="M465 596q-166 0 -278.5 138t-112.5 337q0 198 112.5 335.5t278.5 137.5t278.5 -137t112.5 -336t-112.5 -337t-278.5 -138zM465 653q140 0 234 121.5t94 296.5q0 173 -94.5 294.5t-233.5 121.5q-140 0 -234 -120.5t-94 -295.5q0 -113 42.5 -209t118 -152.5t167.5 -56.5z
M315 823v510h150q76 0 118 -37.5t42 -111.5q0 -109 -86 -142l94 -219h-82l-94 209h-66v-209h-76zM391 1100h70q44 0 65 19.5t21 62.5t-21 61.5t-65 18.5h-70v-162z" />
    <glyph glyph-name="macron" unicode="&#xaf;" horiz-adv-x="909" 
d="M217 1194v135h475v-135h-475z" />
    <glyph glyph-name="macron" unicode="&#x2c9;" horiz-adv-x="909" 
d="M217 1194v135h475v-135h-475z" />
    <glyph glyph-name="degree" unicode="&#xb0;" horiz-adv-x="704" 
d="M354 967q-115 0 -186.5 80.5t-71.5 207.5q0 125 71.5 206t186.5 81q112 0 182 -80t70 -207q0 -125 -70 -206.5t-182 -81.5zM354 1067q63 0 100.5 51.5t37.5 136.5t-37.5 136t-100.5 51q-65 0 -103 -51t-38 -136q0 -86 38 -137t103 -51z" />
    <glyph glyph-name="plusminus" unicode="&#xb1;" horiz-adv-x="1667" 
d="M201 0v944h-158v137h158v164q0 273 295 273q69 0 79 -5v-137q-2 0 -30 1t-31 1q-149 0 -149 -137v-160h202v-137h-202v-944h-164zM809 0v944h-158v137h158v164q0 273 295 273q70 0 80 -5v-137q-2 0 -30.5 1t-31.5 1q-149 0 -149 -137v-160h203v-137h-203v-944h-164z
M1358 0v1516h166v-1516h-166z" />
    <glyph glyph-name="twosuperior" unicode="&#xb2;" horiz-adv-x="698" 
d="M84 629v41q0 73 21.5 134.5t56.5 104t76.5 79.5t83.5 69.5t77 65.5t56.5 75t21.5 90q0 131 -115 131q-51 0 -87.5 -38t-67.5 -115l-117 49q86 223 277 223q118 0 181.5 -64.5t63.5 -183.5q0 -55 -20 -103.5t-51.5 -85t-70.5 -70t-78.5 -64.5t-73 -62.5t-56 -70.5
t-26.5 -82h376v-123h-528z" />
    <glyph glyph-name="threesuperior" unicode="&#xb3;" horiz-adv-x="718" 
d="M354 616q-207 0 -291 218l111 51q34 -83 76 -116.5t102 -33.5q69 0 108.5 41.5t39.5 108.5q0 86 -48 128t-155 42h-43v96h61q168 0 168 145q0 55 -30 89t-91 34q-50 0 -90 -25.5t-82 -78.5l-94 67q109 158 277 158q119 0 180 -64.5t61 -164.5q0 -143 -125 -201
q142 -62 142 -227q0 -119 -76 -193t-201 -74z" />
    <glyph glyph-name="acute" unicode="&#xb4;" horiz-adv-x="909" 
d="M373 1196l166 320h192l-248 -320h-110z" />
    <glyph glyph-name="mu" unicode="&#xb5;" horiz-adv-x="1032" 
d="M125 -410v1491h168v-770q0 -98 36 -145t120 -47q128 0 284 153v809h168v-1081h-168v154q-157 -161 -309 -168q-90 -3 -131 43v-439h-168z" />
    <glyph glyph-name="mu" unicode="&#x3bc;" horiz-adv-x="1032" 
d="M125 -410v1491h168v-770q0 -98 36 -145t120 -47q128 0 284 153v809h168v-1081h-168v154q-157 -161 -309 -168q-90 -3 -131 43v-439h-168z" />
    <glyph glyph-name="paragraph" unicode="&#xb6;" horiz-adv-x="1105" 
d="M510 -410v1098q-200 5 -307 108.5t-107 301.5q0 184 104 301t287 117h471v-1926h-141v1784h-166v-1784h-141z" />
    <glyph glyph-name="periodcentered" unicode="&#xb7;" horiz-adv-x="544" 
d="M168 526v215h209v-215h-209z" />
    <glyph glyph-name="periodcentered" unicode="&#x2219;" horiz-adv-x="544" 
d="M168 526v215h209v-215h-209z" />
    <glyph glyph-name="cedilla" unicode="&#xb8;" horiz-adv-x="909" 
d="M461 -416q-134 0 -234 74l49 78q83 -60 183 -60q123 0 123 93q0 67 -72 67q-48 0 -90 -39l-64 29l52 186h92l-33 -123q43 31 98 31q56 0 95.5 -36t39.5 -105q0 -90 -69 -142.5t-170 -52.5z" />
    <glyph glyph-name="onesuperior" unicode="&#xb9;" horiz-adv-x="591" 
d="M111 621v120h137v625q-59 -27 -135 -27v121q103 3 153 56h121v-775h123v-120h-399z" />
    <glyph glyph-name="ordmasculine" unicode="&#xba;" horiz-adv-x="757" 
d="M379 745q-133 0 -219 104.5t-86 295.5t85 295t220 104t220 -104t85 -295t-85.5 -295.5t-219.5 -104.5zM379 850q88 0 132 79.5t44 215.5q0 128 -44 208.5t-132 80.5q-87 0 -131.5 -78.5t-44.5 -210.5q0 -131 43.5 -213t132.5 -82z" />
    <glyph glyph-name="guillemotright" unicode="&#xbb;" horiz-adv-x="931" 
d="M451 0l245 541l-245 538h161l250 -538l-250 -541h-161zM80 0l250 541l-250 538h164l252 -538l-252 -541h-164z" />
    <glyph glyph-name="onequarter" unicode="&#xbc;" horiz-adv-x="1443" 
d="M80 621v122h137v621q-59 -27 -135 -27v123q104 3 154 56h120v-773h123v-122h-399zM1157 0v211h-344v90l338 596h139v-569h119v-117h-119v-211h-133zM305 0l770 1516h144l-770 -1516h-144zM948 324h215v385z" />
    <glyph glyph-name="onehalf" unicode="&#xbd;" horiz-adv-x="1523" 
d="M938 0v41q0 73 22 134.5t56.5 104t77 80t84.5 70.5t76.5 65.5t56.5 75t22 91.5q0 62 -29 96.5t-85 34.5q-98 0 -156 -154l-119 49q86 223 279 223q117 0 181 -65t64 -182q0 -64 -27 -120t-67 -94t-88 -78.5t-89.5 -74t-71 -79.5t-33.5 -95h376v-123h-530zM80 621v122h137
v621q-59 -27 -135 -27v123q104 3 154 56h120v-773h123v-122h-399zM305 0l770 1516h144l-770 -1516h-144z" />
    <glyph glyph-name="threequarters" unicode="&#xbe;" horiz-adv-x="1474" 
d="M322 614q-204 0 -289 220l108 49q34 -81 76.5 -114.5t101.5 -33.5q67 0 106.5 40.5t39.5 107.5q0 87 -47 128.5t-154 41.5h-43v96h62q166 0 166 145q0 55 -29 89t-90 34q-89 0 -170 -108l-97 67q115 162 275 162q120 0 182 -64.5t62 -164.5q0 -142 -127 -201
q143 -61 143 -227q0 -119 -75.5 -193t-200.5 -74zM1190 0v211h-346v90l338 596h139v-569h119v-117h-119v-211h-131zM338 0l768 1516h143l-768 -1516h-143zM979 324h215v385z" />
    <glyph glyph-name="questiondown" unicode="&#xbf;" horiz-adv-x="954" 
d="M422 1309v207h199v-207h-199zM463 -29q-179 0 -280 99t-101 254q0 56 12.5 105.5t28 82t48 70.5t53 57.5t63.5 56.5q71 65 103.5 113t46.5 113t14 178h141q2 -39 2 -123q0 -118 -44.5 -195t-135.5 -157q-88 -73 -127 -134.5t-39 -154.5q0 -100 58.5 -158.5t164.5 -58.5
q172 0 279 213l137 -64q-143 -297 -424 -297z" />
    <glyph glyph-name="Agrave" unicode="&#xc0;" 
d="M336 436l-121 -436h-162l445 1522h159l445 -1522h-172l-121 436h-473zM768 586l-66 231q-79 278 -127 467h-4q-47 -188 -127 -463l-65 -235h389zM530 1610l-245 319h192l164 -319h-111z" />
    <glyph glyph-name="Aacute" unicode="&#xc1;" 
d="M336 436l-121 -436h-162l445 1522h159l445 -1522h-172l-121 436h-473zM768 586l-66 231q-79 278 -127 467h-4q-47 -188 -127 -463l-65 -235h389zM510 1610l166 319h192l-247 -319h-111z" />
    <glyph glyph-name="Acircumflex" unicode="&#xc2;" 
d="M336 436l-121 -436h-162l445 1522h159l445 -1522h-172l-121 436h-473zM768 586l-66 231q-79 278 -127 467h-4q-47 -188 -127 -463l-65 -235h389zM295 1589l225 326h115l225 -326h-102l-180 183l-183 -183h-100z" />
    <glyph glyph-name="Atilde" unicode="&#xc3;" 
d="M336 436l-121 -436h-162l445 1522h159l445 -1522h-172l-121 436h-473zM768 586l-66 231q-79 278 -127 467h-4q-47 -188 -127 -463l-65 -235h389zM713 1599q-37 0 -77.5 18t-69 39.5t-61 39.5t-56.5 18q-37 0 -54.5 -25.5t-17.5 -84.5h-101q0 241 168 241q47 0 98 -28.5
t95 -57t74 -28.5q36 0 52.5 24.5t16.5 85.5h99q0 -242 -166 -242z" />
    <glyph glyph-name="Adieresis" unicode="&#xc4;" 
d="M336 436l-121 -436h-162l445 1522h159l445 -1522h-172l-121 436h-473zM768 586l-66 231q-79 278 -127 467h-4q-47 -188 -127 -463l-65 -235h389zM659 1608v184h164v-184h-164zM334 1608v184h166v-184h-166z" />
    <glyph glyph-name="Aring" unicode="&#xc5;" 
d="M336 436l-121 -436h-162l430 1475q-80 52 -80 170q0 86 48 140t127 54q78 0 126 -54.5t48 -139.5q0 -117 -82 -170l432 -1475h-172l-121 436h-473zM768 586l-66 231q-79 278 -127 467h-4q-47 -188 -127 -463l-65 -235h389zM578 1528q40 0 63 34t23 83q0 48 -23 80t-63 32
t-63 -32t-23 -80q0 -49 23 -83t63 -34z" />
    <glyph glyph-name="AE" unicode="&#xc6;" horiz-adv-x="1708" 
d="M43 0l696 1516h858v-158h-602v-481h441v-154h-441v-567h637v-156h-807v469h-401l-213 -469h-168zM487 616h338v736z" />
    <glyph glyph-name="Ccedilla" unicode="&#xc7;" horiz-adv-x="1200" 
d="M606 -416q-133 0 -233 74l49 78q83 -60 182 -60q123 0 123 93q0 67 -72 67q-48 0 -90 -39l-63 29l41 156q-213 33 -331 232t-118 548q0 373 146 577.5t395 204.5q379 0 469 -479l-160 -29q-37 178 -109.5 264t-203.5 86q-174 0 -269.5 -164.5t-95.5 -457.5
q0 -308 95.5 -472.5t273.5 -164.5q133 0 210.5 88.5t117.5 280.5l157 -27q-23 -112 -62 -200.5t-97.5 -155.5t-141 -103t-184.5 -37l-23 -84q43 31 99 31t95.5 -36t39.5 -105q0 -90 -69.5 -142.5t-170.5 -52.5z" />
    <glyph glyph-name="Egrave" unicode="&#xc8;" horiz-adv-x="1040" 
d="M156 0v1516h774v-158h-602v-479h440v-156h-440v-567h637v-156h-809zM522 1610l-246 319h193l164 -319h-111z" />
    <glyph glyph-name="Eacute" unicode="&#xc9;" horiz-adv-x="1040" 
d="M422 1610l166 319h192l-248 -319h-110zM156 0v1516h774v-158h-602v-479h440v-156h-440v-567h637v-156h-809z" />
    <glyph glyph-name="Ecircumflex" unicode="&#xca;" horiz-adv-x="1040" 
d="M252 1604l225 325h115l225 -325h-102l-180 182l-183 -182h-100zM156 0v1516h774v-158h-602v-479h440v-156h-440v-567h637v-156h-809z" />
    <glyph glyph-name="Edieresis" unicode="&#xcb;" horiz-adv-x="1040" 
d="M616 1608v184h164v-184h-164zM291 1608v184h166v-184h-166zM156 0v1516h774v-158h-602v-479h440v-156h-440v-567h637v-156h-809z" />
    <glyph glyph-name="Igrave" unicode="&#xcc;" horiz-adv-x="507" 
d="M168 0v1516h172v-1516h-172zM213 1610l-246 319h193l164 -319h-111z" />
    <glyph glyph-name="Iacute" unicode="&#xcd;" horiz-adv-x="507" 
d="M168 0v1516h172v-1516h-172zM188 1610l166 319h193l-248 -319h-111z" />
    <glyph glyph-name="Icircumflex" unicode="&#xce;" horiz-adv-x="507" 
d="M168 0v1516h172v-1516h-172zM-29 1604l226 325h114l226 -325h-103l-180 182l-182 -182h-101z" />
    <glyph glyph-name="Idieresis" unicode="&#xcf;" horiz-adv-x="507" 
d="M168 0v1516h172v-1516h-172zM336 1608v184h164v-184h-164zM10 1608v184h166v-184h-166z" />
    <glyph glyph-name="Eth" unicode="&#xd0;" horiz-adv-x="1226" 
d="M156 727h-127v143h127v646h333q321 0 482.5 -182t161.5 -574q0 -391 -163 -575.5t-481 -184.5h-333v727zM324 870h268v-143h-268v-573h188q231 0 340 144.5t109 461.5q0 310 -109.5 454t-341.5 144h-186v-488z" />
    <glyph glyph-name="Ntilde" unicode="&#xd1;" horiz-adv-x="1284" 
d="M156 0v1516h200l475 -928q78 -150 134 -269h4v1197h157v-1516h-157l-508 977q-107 207 -144 287h-4v-1264h-157zM776 1599q-37 0 -77.5 18t-69 39.5t-61 39.5t-56.5 18q-37 0 -54.5 -25.5t-17.5 -84.5h-100q0 241 168 241q47 0 98 -28.5t94.5 -57t73.5 -28.5
q37 0 53.5 24.5t16.5 85.5h98q0 -242 -166 -242z" />
    <glyph glyph-name="Ograve" unicode="&#xd2;" horiz-adv-x="1284" 
d="M643 -29q-119 0 -219.5 52t-174 149.5t-114.5 248t-41 337.5t41 337t114.5 248t174 149.5t219.5 51.5q244 0 395.5 -207t151.5 -579q0 -187 -41 -337.5t-114.5 -248t-173 -149.5t-218.5 -52zM643 127q173 0 273 166.5t100 464.5t-100 463t-273 165q-176 0 -276.5 -165
t-100.5 -463q0 -299 100.5 -465t276.5 -166zM612 1610l-245 319h192l164 -319h-111z" />
    <glyph glyph-name="Oacute" unicode="&#xd3;" horiz-adv-x="1284" 
d="M559 1610l166 319h193l-248 -319h-111zM643 -29q-119 0 -219.5 52t-174 149.5t-114.5 248t-41 337.5t41 337t114.5 248t174 149.5t219.5 51.5q244 0 395.5 -207t151.5 -579q0 -187 -41 -337.5t-114.5 -248t-173 -149.5t-218.5 -52zM643 127q173 0 273 166.5t100 464.5
t-100 463t-273 165q-176 0 -276.5 -165t-100.5 -463q0 -299 100.5 -465t276.5 -166z" />
    <glyph glyph-name="Ocircumflex" unicode="&#xd4;" horiz-adv-x="1284" 
d="M358 1604l226 325h114l226 -325h-103l-180 182l-182 -182h-101zM643 -29q-119 0 -219.5 52t-174 149.5t-114.5 248t-41 337.5t41 337t114.5 248t174 149.5t219.5 51.5q244 0 395.5 -207t151.5 -579q0 -187 -41 -337.5t-114.5 -248t-173 -149.5t-218.5 -52zM643 127
q173 0 273 166.5t100 464.5t-100 463t-273 165q-176 0 -276.5 -165t-100.5 -463q0 -299 100.5 -465t276.5 -166z" />
    <glyph glyph-name="Otilde" unicode="&#xd5;" horiz-adv-x="1284" 
d="M643 -29q-119 0 -219.5 52t-174 149.5t-114.5 248t-41 337.5t41 337t114.5 248t174 149.5t219.5 51.5q244 0 395.5 -207t151.5 -579q0 -187 -41 -337.5t-114.5 -248t-173 -149.5t-218.5 -52zM643 127q173 0 273 166.5t100 464.5t-100 463t-273 165q-176 0 -276.5 -165
t-100.5 -463q0 -299 100.5 -465t276.5 -166zM776 1599q-37 0 -77.5 18t-69 39.5t-61 39.5t-56.5 18q-37 0 -54.5 -25.5t-17.5 -84.5h-100q0 241 168 241q47 0 98 -28.5t94.5 -57t73.5 -28.5q37 0 53.5 24.5t16.5 85.5h98q0 -242 -166 -242z" />
    <glyph glyph-name="Odieresis" unicode="&#xd6;" horiz-adv-x="1284" 
d="M723 1608v184h164v-184h-164zM397 1608v184h166v-184h-166zM643 -29q-119 0 -219.5 52t-174 149.5t-114.5 248t-41 337.5t41 337t114.5 248t174 149.5t219.5 51.5q244 0 395.5 -207t151.5 -579q0 -187 -41 -337.5t-114.5 -248t-173 -149.5t-218.5 -52zM643 127
q173 0 273 166.5t100 464.5t-100 463t-273 165q-176 0 -276.5 -165t-100.5 -463q0 -299 100.5 -465t276.5 -166z" />
    <glyph glyph-name="multiply" unicode="&#xd7;" horiz-adv-x="1095" 
d="M223 258l-96 96l324 322l-324 321l96 97l324 -324l321 324l97 -97l-324 -321l324 -322l-97 -96l-321 322z" />
    <glyph glyph-name="Oslash" unicode="&#xd8;" horiz-adv-x="1284" 
d="M1026 1354q164 -214 164 -596q0 -187 -41 -337.5t-114.5 -248t-173 -149.5t-218.5 -52q-172 0 -299 103l-90 -164l-107 61l109 195q-162 208 -162 592q0 187 41 337t114.5 248t174 149.5t219.5 51.5q169 0 293 -100l94 164l105 -60zM348 322l514 974q-93 93 -219 93
q-176 0 -277.5 -166.5t-101.5 -464.5q0 -268 84 -436zM934 1194l-514 -973q90 -96 223 -96q173 0 274 167.5t101 465.5q0 268 -84 436z" />
    <glyph glyph-name="Ugrave" unicode="&#xd9;" horiz-adv-x="1232" 
d="M616 -27q-243 0 -358 139t-115 386v1018h172v-996q0 -197 70 -296t233 -99q162 0 233 98.5t71 292.5v1000h165v-1014q0 -118 -27.5 -213t-83 -166.5t-147 -110.5t-213.5 -39zM588 1610l-246 319h193l163 -319h-110z" />
    <glyph glyph-name="Uacute" unicode="&#xda;" horiz-adv-x="1232" 
d="M535 1610l165 319h193l-248 -319h-110zM616 -27q-243 0 -358 139t-115 386v1018h172v-996q0 -197 70 -296t233 -99q162 0 233 98.5t71 292.5v1000h165v-1014q0 -118 -27.5 -213t-83 -166.5t-147 -110.5t-213.5 -39z" />
    <glyph glyph-name="Ucircumflex" unicode="&#xdb;" horiz-adv-x="1232" 
d="M334 1604l225 325h115l225 -325h-102l-181 182l-182 -182h-100zM616 -27q-243 0 -358 139t-115 386v1018h172v-996q0 -197 70 -296t233 -99q162 0 233 98.5t71 292.5v1000h165v-1014q0 -118 -27.5 -213t-83 -166.5t-147 -110.5t-213.5 -39z" />
    <glyph glyph-name="Udieresis" unicode="&#xdc;" horiz-adv-x="1232" 
d="M698 1608v184h164v-184h-164zM373 1608v184h166v-184h-166zM616 -27q-243 0 -358 139t-115 386v1018h172v-996q0 -197 70 -296t233 -99q162 0 233 98.5t71 292.5v1000h165v-1014q0 -118 -27.5 -213t-83 -166.5t-147 -110.5t-213.5 -39z" />
    <glyph glyph-name="Yacute" unicode="&#xdd;" horiz-adv-x="1077" 
d="M453 0v625l-420 891h176l332 -734h4l332 734h165l-417 -887v-629h-172zM457 1610l166 319h192l-248 -319h-110z" />
    <glyph glyph-name="Thorn" unicode="&#xde;" horiz-adv-x="1132" 
d="M156 0v1516h170v-275h254q217 0 342 -107t125 -327q0 -122 -36.5 -211t-103.5 -140t-150.5 -74.5t-187.5 -23.5h-243v-358h-170zM326 510h249q155 0 230.5 69t75.5 224q0 148 -75.5 214t-232.5 66h-247v-573z" />
    <glyph glyph-name="germandbls" unicode="&#xdf;" horiz-adv-x="1083" 
d="M647 -20q-163 0 -258 75l78 117q75 -59 174 -59q94 0 151.5 77.5t57.5 229.5q0 179 -92.5 259t-290.5 89v131q138 1 206 67.5t68 180.5q0 107 -57.5 166t-161.5 59q-110 0 -168.5 -74t-58.5 -215v-1083h-166v1077q0 209 106 324t289 115q176 0 275.5 -92t99.5 -261
q0 -118 -60 -204t-161 -115q152 -28 243 -132t91 -286q0 -203 -95 -324.5t-270 -121.5z" />
    <glyph glyph-name="agrave" unicode="&#xe0;" horiz-adv-x="964" 
d="M332 -14q-122 0 -190 71.5t-68 198.5q0 337 604 457v65q0 92 -40 136t-122 44q-170 0 -319 -145l-93 100q191 191 428 191q308 0 308 -326v-512q0 -194 26 -266h-166q-22 79 -22 139q-140 -153 -346 -153zM387 121q160 0 291 141v332q-442 -95 -442 -315q0 -158 151 -158
zM483 1196l-245 320h192l164 -320h-111z" />
    <glyph glyph-name="aacute" unicode="&#xe1;" horiz-adv-x="964" 
d="M332 -14q-122 0 -190 71.5t-68 198.5q0 337 604 457v65q0 92 -40 136t-122 44q-170 0 -319 -145l-93 100q191 191 428 191q308 0 308 -326v-512q0 -194 26 -266h-166q-22 79 -22 139q-140 -153 -346 -153zM387 121q160 0 291 141v332q-442 -95 -442 -315q0 -158 151 -158
zM369 1196l166 320h192l-248 -320h-110z" />
    <glyph glyph-name="acircumflex" unicode="&#xe2;" horiz-adv-x="964" 
d="M332 -14q-122 0 -190 71.5t-68 198.5q0 337 604 457v65q0 92 -40 136t-122 44q-170 0 -319 -145l-93 100q191 191 428 191q308 0 308 -326v-512q0 -194 26 -266h-166q-22 79 -22 139q-140 -153 -346 -153zM387 121q160 0 291 141v332q-442 -95 -442 -315q0 -158 151 -158
zM199 1190l225 326h115l225 -326h-102l-181 182l-182 -182h-100z" />
    <glyph glyph-name="atilde" unicode="&#xe3;" horiz-adv-x="964" 
d="M332 -14q-122 0 -190 71.5t-68 198.5q0 337 604 457v65q0 92 -40 136t-122 44q-170 0 -319 -145l-93 100q191 191 428 191q308 0 308 -326v-512q0 -194 26 -266h-166q-22 79 -22 139q-140 -153 -346 -153zM387 121q160 0 291 141v332q-442 -95 -442 -315q0 -158 151 -158
zM616 1186q-37 0 -77.5 18t-69 39t-61 39t-56.5 18q-37 0 -54 -25.5t-17 -84.5h-101q0 242 168 242q47 0 98 -29t94.5 -57.5t73.5 -28.5q37 0 53.5 24.5t16.5 85.5h98q0 -241 -166 -241z" />
    <glyph glyph-name="adieresis" unicode="&#xe4;" horiz-adv-x="964" 
d="M332 -14q-122 0 -190 71.5t-68 198.5q0 337 604 457v65q0 92 -40 136t-122 44q-170 0 -319 -145l-93 100q191 191 428 191q308 0 308 -326v-512q0 -194 26 -266h-166q-22 79 -22 139q-140 -153 -346 -153zM387 121q160 0 291 141v332q-442 -95 -442 -315q0 -158 151 -158
zM563 1194v184h164v-184h-164zM238 1194v184h165v-184h-165z" />
    <glyph glyph-name="aring" unicode="&#xe5;" horiz-adv-x="964" 
d="M332 -14q-122 0 -190 71.5t-68 198.5q0 337 604 457v65q0 92 -40 136t-122 44q-170 0 -319 -145l-93 100q191 191 428 191q308 0 308 -326v-512q0 -194 26 -266h-166q-22 79 -22 139q-140 -153 -346 -153zM387 121q160 0 291 141v332q-442 -95 -442 -315q0 -158 151 -158
zM481 1176q-79 0 -126.5 55t-47.5 141t47.5 140.5t126.5 54.5q77 0 125.5 -55t48.5 -140t-48.5 -140.5t-125.5 -55.5zM481 1255q40 0 63 34t23 83q0 48 -23 80.5t-63 32.5t-63 -32.5t-23 -80.5q0 -49 23 -83t63 -34z" />
    <glyph glyph-name="ae" unicode="&#xe6;" horiz-adv-x="1552" 
d="M745 193q-72 -88 -176.5 -148.5t-236.5 -60.5q-122 0 -190 71.5t-68 198.5q0 339 604 459v65q0 92 -40 136t-122 44q-170 0 -319 -145l-93 100q191 191 435 191q204 0 256 -168q55 82 132.5 125t159.5 43q184 0 286 -143t102 -414v-41h-639q4 -188 73 -288.5t187 -100.5
q89 0 147 46.5t109 141.5l114 -72q-59 -121 -155 -188.5t-224 -67.5q-112 0 -200.5 55t-141.5 161zM838 631h479q-8 154 -65.5 243t-164.5 89q-97 0 -166.5 -83.5t-82.5 -248.5zM680 592q-444 -95 -444 -316q0 -80 39.5 -119.5t111.5 -39.5q164 0 322 174q-31 108 -31 250
q0 35 2 51z" />
    <glyph glyph-name="ccedilla" unicode="&#xe7;" horiz-adv-x="933" 
d="M471 -416q-133 0 -233 74l49 78q83 -60 182 -60q123 0 123 93q0 67 -72 67q-48 0 -90 -39l-63 29l43 162q-147 31 -238.5 174t-91.5 379q0 141 34 251t93 177t134 101t161 34q79 0 141 -25t104 -71.5t69 -100.5t48 -125l-151 -41q-32 110 -80.5 165t-134.5 55
q-110 0 -181 -105t-71 -315q0 -198 66.5 -311t185.5 -113q86 0 141 54t86 169l145 -39q-93 -318 -370 -324l-23 -88q43 31 98 31q56 0 96 -36t40 -105q0 -90 -69.5 -142.5t-170.5 -52.5z" />
    <glyph glyph-name="egrave" unicode="&#xe8;" horiz-adv-x="962" 
d="M496 -23q-185 0 -300.5 145.5t-115.5 418.5q0 141 34.5 251.5t93.5 177t132.5 100.5t157.5 34q182 0 283.5 -143t101.5 -414v-41h-639q4 -188 73 -288.5t187 -100.5q90 0 148.5 46.5t107.5 141.5l114 -72q-59 -120 -155.5 -188t-222.5 -68zM246 631h479q-8 154 -65.5 243
t-163.5 89q-97 0 -167 -84t-83 -248zM467 1196l-246 320h193l164 -320h-111z" />
    <glyph glyph-name="eacute" unicode="&#xe9;" horiz-adv-x="962" 
d="M397 1196l166 320h193l-248 -320h-111zM496 -23q-185 0 -300.5 145.5t-115.5 418.5q0 141 34.5 251.5t93.5 177t132.5 100.5t157.5 34q182 0 283.5 -143t101.5 -414v-41h-639q4 -188 73 -288.5t187 -100.5q90 0 148.5 46.5t107.5 141.5l114 -72q-59 -120 -155.5 -188
t-222.5 -68zM246 631h479q-8 154 -65.5 243t-163.5 89q-97 0 -167 -84t-83 -248z" />
    <glyph glyph-name="ecircumflex" unicode="&#xea;" horiz-adv-x="962" 
d="M197 1190l225 326h115l225 -326h-103l-180 182l-182 -182h-100zM496 -23q-185 0 -300.5 145.5t-115.5 418.5q0 141 34.5 251.5t93.5 177t132.5 100.5t157.5 34q182 0 283.5 -143t101.5 -414v-41h-639q4 -188 73 -288.5t187 -100.5q90 0 148.5 46.5t107.5 141.5l114 -72
q-59 -120 -155.5 -188t-222.5 -68zM246 631h479q-8 154 -65.5 243t-163.5 89q-97 0 -167 -84t-83 -248z" />
    <glyph glyph-name="edieresis" unicode="&#xeb;" horiz-adv-x="962" 
d="M561 1194v184h164v-184h-164zM236 1194v184h165v-184h-165zM496 -23q-185 0 -300.5 145.5t-115.5 418.5q0 141 34.5 251.5t93.5 177t132.5 100.5t157.5 34q182 0 283.5 -143t101.5 -414v-41h-639q4 -188 73 -288.5t187 -100.5q90 0 148.5 46.5t107.5 141.5l114 -72
q-59 -120 -155.5 -188t-222.5 -68zM246 631h479q-8 154 -65.5 243t-163.5 89q-97 0 -167 -84t-83 -248z" />
    <glyph glyph-name="igrave" unicode="&#xec;" horiz-adv-x="450" 
d="M141 0v1081h166v-1081h-166zM182 1196l-245 320h192l164 -320h-111z" />
    <glyph glyph-name="iacute" unicode="&#xed;" horiz-adv-x="450" 
d="M160 1196l166 320h192l-248 -320h-110zM141 0v1081h166v-1081h-166z" />
    <glyph glyph-name="icircumflex" unicode="&#xee;" horiz-adv-x="450" 
d="M-57 1190l225 326h115l225 -326h-102l-181 182l-182 -182h-100zM141 0v1081h166v-1081h-166z" />
    <glyph glyph-name="idieresis" unicode="&#xef;" horiz-adv-x="450" 
d="M307 1194v184h164v-184h-164zM-18 1194v184h165v-184h-165zM141 0v1081h166v-1081h-166z" />
    <glyph glyph-name="eth" unicode="&#xf0;" horiz-adv-x="1013" 
d="M602 1231l-149 -86l-60 104l131 76q-53 56 -121 109l93 100q86 -64 153 -135l156 90l57 -107l-133 -77q110 -149 156.5 -334t46.5 -422q0 -276 -117 -424t-307 -148q-194 0 -311 147t-117 402q0 256 111 396.5t294 140.5q83 0 156 -41t111 -117q-45 183 -150 326z
M508 115q124 0 192 112t68 301q0 181 -67.5 293.5t-192.5 112.5q-126 0 -194 -108t-68 -298q0 -121 27.5 -212t87.5 -146t147 -55z" />
    <glyph glyph-name="ntilde" unicode="&#xf1;" horiz-adv-x="1028" 
d="M131 0v1081h166v-149q63 70 154 121t188 51q131 0 198.5 -76.5t67.5 -224.5v-803h-164v768q0 98 -35.5 144t-117.5 46q-72 0 -150 -45t-141 -110v-803h-166zM649 1186q-37 0 -77.5 18t-69 39t-61 39t-56.5 18q-37 0 -54.5 -25.5t-17.5 -84.5h-100q0 242 168 242
q47 0 98 -29t94.5 -57.5t73.5 -28.5q37 0 53.5 24.5t16.5 85.5h98q0 -241 -166 -241z" />
    <glyph glyph-name="ograve" unicode="&#xf2;" horiz-adv-x="1013" 
d="M508 -23q-91 0 -168.5 36.5t-135.5 106t-91 177.5t-33 244q0 270 119.5 416.5t308.5 146.5q188 0 307 -146.5t119 -416.5q0 -269 -119.5 -416.5t-306.5 -147.5zM508 117q126 0 193 113.5t67 310.5q0 120 -26.5 212.5t-86.5 150t-147 57.5q-128 0 -195 -113t-67 -307
q0 -123 26 -215.5t86 -150.5t150 -58zM477 1196l-246 320h193l164 -320h-111z" />
    <glyph glyph-name="oacute" unicode="&#xf3;" horiz-adv-x="1013" 
d="M424 1196l166 320h192l-247 -320h-111zM508 -23q-91 0 -168.5 36.5t-135.5 106t-91 177.5t-33 244q0 270 119.5 416.5t308.5 146.5q188 0 307 -146.5t119 -416.5q0 -269 -119.5 -416.5t-306.5 -147.5zM508 117q126 0 193 113.5t67 310.5q0 120 -26.5 212.5t-86.5 150
t-147 57.5q-128 0 -195 -113t-67 -307q0 -123 26 -215.5t86 -150.5t150 -58z" />
    <glyph glyph-name="ocircumflex" unicode="&#xf4;" horiz-adv-x="1013" 
d="M223 1190l226 326h114l225 -326h-102l-180 182l-182 -182h-101zM508 -23q-91 0 -168.5 36.5t-135.5 106t-91 177.5t-33 244q0 270 119.5 416.5t308.5 146.5q188 0 307 -146.5t119 -416.5q0 -269 -119.5 -416.5t-306.5 -147.5zM508 117q126 0 193 113.5t67 310.5
q0 120 -26.5 212.5t-86.5 150t-147 57.5q-128 0 -195 -113t-67 -307q0 -123 26 -215.5t86 -150.5t150 -58z" />
    <glyph glyph-name="otilde" unicode="&#xf5;" horiz-adv-x="1013" 
d="M508 -23q-91 0 -168.5 36.5t-135.5 106t-91 177.5t-33 244q0 270 119.5 416.5t308.5 146.5q188 0 307 -146.5t119 -416.5q0 -269 -119.5 -416.5t-306.5 -147.5zM508 117q126 0 193 113.5t67 310.5q0 120 -26.5 212.5t-86.5 150t-147 57.5q-128 0 -195 -113t-67 -307
q0 -123 26 -215.5t86 -150.5t150 -58zM641 1186q-37 0 -77.5 18t-69 39t-61 39t-56.5 18q-37 0 -54.5 -25.5t-17.5 -84.5h-100q0 242 168 242q47 0 98 -29t94.5 -57.5t73.5 -28.5q37 0 53.5 24.5t16.5 85.5h98q0 -241 -166 -241z" />
    <glyph glyph-name="odieresis" unicode="&#xf6;" horiz-adv-x="1013" 
d="M588 1194v184h164v-184h-164zM262 1194v184h166v-184h-166zM508 -23q-91 0 -168.5 36.5t-135.5 106t-91 177.5t-33 244q0 270 119.5 416.5t308.5 146.5q188 0 307 -146.5t119 -416.5q0 -269 -119.5 -416.5t-306.5 -147.5zM508 117q126 0 193 113.5t67 310.5
q0 120 -26.5 212.5t-86.5 150t-147 57.5q-128 0 -195 -113t-67 -307q0 -123 26 -215.5t86 -150.5t150 -58z" />
    <glyph glyph-name="divide" unicode="&#xf7;" horiz-adv-x="1095" 
d="M459 948v187h174v-187h-174zM100 604v141h895v-141h-895zM459 215v188h174v-188h-174z" />
    <glyph glyph-name="oslash" unicode="&#xf8;" horiz-adv-x="1013" 
d="M827 942q107 -148 107 -401q0 -269 -119.5 -416.5t-306.5 -147.5q-136 0 -244 82l-92 -143l-92 57l106 170q-106 147 -106 398q0 270 119.5 416.5t308.5 146.5q137 0 240 -80l92 141l92 -57zM285 283l383 608q-62 72 -160 72q-128 0 -197 -114.5t-69 -307.5
q0 -151 43 -258zM727 797l-387 -609q64 -73 168 -73q126 0 194 115t68 311q0 149 -43 256z" />
    <glyph glyph-name="ugrave" unicode="&#xf9;" horiz-adv-x="1028" 
d="M389 -23q-130 0 -198 77t-68 225v802h164v-772q0 -97 36.5 -142.5t122.5 -45.5q133 0 285 155v805h166v-1081h-166v150q-158 -173 -342 -173zM516 1196l-246 320h193l164 -320h-111z" />
    <glyph glyph-name="uacute" unicode="&#xfa;" horiz-adv-x="1028" 
d="M401 1196l166 320h193l-248 -320h-111zM389 -23q-130 0 -198 77t-68 225v802h164v-772q0 -97 36.5 -142.5t122.5 -45.5q133 0 285 155v805h166v-1081h-166v150q-158 -173 -342 -173z" />
    <glyph glyph-name="ucircumflex" unicode="&#xfb;" horiz-adv-x="1028" 
d="M231 1190l226 326h114l226 -326h-103l-180 182l-182 -182h-101zM389 -23q-130 0 -198 77t-68 225v802h164v-772q0 -97 36.5 -142.5t122.5 -45.5q133 0 285 155v805h166v-1081h-166v150q-158 -173 -342 -173z" />
    <glyph glyph-name="udieresis" unicode="&#xfc;" horiz-adv-x="1028" 
d="M596 1194v184h164v-184h-164zM270 1194v184h166v-184h-166zM389 -23q-130 0 -198 77t-68 225v802h164v-772q0 -97 36.5 -142.5t122.5 -45.5q133 0 285 155v805h166v-1081h-166v150q-158 -173 -342 -173z" />
    <glyph glyph-name="yacute" unicode="&#xfd;" horiz-adv-x="931" 
d="M180 -412q-90 0 -168 25l33 131q72 -16 131 -16q67 0 103 38.5t65 129.5l31 94l-338 1091h170l164 -565q41 -138 88 -326h4q45 174 92 338l160 553h157l-372 -1200q-50 -158 -118 -225.5t-202 -67.5zM383 1196l166 320h192l-247 -320h-111z" />
    <glyph glyph-name="thorn" unicode="&#xfe;" horiz-adv-x="1040" 
d="M131 -410v1926h166v-572q132 160 297 160q167 0 267 -140.5t100 -420.5t-104 -419.5t-273 -139.5t-287 147v-541h-166zM553 121q113 0 177.5 103t64.5 317q0 209 -66 314.5t-178 105.5q-124 0 -254 -150v-543q122 -147 256 -147z" />
    <glyph glyph-name="ydieresis" unicode="&#xff;" horiz-adv-x="931" 
d="M180 -412q-90 0 -168 25l33 131q72 -16 131 -16q67 0 103 38.5t65 129.5l31 94l-338 1091h170l164 -565q41 -138 88 -326h4q45 174 92 338l160 553h157l-372 -1200q-50 -158 -118 -225.5t-202 -67.5zM547 1194v184h164v-184h-164zM221 1194v184h166v-184h-166z" />
    <glyph glyph-name="dotlessi" unicode="&#x131;" horiz-adv-x="450" 
d="M141 0v1081h166v-1081h-166z" />
    <glyph glyph-name="Lslash" unicode="&#x141;" horiz-adv-x="991" 
d="M156 0v639l-127 -57v141l127 59v734h172v-668l252 123v-146l-252 -116v-553h600v-156h-772z" />
    <glyph glyph-name="lslash" unicode="&#x142;" horiz-adv-x="532" 
d="M184 0v909l-145 -69v139l145 70v467h164v-406l146 70v-140l-146 -69v-971h-164z" />
    <glyph glyph-name="OE" unicode="&#x152;" horiz-adv-x="1898" 
d="M1028 1307v209h758v-158h-602v-481h442v-154h-442v-567h639v-156h-795v213q-62 -120 -160.5 -181t-224.5 -61q-119 0 -219.5 52t-174 149.5t-114.5 248t-41 337.5t41 337t114.5 248t174 149.5t219.5 51.5q125 0 223.5 -60.5t161.5 -176.5zM643 127q173 0 273 166.5
t100 464.5t-100 463t-273 165q-176 0 -276.5 -165t-100.5 -463q0 -299 100.5 -465t276.5 -166z" />
    <glyph glyph-name="oe" unicode="&#x153;" horiz-adv-x="1644" 
d="M846 891q54 105 141 159t191 54q184 0 286.5 -143.5t102.5 -413.5v-41h-641q6 -188 75 -288.5t187 -100.5q89 0 147 46.5t107 141.5l114 -72q-125 -256 -378 -256q-108 0 -194 54t-138 157q-55 -103 -142 -157t-196 -54q-91 0 -168.5 36.5t-135.5 106t-91 177.5t-33 244
q0 270 119.5 416.5t308.5 146.5q109 0 196.5 -54.5t141.5 -158.5zM928 631h479q-8 155 -64.5 243.5t-164.5 88.5q-97 0 -166.5 -83.5t-83.5 -248.5zM508 117q126 0 193 113.5t67 310.5q0 120 -26.5 212.5t-86.5 150t-147 57.5q-128 0 -195 -113t-67 -307q0 -123 26 -215.5
t86 -150.5t150 -58z" />
    <glyph glyph-name="Scaron" unicode="&#x160;" horiz-adv-x="1120" 
d="M502 1610l-226 325h105l180 -186l180 186h101l-226 -325h-114zM571 -25q-349 0 -503 359l147 67q118 -274 356 -274q132 0 208.5 66.5t76.5 177.5q0 37 -9.5 70t-23 58.5t-39.5 51t-48 42.5t-59.5 38.5t-62.5 34.5t-69 34q-157 75 -219 118q-162 111 -186 281
q-5 32 -5 68q0 164 118 270.5t294 106.5q168 0 279.5 -87.5t172.5 -231.5l-147 -72q-104 240 -307 240q-107 0 -173.5 -61t-66.5 -158q0 -37 9.5 -70t23 -58.5t38.5 -51t46.5 -43t58.5 -39t61.5 -34.5t67.5 -34q159 -75 225 -121q165 -115 186 -292q3 -27 3 -56
q0 -170 -124.5 -285t-328.5 -115z" />
    <glyph glyph-name="scaron" unicode="&#x161;" horiz-adv-x="890" 
d="M389 1196l-225 326h104l181 -187l180 187h100l-225 -326h-115zM444 -23q-265 0 -403 222l113 82q54 -81 129.5 -124.5t162.5 -43.5q103 0 159.5 42t56.5 117q0 54 -31 93.5t-81 64t-110 46t-120 48t-110 61t-81 92.5t-31 136q0 129 95.5 210t246.5 81q229 0 357 -195
l-111 -86q-94 144 -248 144q-89 0 -134.5 -40t-45.5 -106q0 -54 31 -93t80 -63t109 -45t119.5 -46.5t108.5 -60t80 -93.5t31 -139q0 -138 -106.5 -221t-266.5 -83z" />
    <glyph glyph-name="Ydieresis" unicode="&#x178;" horiz-adv-x="1077" 
d="M453 0v625l-420 891h176l332 -734h4l332 734h165l-417 -887v-629h-172zM621 1608v184h163v-184h-163zM295 1608v184h166v-184h-166z" />
    <glyph glyph-name="Zcaron" unicode="&#x17d;" horiz-adv-x="1079" 
d="M481 1610l-225 325h104l181 -186l180 186h100l-225 -325h-115zM68 0v129l725 1229h-676v158h876v-130l-721 -1230h721v-156h-925z" />
    <glyph glyph-name="zcaron" unicode="&#x17e;" horiz-adv-x="880" 
d="M383 1196l-225 326h104l180 -187l181 187h100l-225 -326h-115zM66 0v106l526 838h-481v137h677v-108l-526 -838h549v-135h-745z" />
    <glyph glyph-name="florin" unicode="&#x192;" horiz-adv-x="700" 
d="M223 735h-164l21 135h162l51 375q20 145 102 211t223 66q10 0 91 -9l-23 -139q-54 6 -65 6q-71 0 -112.5 -32t-51.5 -109l-51 -369h200l-20 -135h-199l-121 -885q-20 -138 -96.5 -201t-216.5 -63q-31 0 -100 6l24 138q24 -6 62 -6q145 0 167 147z" />
    <glyph glyph-name="circumflex" unicode="&#x2c6;" horiz-adv-x="909" 
d="M172 1190l225 326h115l225 -326h-102l-180 182l-183 -182h-100z" />
    <glyph glyph-name="caron" unicode="&#x2c7;" horiz-adv-x="909" 
d="M397 1196l-225 326h104l181 -187l180 187h100l-225 -326h-115z" />
    <glyph glyph-name="breve" unicode="&#x2d8;" horiz-adv-x="909" 
d="M457 1186q-126 0 -195.5 89.5t-77.5 248.5h105q12 -112 53.5 -163.5t114.5 -51.5q146 0 166 215h104q-8 -159 -76.5 -248.5t-193.5 -89.5z" />
    <glyph glyph-name="dotaccent" unicode="&#x2d9;" horiz-adv-x="909" 
d="M360 1194v180h189v-180h-189z" />
    <glyph glyph-name="ring" unicode="&#x2da;" horiz-adv-x="909" 
d="M455 1176q-79 0 -126.5 55t-47.5 141t47.5 140.5t126.5 54.5q77 0 125.5 -55t48.5 -140t-48.5 -140.5t-125.5 -55.5zM455 1255q40 0 63 34t23 83q0 48 -23 80.5t-63 32.5t-63 -32.5t-23 -80.5q0 -49 23 -83t63 -34z" />
    <glyph glyph-name="ogonek" unicode="&#x2db;" horiz-adv-x="909" 
d="M444 -387q-86 0 -132 42.5t-46 117.5q0 61 43.5 125t108.5 112h98q-61 -45 -94 -100.5t-33 -110.5q0 -96 90 -96q67 0 160 49l43 -63q-115 -76 -238 -76z" />
    <glyph glyph-name="tilde" unicode="&#x2dc;" horiz-adv-x="909" 
d="M590 1186q-37 0 -77.5 18t-69 39t-61 39t-56.5 18q-37 0 -54.5 -25.5t-17.5 -84.5h-100q0 242 168 242q47 0 98 -29t94.5 -57.5t73.5 -28.5q36 0 52.5 24.5t16.5 85.5h99q0 -241 -166 -241z" />
    <glyph glyph-name="hungarumlaut" unicode="&#x2dd;" horiz-adv-x="909" 
d="M518 1196l170 320h195l-252 -320h-113zM219 1196l166 320h197l-248 -320h-115z" />
    <glyph glyph-name="Delta" unicode="&#x394;" horiz-adv-x="1058" 
d="M201 0v944h-158v137h158v164q0 273 295 273q69 0 79 -5v-137q-2 0 -30 1t-31 1q-149 0 -149 -137v-160h202v-137h-202v-944h-164zM750 1296v179h168v-179h-168zM690 -412q-64 0 -86 9v129q30 -5 58 -5q88 0 88 117v1243h165v-1249q0 -126 -51 -185t-174 -59z" />
    <glyph glyph-name="Delta" unicode="&#x2206;" horiz-adv-x="1058" 
d="M201 0v944h-158v137h158v164q0 273 295 273q69 0 79 -5v-137q-2 0 -30 1t-31 1q-149 0 -149 -137v-160h202v-137h-202v-944h-164zM750 1296v179h168v-179h-168zM690 -412q-64 0 -86 9v129q30 -5 58 -5q88 0 88 117v1243h165v-1249q0 -126 -51 -185t-174 -59z" />
    <glyph glyph-name="space.tab" unicode="&#x2007;" horiz-adv-x="577" 
 />
    <glyph glyph-name="endash.tab" unicode="&#x2012;" 
d="M115 567v148h927v-148h-927z" />
    <glyph glyph-name="endash" unicode="&#x2013;" horiz-adv-x="1140" 
d="M106 567v148h928v-148h-928z" />
    <glyph glyph-name="emdash" unicode="&#x2014;" horiz-adv-x="1560" 
d="M104 567v148h1350v-148h-1350z" />
    <glyph glyph-name="quoteleft" unicode="&#x2018;" horiz-adv-x="487" 
d="M150 1090v196l96 230h78l-56 -216h68v-210h-186z" />
    <glyph glyph-name="quoteright" unicode="&#x2019;" horiz-adv-x="487" 
d="M164 1090l55 213h-72v213h189v-197l-94 -229h-78z" />
    <glyph glyph-name="quotesinglbase" unicode="&#x201a;" horiz-adv-x="487" 
d="M164 -215l55 215h-72v213h189v-197l-94 -231h-78z" />
    <glyph glyph-name="quotedblleft" unicode="&#x201c;" horiz-adv-x="841" 
d="M506 1090v196l94 230h76l-53 -216h69v-210h-186zM150 1090v196l96 230h78l-56 -216h68v-210h-186z" />
    <glyph glyph-name="quotedblright" unicode="&#x201d;" horiz-adv-x="841" 
d="M520 1090l55 213h-69v213h184v-197l-94 -229h-76zM164 1090l55 213h-72v213h189v-197l-94 -229h-78z" />
    <glyph glyph-name="quotedblbase" unicode="&#x201e;" horiz-adv-x="841" 
d="M520 -215l55 215h-69v213h184v-197l-94 -231h-76zM164 -215l55 215h-72v213h189v-197l-94 -231h-78z" />
    <glyph glyph-name="dagger" unicode="&#x2020;" horiz-adv-x="991" 
d="M406 -410l28 1262l-354 -21v158l354 -24l-28 551h178l-27 -551l354 24v-158l-354 21l27 -1262h-178z" />
    <glyph glyph-name="daggerdbl" unicode="&#x2021;" horiz-adv-x="989" 
d="M406 -410l28 480l-340 -23v156l340 -23l-20 377l20 371l-340 -23v156l340 -23l-28 478h178l-29 -478l340 23v-156l-340 23l23 -371l-23 -377l340 23v-156l-340 23l29 -480h-178z" />
    <glyph glyph-name="bullet" unicode="&#x2022;" horiz-adv-x="948" 
d="M473 475q-104 0 -173 69t-69 173q0 106 69 175t173 69q106 0 175 -69t69 -175q0 -104 -69 -173t-175 -69z" />
    <glyph glyph-name="ellipsis" unicode="&#x2026;" horiz-adv-x="1456" 
d="M1116 0v213h191v-213h-191zM631 0v213h190v-213h-190zM145 0v213h191v-213h-191z" />
    <glyph glyph-name="perthousand" unicode="&#x2030;" horiz-adv-x="2396" 
d="M391 612q-143 0 -221 119.5t-78 345.5q0 225 78 344t221 119t219 -119t76 -344q0 -227 -76 -346t-219 -119zM397 0l770 1516h144l-770 -1516h-144zM2009 -20q-143 0 -221 119t-78 345q0 225 78 344t221 119q141 0 217 -119t76 -344q0 -226 -75.5 -345t-217.5 -119z
M1323 -20q-143 0 -221 119t-78 345q0 225 78 344t221 119q141 0 217 -119t76 -344q0 -226 -75.5 -345t-217.5 -119zM391 741q79 0 116.5 81.5t37.5 254.5q0 334 -154 334q-80 0 -117.5 -80.5t-37.5 -253.5q0 -336 155 -336zM2009 106q79 0 116.5 82t37.5 256q0 332 -154 332
q-82 0 -120 -80t-38 -252q0 -338 158 -338zM1323 106q79 0 116.5 82t37.5 256q0 332 -154 332q-82 0 -120 -80t-38 -252q0 -338 158 -338z" />
    <glyph glyph-name="guilsinglleft" unicode="&#x2039;" horiz-adv-x="565" 
d="M315 0l-254 541l254 538h162l-248 -538l248 -541h-162z" />
    <glyph glyph-name="guilsinglright" unicode="&#x203a;" horiz-adv-x="565" 
d="M86 0l250 541l-250 538h164l254 -538l-254 -541h-164z" />
    <glyph glyph-name="fraction" unicode="&#x2044;" horiz-adv-x="899" 
d="M-8 0l762 1516h151l-762 -1516h-151z" />
    <glyph glyph-name="fraction" unicode="&#x2215;" horiz-adv-x="899" 
d="M-8 0l762 1516h151l-762 -1516h-151z" />
    <glyph glyph-name="Euro" unicode="&#x20ac;" horiz-adv-x="1236" 
d="M233 846h-202v131h213q33 288 157 427.5t316 139.5q93 0 168 -32.5t127.5 -92t86 -137t50.5 -172.5l-160 -29q-29 150 -91 231t-179 81q-261 0 -309 -416h360v-131h-371q-2 -27 -2 -80q0 -67 2 -98h371v-131h-360q25 -209 102.5 -312.5t214.5 -103.5q119 0 187.5 83.5
t99.5 244.5l155 -25q-36 -202 -149.5 -327.5t-292.5 -125.5q-199 0 -324 139.5t-159 426.5h-213v131h202q-2 31 -2 96q0 55 2 82z" />
    <glyph glyph-name="trademark" unicode="&#x2122;" horiz-adv-x="1531" 
d="M717 637v879h151l201 -699l201 699h155v-879h-118v647l-189 -647h-102l-191 649v-649h-108zM266 637v766h-215v113h557v-113h-219v-766h-123z" />
    <glyph glyph-name="minus" unicode="&#x2212;" horiz-adv-x="1095" 
d="M100 604v141h895v-141h-895z" />
    <glyph glyph-name="radical" unicode="&#x221a;" horiz-adv-x="1026" 
d="M362 -4l-327 1085h166l174 -614q38 -132 78 -291h4q39 153 78 291l301 1049h155l-456 -1520h-173z" />
    <glyph glyph-name="infinity" unicode="&#x221e;" horiz-adv-x="1667" 
d="M201 0v944h-158v137h158v164q0 273 295 273q69 0 79 -5v-137q-2 0 -30 1t-31 1q-149 0 -149 -137v-160h202v-137h-202v-944h-164zM809 0v944h-158v137h158v164q0 273 295 273q70 0 80 -5v-137q-2 0 -30.5 1t-31.5 1q-149 0 -149 -137v-160h203v-137h-203v-944h-164z
M1358 1296v179h168v-179h-168zM1358 0v1081h166v-1081h-166z" />
    <glyph glyph-name="approxequal" unicode="&#x2248;" 
d="M801 334q-47 1 -117.5 24t-130 50.5t-120.5 50.5t-91 24q-44 2 -68.5 -19t-31.5 -77l-113 16q12 115 69.5 172t145.5 52q58 -2 152.5 -38t180.5 -72t124 -38q44 -2 68 17.5t30 74.5l115 -12q-10 -115 -66.5 -171.5t-146.5 -53.5zM813 729q-59 2 -154.5 38.5t-182 73
t-124.5 38.5q-42 2 -66.5 -19.5t-31.5 -75.5l-113 15q10 115 67.5 171.5t147.5 53.5q58 -3 152 -39.5t180 -72.5t125 -38q88 -7 98 95l115 -13q-10 -117 -67 -174.5t-146 -52.5z" />
    <glyph glyph-name="notequal" unicode="&#x2260;" horiz-adv-x="1216" 
d="M201 0v944h-158v137h158v164q0 273 295 273q69 0 79 -5v-137q-2 0 -30 1t-31 1q-149 0 -149 -137v-160h202v-137h-202v-944h-164zM809 0v944h-158v137h158v164q0 273 295 273q70 0 80 -5v-137q-2 0 -30.5 1t-31.5 1q-149 0 -149 -137v-160h203v-137h-203v-944h-164z" />
    <glyph glyph-name="lessequal" unicode="&#x2264;" horiz-adv-x="1171" 
d="M1026 328l-897 368v115l897 369v-152l-702 -274l702 -273v-153zM119 123v133h923v-133h-923z" />
    <glyph glyph-name="greaterequal" unicode="&#x2265;" horiz-adv-x="1169" 
d="M156 328v153l704 273l-704 274v152l899 -369v-115zM131 123v133h924v-133h-924z" />
    <glyph glyph-name="lozenge" unicode="&#x25ca;" horiz-adv-x="0" 
 />
    <glyph glyph-name="apple" unicode="&#xf8ff;" horiz-adv-x="1587" 
d="M393 1157v51l340 -22l-26 330h176l-29 -330l342 22v-51h49l-22 -340l327 27v-176l-327 28l22 -342h-49v-45l-342 23l29 -332h-176l26 332l-340 -23v45h-49l23 342l-332 -28v176l332 -27l-23 340h49zM1106 1071l-256 14v-274h272zM739 811v274l-256 -14l-16 -260h272z
M850 700v-270l256 16l16 254h-272zM483 446l256 -16v270h-272z" />
    <glyph glyph-name="zero.tab" 
d="M580 -25q-237 0 -360.5 200.5t-123.5 582.5q0 383 123 582.5t361 199.5q237 0 358 -199t121 -583q0 -383 -121 -583t-358 -200zM580 127q156 0 236.5 152t80.5 479q0 633 -317 633q-157 0 -238.5 -152.5t-81.5 -480.5q0 -631 320 -631z" />
    <glyph glyph-name="one.tab" 
d="M236 0v152h288v1185q-46 -28 -131.5 -48.5t-152.5 -20.5v149q89 3 169 28.5t121 70.5h160v-1364h260v-152h-714z" />
    <glyph glyph-name="two.tab" 
d="M133 0v33q0 114 28.5 209.5t89 180.5t136.5 156.5t188 155.5q131 100 192.5 190.5t61.5 207.5q0 124 -59.5 188.5t-177.5 64.5q-101 0 -174 -58t-121 -187l-143 59q63 167 177 254.5t271 87.5q184 0 288.5 -108.5t104.5 -290.5q0 -70 -16 -132t-43.5 -112.5t-73 -101.5
t-94 -93t-117.5 -94q-159 -122 -243.5 -232t-90.5 -224h682v-154h-866z" />
    <glyph glyph-name="three.tab" 
d="M555 -27q-163 0 -283.5 82t-183.5 226l141 65q55 -118 135 -170.5t187 -52.5q135 0 211 79.5t76 211.5q0 166 -89 241.5t-305 75.5h-53v146h66q193 0 272.5 64t79.5 204q0 113 -60 179.5t-190 66.5q-182 0 -287 -183l-129 76q153 256 426 256q102 0 181.5 -30
t127.5 -82.5t72.5 -120t24.5 -146.5q0 -143 -68 -234t-184 -118q141 -36 211 -130.5t70 -264.5q0 -194 -121.5 -317.5t-327.5 -123.5z" />
    <glyph glyph-name="four.tab" 
d="M711 0v360h-615v123l584 1033h192v-1012h209v-144h-209v-360h-161zM266 504h447v776h-4z" />
    <glyph glyph-name="five.tab" 
d="M565 -27q-158 0 -272.5 86.5t-173.5 227.5l141 65q100 -227 301 -227q100 0 168.5 52t98.5 134.5t30 188.5q0 174 -73 265t-201 91q-174 0 -273 -172l-125 35l50 797h714l-12 -154h-563l-33 -490q95 132 281 132q185 0 293 -128t108 -370q0 -245 -123.5 -389t-335.5 -144
z" />
    <glyph glyph-name="six.tab" 
d="M600 -27q-218 0 -345.5 191t-127.5 567q0 372 135.5 591.5t370.5 219.5q131 0 213 -52t139 -138l-125 -90q-48 66 -98.5 97.5t-130.5 31.5q-161 0 -249 -161t-93 -446q153 170 352 170q205 0 306.5 -129.5t101.5 -347.5q0 -223 -119.5 -363.5t-329.5 -140.5zM608 121
q132 0 205.5 91t73.5 261q0 332 -271 332q-95 0 -180 -46t-145 -128q17 -255 100 -382.5t217 -127.5z" />
    <glyph glyph-name="seven.tab" 
d="M289 0l540 1362h-657v154h829v-144l-542 -1372h-170z" />
    <glyph glyph-name="eight.tab" 
d="M580 -29q-222 0 -349 110.5t-127 280.5q0 147 87.5 250t252.5 191q-68 37 -115.5 72.5t-86.5 80.5t-58.5 102t-19.5 126q0 149 112.5 253.5t303.5 104.5q98 0 178 -29.5t131 -79.5t78.5 -114t27.5 -135q0 -126 -71 -214t-209 -163q84 -45 140 -84.5t104.5 -92.5t72 -119
t23.5 -149q0 -168 -128 -279.5t-347 -111.5zM580 111q139 0 225 70.5t86 189.5q0 116 -77.5 195.5t-240.5 162.5q-160 -86 -233.5 -165.5t-73.5 -192.5q0 -116 87.5 -188t226.5 -72zM586 877q132 70 191 136t59 163q0 94 -64.5 160.5t-189.5 66.5q-122 0 -191 -65t-69 -156
q0 -101 62 -166t202 -139z" />
    <glyph glyph-name="nine.tab" 
d="M522 -27q-70 0 -129 16.5t-102.5 48t-73.5 63t-59 73.5l125 88q52 -70 104.5 -103.5t136.5 -33.5q161 0 249 160.5t93 445.5q-152 -166 -352 -166q-205 0 -306.5 128.5t-101.5 346.5q0 221 119.5 361.5t329.5 140.5q218 0 345.5 -190.5t127.5 -567.5
q0 -372 -135.5 -591.5t-370.5 -219.5zM539 711q94 0 179 46.5t146 129.5q-17 254 -100 381t-217 127q-132 0 -205.5 -91t-73.5 -260q0 -333 271 -333z" />
    <glyph glyph-name="plus.tab" 
d="M506 190v422h-377v140h377v422h147v-422h375v-140h-375v-422h-147z" />
    <glyph glyph-name="minus.tab" 
d="M131 612v140h895v-140h-895z" />
    <glyph glyph-name="multiply.tab" 
d="M270 256l-96 94l307 305l-307 303l98 99l306 -305l305 305l98 -96l-307 -306l309 -301l-96 -96l-309 303z" />
    <glyph glyph-name="divide.tab" 
d="M487 215v186h177v-186h-177zM129 612v140h899v-140h-899zM487 958v187h177v-187h-177z" />
    <glyph glyph-name="equal.tab" 
d="M131 381v133h895v-133h-895zM131 819v135h895v-135h-895z" />
    <glyph glyph-name="less.tab" 
d="M1024 168l-899 438v117l899 440v-153l-725 -346l725 -345v-151z" />
    <glyph glyph-name="greater.tab" 
d="M147 168v151l725 345l-725 346v153l900 -440v-117z" />
    <glyph glyph-name="dollar.tab" 
d="M516 -190v188q-295 33 -414 321l142 54q49 -104 114.5 -164.5t165.5 -73.5v586q-49 21 -80 36t-74.5 40t-71.5 47.5t-59 55.5t-48.5 69t-29 83t-11.5 101q0 147 95.5 250t270.5 117v157h129v-159q253 -32 363 -285l-136 -66q-46 91 -100.5 142t-136.5 65v-528
q44 -19 66.5 -29.5t64 -31t64.5 -35t57 -39t53.5 -47t42.5 -54t35 -64t20.5 -74t8.5 -87.5q0 -164 -105 -269t-297 -118v-188h-129zM885 371q0 58 -19 105t-56 82.5t-77.5 61.5t-97.5 52v-537q116 9 183 67.5t67 168.5zM313 1165q0 -94 54.5 -155t156.5 -111v479
q-88 -12 -149.5 -65.5t-61.5 -147.5z" />
    <glyph glyph-name="cent.tab" horiz-adv-x="933" 
d="M240 -246l59 277q-104 64 -161.5 195t-57.5 315q0 139 33 248.5t91 177t132.5 102.5t161.5 35q22 0 32 -2l43 194h132l-50 -225q146 -68 209 -287l-149 -41q-47 142 -103 191l-174 -821q31 -7 60 -7q86 0 141 58t88 176l143 -39q-46 -155 -140 -239.5t-236 -84.5
q-34 0 -74 7l-49 -230h-131zM244 541q0 -255 98 -367l172 797q-3 0 -8.5 1t-7.5 1q-110 0 -182 -110t-72 -322z" />
    <glyph glyph-name="Euro.tab" 
d="M670 -25q-193 0 -316 137.5t-157 424.5h-193v129h182q-4 107 -2 180h-180v127h191q35 291 160.5 429t312.5 138q178 0 277 -108t142 -320l-151 -33q-19 84 -39 139t-51 96.5t-74 60t-104 18.5q-126 0 -208 -106t-106 -314h351v-127h-359q-3 -19 -3 -85.5t3 -94.5h359
v-129h-349q25 -211 103.5 -312.5t212.5 -101.5q120 0 184.5 80t99.5 252l150 -31q-96 -449 -436 -449z" />
    <glyph glyph-name="sterling.tab" 
d="M293 -25q-90 0 -152.5 54t-62.5 153q0 101 60.5 163.5t158.5 62.5q93 0 180 -80q9 56 6 123q-2 106 -73 282h-226v125h164q-80 178 -80 313q0 166 93 267.5t253 101.5q91 0 159.5 -30t109.5 -84.5t62 -121t26 -147.5l-152 -20q-14 262 -203 262q-90 0 -138 -58.5
t-48 -166.5q0 -127 86 -316h295v-125h-238q60 -163 60 -299q0 -111 -33 -215q36 -35 58.5 -54t57.5 -36.5t68 -17.5q72 0 106 64.5t40 213.5h141q-2 -96 -16 -167.5t-44 -129t-83.5 -87.5t-128.5 -30q-76 0 -139 36t-125 98q-41 -64 -104 -99t-138 -35zM295 86
q111 0 156 117q-42 46 -77 70t-75 24q-45 0 -73.5 -30t-28.5 -81q0 -47 28 -73.5t70 -26.5z" />
    <glyph glyph-name="yen.tab" 
d="M489 0v246h-321v129h321v180h-321v127h309l-397 834h178l320 -705h2q2 7 317 705h172l-401 -834h311v-127h-322v-180h322v-129h-322v-246h-168z" />
    <glyph glyph-name="florin.tab" 
d="M94 -410l21 134q18 -3 61 -3q149 0 170 146l131 926h-162q5 15 21 129h160l45 323q20 144 99 208.5t232 64.5q9 0 45.5 -1t38.5 -1l-20 -136q-24 4 -62 4q-153 0 -169 -137l-46 -325h201l-16 -129h-203l-133 -938q-20 -141 -98 -204t-228 -63q-9 0 -30 0.5t-39 1t-19 0.5
z" />
    <glyph glyph-name="numbersign.tab" 
d="M166 0l74 438h-183v135h203l66 371h-199v133h217l74 439h141l-72 -439h281l76 439h141l-74 -439h189v-133h-209l-66 -371h203v-135h-221l-74 -438h-141l72 438h-283l-74 -438h-141zM401 573h283l66 371h-283z" />
    <glyph glyph-name="percent.tab" horiz-adv-x="1748" 
d="M430 623q-147 0 -221 121t-74 331q0 215 76.5 337t220.5 122q143 0 219 -121.5t76 -331.5t-75.5 -334t-221.5 -124zM432 748q78 0 116 88.5t38 240.5q0 330 -156 330q-79 0 -116.5 -87t-37.5 -239q0 -158 38.5 -245.5t117.5 -87.5zM1319 -18q-146 0 -219.5 122.5
t-73.5 331.5q0 214 76 336.5t221 122.5q143 0 218 -121.5t75 -333.5q0 -210 -75 -334t-222 -124zM1321 109q79 0 117.5 88.5t38.5 240.5q0 156 -39.5 243t-118.5 87q-78 0 -116 -88t-38 -240q0 -331 156 -331zM440 0l742 1516h127l-740 -1516h-129z" />
    <glyph glyph-name="period.tab" horiz-adv-x="577" 
d="M190 0v213h197v-213h-197z" />
    <glyph glyph-name="comma.tab" horiz-adv-x="577" 
d="M215 -215l55 215h-80v213h197v-193l-98 -235h-74z" />
    <glyph glyph-name="colon.tab" horiz-adv-x="577" 
d="M190 0v213h195v-213h-195zM190 870v211h195v-211h-195z" />
    <glyph glyph-name="semicolon.tab" horiz-adv-x="577" 
d="M215 -215l53 215h-78v213h195v-190l-96 -238h-74zM190 870v211h195v-211h-195z" />
    <glyph glyph-name="parenleft.tab" horiz-adv-x="577" 
d="M475 -420q-436 426 -436 979q0 551 436 977l86 -74q-172 -188 -267 -417.5t-95 -485.5q0 -258 96 -491t268 -416z" />
    <glyph glyph-name="parenright.tab" horiz-adv-x="577" 
d="M106 -420l-90 72q174 189 270.5 419.5t96.5 487.5q0 256 -96.5 488.5t-268.5 414.5l88 74q435 -425 435 -977q0 -550 -435 -979z" />
    <glyph glyph-name="asterisk.tab" 
d="M432 768l-100 57l190 283l-338 -23v113l340 -24l-192 284l100 60l148 -310l147 310l98 -60l-190 -282l338 22v-113l-338 23l190 -283l-98 -57l-147 307z" />
    <glyph glyph-name="periodcentered.tab" horiz-adv-x="577" 
d="M195 535v202h192v-202h-192z" />
    <glyph glyph-name="slash.tab" 
d="M125 0l745 1516h164l-745 -1516h-164z" />
    </font>
</defs>
</svg>
