<?xml version="1.0" standalone="no"?>
<!DOCTYPE svg PUBLIC "-//W3C//DTD SVG 1.1//EN" "http://www.w3.org/Graphics/SVG/1.1/DTD/svg11.dtd" >
<svg xmlns="http://www.w3.org/2000/svg" xmlns:xlink="http://www.w3.org/1999/xlink" version="1.1">
<metadata>
Created by FontForge 20170731 at Thu Oct  8 12:50:49 2020
 By Aleksey,,,
Copyright (c) The Font Bureau, Inc., 2008. All rights reserved.
</metadata>
<defs>
<font id="BentonSansCond-Medium" horiz-adv-x="1155" >
  <font-face 
    font-family="BentonSansCond Medium"
    font-weight="500"
    font-stretch="condensed"
    units-per-em="2048"
    panose-1="2 0 6 6 4 0 0 2 0 4"
    ascent="1612"
    descent="-436"
    x-height="1085"
    cap-height="1516"
    bbox="-150 -422 2447 1942"
    underline-thickness="40"
    underline-position="-312"
    unicode-range="U+0020-FB02"
  />
<missing-glyph horiz-adv-x="432" 
 />
    <glyph glyph-name="fi" unicode="fi" horiz-adv-x="1097" 
d="M735 1264v219h236v-219h-236zM193 0v899h-156v186h156v134q0 141 75.5 221t235.5 80q80 0 108 -7v-188q-16 4 -59 4q-127 0 -127 -127v-117h178v-186h-178v-899h-233zM737 0v1085h232v-1085h-232z" />
    <glyph glyph-name="fl" unicode="fl" horiz-adv-x="1097" 
d="M193 0v899h-156v186h156v134q0 141 75.5 221t235.5 80q80 0 108 -7v-188q-16 4 -59 4q-127 0 -127 -127v-117h178v-186h-178v-899h-233zM737 0v1516h232v-1516h-232z" />
    <glyph glyph-name="f_f_l" unicode="ffl" horiz-adv-x="1808" 
d="M193 0v899h-156v186h156v134q0 144 73 222.5t248 78.5q91 0 119 -7v-188q-16 4 -70 4q-65 0 -101 -28t-36 -99v-117h199v-186h-199v-899h-233zM852 0v899h-156v186h156v134q0 144 73.5 222.5t248.5 78.5q90 0 118 -7v-188q-16 4 -69 4q-65 0 -101.5 -28t-36.5 -99v-117
h199v-186h-199v-899h-233zM1446 0v1516h233v-1516h-233z" />
    <glyph glyph-name="f_f_i" unicode="ffi" horiz-adv-x="1808" 
d="M193 0v899h-156v186h156v134q0 144 73 222.5t248 78.5q91 0 119 -7v-188q-16 4 -70 4q-65 0 -101 -28t-36 -99v-117h199v-186h-199v-899h-233zM852 0v899h-156v186h156v134q0 144 73.5 222.5t248.5 78.5q90 0 118 -7v-188q-16 4 -69 4q-65 0 -101.5 -28t-36.5 -99v-117
h199v-186h-199v-899h-233zM1446 1264v219h235v-219h-235zM1446 0v1085h233v-1085h-233z" />
    <glyph glyph-name="f_f" unicode="ff" horiz-adv-x="1318" 
d="M193 0v899h-156v186h156v134q0 144 73 222.5t248 78.5q91 0 119 -7v-188q-16 4 -70 4q-65 0 -101 -28t-36 -99v-117h199v-186h-199v-899h-233zM852 0v899h-156v186h156v134q0 144 73.5 222.5t248.5 78.5q90 0 118 -7v-188q-16 4 -69 4q-65 0 -101.5 -28t-36.5 -99v-117
h199v-186h-199v-899h-233z" />
    <glyph glyph-name="f_j" unicode="fj" horiz-adv-x="1148" 
d="M193 0v899h-156v186h156v134q0 144 73 222.5t248 78.5q91 0 119 -7v-188q-16 4 -70 4q-65 0 -101 -28t-36 -99v-117h199v-186h-199v-899h-233zM786 1264v219h236v-219h-236zM745 -412q-93 0 -120 9v176q18 -6 65 -6q49 0 72.5 29t23.5 91v1198h234v-1220
q0 -138 -60 -207.5t-215 -69.5z" />
    <glyph glyph-name=".notdef" horiz-adv-x="432" 
 />
    <glyph glyph-name=".notdef" horiz-adv-x="432" 
 />
    <glyph glyph-name=".null" horiz-adv-x="0" 
 />
    <glyph glyph-name="nonmarkingreturn" horiz-adv-x="682" 
 />
    <glyph glyph-name="space" unicode=" " horiz-adv-x="432" 
 />
    <glyph glyph-name="space" unicode="&#xa0;" horiz-adv-x="432" 
 />
    <glyph glyph-name="exclam" unicode="!" horiz-adv-x="608" 
d="M217 434l-53 1082h285l-52 -1082h-180zM176 0v248h262v-248h-262z" />
    <glyph glyph-name="quotedbl" unicode="&#x22;" horiz-adv-x="792" 
d="M496 983l-29 412v121h207v-121l-29 -412h-149zM147 983l-28 412v121h209v-121l-29 -412h-152z" />
    <glyph glyph-name="numbersign" unicode="#" horiz-adv-x="1294" 
d="M174 0l74 418h-195v184h228l55 311h-207v185h242l73 418h211l-73 -418h239l74 418h211l-74 -418h209v-185h-242l-57 -311h223v-184h-256l-71 -418h-213l73 418h-237l-74 -418h-213zM492 598h239l57 320h-239z" />
    <glyph glyph-name="dollar" unicode="$" horiz-adv-x="1165" 
d="M494 2q-307 40 -418 375l205 63q40 -99 93 -159.5t128 -81.5v491q-48 20 -80.5 35t-75.5 39t-72 47.5t-60 57t-49 70t-30 85t-12 104.5q0 158 99.5 263t271.5 127v159h172v-161q143 -22 229.5 -107.5t138.5 -224.5l-198 -82q-66 163 -177 207v-447q42 -17 66 -27.5
t64 -29.5t64 -34t57 -38.5t53 -46t42.5 -53.5t35 -64t20.5 -75t8 -88q0 -166 -105 -276t-298 -130v-190h-172v192zM502 1319q-72 -13 -112 -60t-40 -114q0 -71 39.5 -120.5t112.5 -90.5v385zM659 193q82 14 131.5 62.5t49.5 129.5t-47.5 135.5t-133.5 97.5v-425z" />
    <glyph glyph-name="percent" unicode="%" horiz-adv-x="1800" 
d="M397 580q-157 0 -241 122.5t-84 356.5t84 356.5t241 122.5q156 0 240 -122t84 -357t-84 -357t-240 -122zM416 0l770 1516h196l-770 -1516h-196zM1405 -18q-157 0 -241.5 122.5t-84.5 356.5q0 233 84.5 355t241.5 122q155 0 238 -122t83 -355q0 -235 -83 -357t-238 -122z
M397 756q70 0 99.5 71t29.5 232q0 159 -30.5 230t-98.5 71q-70 0 -99.5 -69.5t-29.5 -231.5q0 -161 30.5 -232t98.5 -71zM1405 156q70 0 99.5 71t29.5 234q0 158 -30.5 228.5t-98.5 70.5q-71 0 -101 -69t-30 -230t31 -233t100 -72z" />
    <glyph glyph-name="ampersand" unicode="&#x26;" horiz-adv-x="1300" 
d="M518 -29q-223 0 -348 102t-125 283q0 83 23 153.5t67.5 127t93.5 99t115 85.5q-90 188 -90 359q0 163 94 263.5t260 100.5q160 0 240 -86t80 -215q0 -63 -18 -120t-45.5 -100.5t-72 -87.5t-85 -75t-97.5 -69q8 -14 95 -148q115 -158 182 -233q73 150 92 362h205
q-33 -292 -144 -487q121 -95 236 -101v-204q-207 6 -375 131q-153 -140 -383 -140zM535 938q91 65 140.5 132t49.5 155q0 133 -115 133q-66 0 -101.5 -43t-35.5 -123q0 -111 62 -254zM526 158q140 0 224 78q-85 95 -215 276q-65 91 -103 152q-156 -129 -156 -283
q0 -99 63.5 -161t186.5 -62z" />
    <glyph glyph-name="quotesingle" unicode="'" horiz-adv-x="450" 
d="M147 983l-28 412v121h211v-121l-29 -412h-154z" />
    <glyph glyph-name="parenleft" unicode="(" horiz-adv-x="724" 
d="M524 -420q-438 428 -438 987q0 553 438 985l138 -106q-155 -187 -243.5 -411t-88.5 -468q0 -249 90 -478t244 -404z" />
    <glyph glyph-name="parenright" unicode=")" horiz-adv-x="724" 
d="M201 -420l-140 105q156 187 245 411t89 469q0 248 -89 476.5t-243 404.5l138 106q438 -428 438 -987q0 -553 -438 -985z" />
    <glyph glyph-name="asterisk" unicode="*" horiz-adv-x="966" 
d="M346 715l-141 82l190 270l-327 -27v156l333 -29l-196 275l141 84l137 -305l140 305l139 -84l-193 -275l330 29v-156l-330 27l193 -270l-139 -82l-140 301z" />
    <glyph glyph-name="plus" unicode="+" horiz-adv-x="1126" 
d="M463 172v418h-359v194h359v420h201v-420h358v-194h-358v-418h-201z" />
    <glyph glyph-name="comma" unicode="," horiz-adv-x="493" 
d="M147 -219l72 219h-98v262h250v-235l-113 -246h-111z" />
    <glyph glyph-name="hyphen" unicode="-" horiz-adv-x="638" 
d="M90 549v180h459v-180h-459z" />
    <glyph glyph-name="hyphen" unicode="&#xad;" horiz-adv-x="638" 
d="M90 549v180h459v-180h-459z" />
    <glyph glyph-name="period" unicode="." horiz-adv-x="493" 
d="M121 0v262h250v-262h-250z" />
    <glyph glyph-name="slash" unicode="/" horiz-adv-x="1048" 
d="M29 0l749 1516h240l-748 -1516h-241z" />
    <glyph glyph-name="zero" unicode="0" horiz-adv-x="1185" 
d="M592 -29q-250 0 -382 201.5t-132 585.5t132 585t382 201q251 0 382.5 -200.5t131.5 -585.5t-131.5 -586t-382.5 -201zM592 182q138 0 206 136t68 440q0 204 -32.5 332t-92 183.5t-149.5 55.5q-139 0 -207 -134t-68 -437q0 -302 69.5 -439t205.5 -137z" />
    <glyph glyph-name="one" unicode="1" horiz-adv-x="806" 
d="M74 0v207h239v1069q-49 -30 -114 -50t-121 -20v211q157 6 241 99h228v-1309h213v-207h-686z" />
    <glyph glyph-name="two" unicode="2" horiz-adv-x="1058" 
d="M59 0v33q0 138 37.5 252t97 190.5t132 141t145 119.5t132 109.5t97 127t37.5 157.5q0 97 -49 148t-143 51q-175 0 -271 -231l-196 86q151 360 481 360q195 0 303.5 -110t108.5 -293q0 -99 -35 -186t-91 -151.5t-124 -122.5t-136.5 -111.5t-125 -106.5t-92.5 -118.5
t-37 -137.5h641v-207h-912z" />
    <glyph glyph-name="three" unicode="3" horiz-adv-x="1075" 
d="M514 -27q-193 0 -312 88.5t-184 249.5l201 88q50 -120 118 -172.5t167 -52.5q120 0 188 68t68 180q0 145 -85 212.5t-269 67.5h-62v193h88q160 0 227.5 61.5t67.5 186.5q0 192 -205 192q-159 0 -274 -161l-168 114q82 120 199.5 188t265.5 68q198 0 307 -105t109 -272
q0 -134 -66.5 -228.5t-171.5 -129.5q127 -42 198.5 -138.5t71.5 -252.5q0 -202 -132 -323.5t-347 -121.5z" />
    <glyph glyph-name="four" unicode="4" horiz-adv-x="1134" 
d="M657 0v322h-614v186l584 1008h262v-988h211v-206h-211v-322h-232zM283 528h379v664h-3z" />
    <glyph glyph-name="five" unicode="5" horiz-adv-x="1060" 
d="M524 -29q-180 0 -294.5 82.5t-188.5 237.5l197 92q101 -211 276 -211q129 0 192.5 87t63.5 239q0 155 -63.5 235t-174.5 80q-153 0 -247 -145l-172 39l49 809h760l-13 -213h-555l-30 -429q91 134 280 134q190 0 295 -129.5t105 -372.5q0 -251 -127 -393t-353 -142z" />
    <glyph glyph-name="six" unicode="6" horiz-adv-x="1105" 
d="M580 -29q-235 0 -368.5 192.5t-133.5 567.5q0 387 139 600t393 213q251 0 389 -229l-186 -113q-40 64 -89.5 101.5t-121.5 37.5q-140 0 -213.5 -135.5t-79.5 -388.5q148 148 334 148q196 0 302 -129.5t106 -354.5q0 -226 -126.5 -368t-344.5 -142zM592 170q113 0 172 78
t59 225q0 137 -52.5 213t-174.5 76q-170 0 -287 -135q15 -237 85.5 -347t197.5 -110z" />
    <glyph glyph-name="seven" unicode="7" horiz-adv-x="962" 
d="M162 0l512 1303h-625v213h873v-193l-516 -1323h-244z" />
    <glyph glyph-name="eight" unicode="8" horiz-adv-x="1103" 
d="M553 -33q-241 0 -371.5 111.5t-130.5 290.5q0 73 23.5 135t69.5 111.5t98 87t125 77.5q-124 76 -190 168.5t-66 225.5q0 75 28 141t81 118.5t139 83.5t194 31q110 0 196 -30.5t138 -83t79 -118t27 -140.5q0 -121 -64 -205t-190 -158q58 -32 101.5 -62t85.5 -70.5
t68.5 -84t42.5 -100.5t16 -123q0 -179 -135 -292.5t-365 -113.5zM567 897q102 59 149.5 118t47.5 142q0 84 -51.5 141.5t-157.5 57.5q-104 0 -158.5 -56t-54.5 -139q0 -86 54.5 -144t170.5 -120zM551 154q122 0 192 64.5t70 168.5q0 97 -67 165.5t-209 143.5
q-127 -74 -188.5 -144t-61.5 -165q0 -102 71 -167.5t193 -65.5z" />
    <glyph glyph-name="nine" unicode="9" horiz-adv-x="1105" 
d="M500 -29q-262 0 -402 238l185 113q23 -34 41.5 -56t46.5 -46.5t61.5 -37t73.5 -12.5q139 0 212.5 137t78.5 391q-144 -147 -334 -147q-195 0 -301.5 129.5t-106.5 353.5q0 225 129 367.5t344 142.5q238 0 369 -191.5t131 -568.5q0 -388 -136 -600.5t-392 -212.5zM514 754
q166 0 283 135q-25 452 -281 452q-115 0 -174 -76t-59 -223q0 -288 231 -288z" />
    <glyph glyph-name="colon" unicode=":" horiz-adv-x="505" 
d="M127 823v262h250v-262h-250zM127 0v262h250v-262h-250z" />
    <glyph glyph-name="semicolon" unicode=";" horiz-adv-x="505" 
d="M127 823v262h250v-262h-250zM152 -219l71 219h-96v262h250v-231l-115 -250h-110z" />
    <glyph glyph-name="less" unicode="&#x3c;" horiz-adv-x="1175" 
d="M1044 133l-921 453v155l921 453v-205l-686 -325l686 -326v-205z" />
    <glyph glyph-name="equal" unicode="=" horiz-adv-x="1126" 
d="M125 803v182h876v-182h-876zM125 350v182h876v-182h-876z" />
    <glyph glyph-name="greater" unicode="&#x3e;" horiz-adv-x="1175" 
d="M133 133v205l684 326l-684 325v205l922 -453v-155z" />
    <glyph glyph-name="question" unicode="?" horiz-adv-x="991" 
d="M360 432q-4 43 -4 123q0 62 14 114.5t44 97t58 74.5t73 72q76 68 110.5 123t34.5 135t-47 125t-133 45q-82 0 -146 -56.5t-106 -147.5l-192 80q66 154 180 240.5t278 86.5q187 0 290.5 -99.5t103.5 -254.5q0 -40 -6.5 -77t-14.5 -64.5t-26 -57.5t-30 -47.5t-38 -45
t-38.5 -39.5t-43.5 -40q-72 -67 -103.5 -113.5t-45 -107t-13.5 -166.5h-199zM326 0v250h264v-250h-264z" />
    <glyph glyph-name="at" unicode="@" horiz-adv-x="1533" 
d="M762 -29q-319 0 -503.5 206.5t-184.5 578.5q0 238 88.5 417.5t246 275t361.5 95.5q203 0 359.5 -94t243.5 -268.5t87 -403.5q0 -222 -87.5 -341.5t-246.5 -119.5q-185 0 -237 162q-122 -151 -271 -151q-119 0 -183.5 90.5t-61.5 251.5q1 244 96.5 391t249.5 147
q132 0 207 -110l10 92h180l-76 -600q-20 -160 113 -160q85 0 136.5 84.5t51.5 261.5q0 305 -157.5 482.5t-415.5 177.5q-260 0 -416.5 -180t-156.5 -498q0 -332 154 -507t417 -175q204 0 358 94l52 -88q-79 -52 -190 -81.5t-224 -29.5zM684 479q86 0 172 92l51 396
q-66 84 -153 84t-139.5 -99.5t-55.5 -261.5q-2 -108 28.5 -159.5t96.5 -51.5z" />
    <glyph glyph-name="A" unicode="A" horiz-adv-x="1193" 
d="M365 362l-101 -362h-225l442 1522h232l442 -1522h-242l-98 362h-450zM758 573l-49 185q-91 329 -115 440h-4q-24 -106 -117 -438l-51 -187h336z" />
    <glyph glyph-name="B" unicode="B" horiz-adv-x="1212" 
d="M141 0v1516h480q103 0 185 -20t146.5 -63.5t99.5 -118.5t35 -177q0 -78 -20 -141t-54.5 -103.5t-72.5 -65.5t-82 -39v-4q266 -62 266 -370q0 -105 -37.5 -185.5t-103.5 -129.5t-151 -74t-185 -25h-506zM379 874h225q130 0 192 47.5t62 163.5q0 119 -58.5 168.5
t-191.5 49.5h-229v-429zM379 205h256q134 0 196 59t62 182q0 128 -70 181t-211 53h-233v-475z" />
    <glyph glyph-name="C" unicode="C" horiz-adv-x="1220" 
d="M641 -27q-262 0 -411.5 199t-149.5 588q0 383 152.5 583.5t412.5 200.5q219 0 336 -130.5t156 -369.5l-226 -40q-32 167 -93.5 241t-178.5 74q-156 0 -236.5 -142.5t-80.5 -414.5q0 -283 81.5 -427.5t239.5 -144.5q120 0 186 76.5t101 259.5l223 -37q-99 -516 -512 -516z
" />
    <glyph glyph-name="D" unicode="D" horiz-adv-x="1255" 
d="M141 0v1516h365q160 0 280 -40t209.5 -127.5t135 -234.5t45.5 -352q0 -207 -46.5 -356t-136.5 -237t-209.5 -128.5t-277.5 -40.5h-365zM383 215h149q214 0 307 125.5t93 421.5q0 287 -93.5 409.5t-308.5 122.5h-147v-1079z" />
    <glyph glyph-name="E" unicode="E" horiz-adv-x="1058" 
d="M141 0v1516h822v-224h-580v-389h420v-217h-420v-469h610v-217h-852z" />
    <glyph glyph-name="F" unicode="F" horiz-adv-x="995" 
d="M141 0v1516h807v-224h-565v-409h410v-217h-410v-666h-242z" />
    <glyph glyph-name="G" unicode="G" horiz-adv-x="1275" 
d="M618 -27q-258 0 -398 207t-140 582q0 372 148 577t417 205q207 0 325 -124t165 -376l-220 -45q-35 174 -99 248t-177 74q-71 0 -127 -30.5t-99.5 -94.5t-67 -173t-23.5 -257q0 -576 327 -576q267 0 287 359h-254v201h471v-750h-182v201h-4q-35 -92 -126.5 -160
t-222.5 -68z" />
    <glyph glyph-name="H" unicode="H" horiz-adv-x="1298" 
d="M141 0v1516h242v-609h532v609h242v-1516h-242v684h-532v-684h-242z" />
    <glyph glyph-name="I" unicode="I" horiz-adv-x="546" 
d="M152 0v1516h241v-1516h-241z" />
    <glyph glyph-name="J" unicode="J" horiz-adv-x="909" 
d="M401 -23q-101 0 -198 30.5t-174 86.5l102 176q125 -86 246 -86q78 0 122 46.5t44 144.5v1141h241v-1156q0 -184 -99 -283.5t-284 -99.5z" />
    <glyph glyph-name="K" unicode="K" horiz-adv-x="1202" 
d="M141 0v1516h240v-728q42 75 143 226l338 502h258l-413 -592l471 -924h-260l-365 719l-172 -236v-483h-240z" />
    <glyph glyph-name="L" unicode="L" horiz-adv-x="1019" 
d="M141 0v1516h242v-1299h584v-217h-826z" />
    <glyph glyph-name="M" unicode="M" horiz-adv-x="1538" 
d="M141 0v1516h305l324 -1180h4l313 1180h308v-1516h-230v1153h-4q-20 -140 -92 -379l-219 -774h-182l-219 776q-23 74 -51.5 190t-41.5 191h-4v-1157h-211z" />
    <glyph glyph-name="N" unicode="N" horiz-adv-x="1308" 
d="M141 0v1516h260l412 -805q62 -119 129 -265h4v1070h219v-1516h-223l-450 856q-94 184 -127 256h-5v-1112h-219z" />
    <glyph glyph-name="O" unicode="O" horiz-adv-x="1308" 
d="M655 -29q-123 0 -227 50t-182 145.5t-122 247.5t-44 344t44 343.5t122 247.5t182 145.5t227 49.5q122 0 225.5 -49.5t182 -145.5t122.5 -247.5t44 -343.5t-44 -344t-122.5 -247.5t-182 -145.5t-225.5 -50zM655 190q158 0 244 146.5t86 421.5q0 274 -86 418.5t-244 144.5
q-160 0 -246.5 -144t-86.5 -419t87 -421.5t246 -146.5z" />
    <glyph glyph-name="P" unicode="P" horiz-adv-x="1153" 
d="M141 0v1516h441q108 0 196 -25.5t156.5 -79t106.5 -145.5t38 -217q0 -107 -27.5 -190.5t-73.5 -137.5t-112 -88.5t-138 -49t-155 -14.5h-194v-569h-238zM379 778h203q138 0 202 61.5t64 202.5q0 135 -64 193.5t-204 58.5h-201v-516z" />
    <glyph glyph-name="Q" unicode="Q" horiz-adv-x="1308" 
d="M952 -395q-114 0 -196.5 28.5t-131 82t-71 121.5t-23.5 155q-204 40 -327 237t-123 529q0 192 44.5 343.5t123 247.5t182.5 145.5t227 49.5q121 0 224 -49.5t181 -145t122.5 -247.5t44.5 -344q0 -174 -35 -313.5t-98.5 -233.5t-147.5 -150t-186 -73q7 -58 25 -94
t53.5 -55t77.5 -25.5t110 -6.5h86v-202h-162zM657 184q156 0 242 149t86 425q0 274 -85.5 418.5t-242.5 144.5q-160 0 -247.5 -144.5t-87.5 -418.5q0 -275 88 -424.5t247 -149.5z" />
    <glyph glyph-name="R" unicode="R" horiz-adv-x="1191" 
d="M141 0v1516h451q235 0 361 -113.5t126 -345.5q0 -163 -71.5 -268.5t-190.5 -143.5l291 -645h-248l-270 592h-213v-592h-236zM377 797h205q137 0 201.5 58t64.5 198q0 133 -64 187t-202 54h-205v-497z" />
    <glyph glyph-name="S" unicode="S" horiz-adv-x="1161" 
d="M598 -27q-371 0 -537 365l203 100q119 -254 334 -254q116 0 180 51.5t64 145.5q0 44 -17 82t-39.5 64t-67 54t-76.5 44t-91 43q-157 72 -218 111q-166 107 -199 271q-9 45 -9 95q0 177 126 288t320 111q333 0 484 -330l-203 -104q-49 105 -116 163t-169 58
q-94 0 -149.5 -47.5t-55.5 -128.5q0 -43 16 -80t38.5 -63t64 -54t74 -45t86.5 -43q161 -73 225 -114q174 -113 204 -284q7 -40 7 -83q0 -85 -32.5 -160t-92 -132t-151.5 -90.5t-203 -33.5z" />
    <glyph glyph-name="T" unicode="T" horiz-adv-x="1081" 
d="M420 0v1292h-377v224h993v-224h-374v-1292h-242z" />
    <glyph glyph-name="U" unicode="U" horiz-adv-x="1243" 
d="M623 -27q-498 0 -498 537v1006h242v-984q0 -177 60 -260.5t200 -83.5q138 0 198 83t60 257v988h231v-1002q0 -258 -120.5 -399.5t-372.5 -141.5z" />
    <glyph glyph-name="V" unicode="V" horiz-adv-x="1173" 
d="M471 -6l-432 1522h242l202 -768q56 -205 109 -433h4q35 161 109 428l204 773h226l-433 -1522h-231z" />
    <glyph glyph-name="W" unicode="W" horiz-adv-x="1624" 
d="M383 -6l-338 1522h231l142 -695q48 -234 80 -426h4q29 185 78 426l133 695h215l139 -711q53 -264 74 -410h4q24 151 76 408l143 713h213l-338 -1522h-207l-217 1110h-4l-219 -1110h-209z" />
    <glyph glyph-name="X" unicode="X" horiz-adv-x="1183" 
d="M37 0l426 809l-371 707h260l254 -508l244 508h233l-364 -699l428 -817h-256l-311 618l-308 -618h-235z" />
    <glyph glyph-name="Y" unicode="Y" horiz-adv-x="1128" 
d="M442 0v610l-424 906h248l301 -687h4l301 687h236l-424 -904v-612h-242z" />
    <glyph glyph-name="Z" unicode="Z" horiz-adv-x="1103" 
d="M55 0v176l684 1116h-635v224h926v-181l-676 -1118h676v-217h-975z" />
    <glyph glyph-name="bracketleft" unicode="[" horiz-adv-x="733" 
d="M129 -410v1926h545v-175h-305v-1579h305v-172h-545z" />
    <glyph glyph-name="backslash" unicode="\" horiz-adv-x="1028" 
d="M768 0l-750 1516h242l748 -1516h-240z" />
    <glyph glyph-name="bracketright" unicode="]" horiz-adv-x="733" 
d="M57 -410v172h308v1579h-308v175h545v-1926h-545z" />
    <glyph glyph-name="asciicircum" unicode="^" horiz-adv-x="1175" 
d="M104 737l410 779h148l409 -779h-211l-272 531l-271 -531h-213z" />
    <glyph glyph-name="underscore" unicode="_" horiz-adv-x="888" 
d="M-10 -289v176h909v-176h-909z" />
    <glyph glyph-name="grave" unicode="`" horiz-adv-x="948" 
d="M418 1198l-250 330h246l164 -330h-160z" />
    <glyph glyph-name="a" unicode="a" horiz-adv-x="991" 
d="M319 -12q-118 0 -190 73t-72 205q0 340 596 453v47q0 76 -31.5 108.5t-103.5 32.5q-164 0 -307 -125l-117 144q90 83 208 132.5t245 49.5q170 0 252 -85.5t82 -256.5v-500q0 -187 26 -266h-231q-23 79 -23 137q-56 -71 -143 -110t-191 -39zM412 172q135 0 241 113v274
q-368 -79 -368 -254q0 -66 33.5 -99.5t93.5 -33.5z" />
    <glyph glyph-name="b" unicode="b" horiz-adv-x="1067" 
d="M627 -16q-172 0 -277 133v-117h-233v1513h233v-561q120 156 291 156q165 0 262.5 -141t97.5 -422t-102.5 -421t-271.5 -140zM563 174q203 0 203 369q0 366 -205 366q-58 0 -108.5 -33.5t-102.5 -91.5v-493q93 -117 213 -117z" />
    <glyph glyph-name="c" unicode="c" horiz-adv-x="958" 
d="M504 -23q-89 0 -167 35t-139 102.5t-96.5 177.5t-35.5 251q0 117 24.5 212.5t67 160t100 108.5t122 64t134.5 20q71 0 129.5 -17.5t99 -47.5t73 -74.5t53 -92.5t36.5 -108l-209 -51q-27 101 -69 146.5t-117 45.5q-97 0 -154 -88.5t-57 -277.5q0 -182 53 -277.5t158 -95.5
q76 0 124 45.5t73 155.5l202 -52q-42 -161 -142 -251.5t-263 -90.5z" />
    <glyph glyph-name="d" unicode="d" horiz-adv-x="1067" 
d="M428 -16q-166 0 -263 139t-97 420t102.5 423t271.5 142q91 0 156.5 -34t120.5 -103v545h233v-1250q0 -192 27 -266h-240q-20 55 -20 141q-121 -157 -291 -157zM508 174q51 0 112 39t99 84v496q-92 116 -213 116q-203 0 -203 -372q0 -363 205 -363z" />
    <glyph glyph-name="e" unicode="e" horiz-adv-x="987" 
d="M514 -23q-96 0 -176 34t-141.5 101.5t-96 177.5t-34.5 253q0 145 38 257t102 177.5t141 98t163 32.5q191 0 301.5 -143t110.5 -428v-64h-627q7 -151 66.5 -228t162.5 -77q81 0 136.5 36t111.5 111l148 -106q-65 -103 -172 -167.5t-234 -64.5zM297 637h408
q-15 276 -197 276q-83 0 -140.5 -66.5t-70.5 -209.5z" />
    <glyph glyph-name="f" unicode="f" horiz-adv-x="659" 
d="M193 0v899h-156v186h156v134q0 144 73 222.5t248 78.5q91 0 119 -7v-188q-16 4 -70 4q-65 0 -101 -28t-36 -99v-117h199v-186h-199v-899h-233z" />
    <glyph glyph-name="g" unicode="g" horiz-adv-x="1042" 
d="M774 999q43 40 107 69.5t120 37.5v-203q-80 0 -155 -22q35 -72 35 -166q0 -179 -108 -284t-290 -105q-82 0 -143 20q-43 -27 -43 -67q0 -30 22.5 -43.5t88.5 -20.5l153 -16q222 -20 316 -87t94 -202q0 -149 -142 -234.5t-368 -85.5q-237 0 -341 63.5t-104 186.5
q0 150 170 232q-88 53 -88 137q0 52 35.5 102.5t93.5 87.5q-72 52 -110.5 134t-38.5 182q0 177 110 285t293 108q187 0 293 -109zM485 487q87 0 134 59t47 165q0 108 -46.5 165.5t-136.5 57.5q-88 0 -136 -59t-48 -164q0 -106 48.5 -165t137.5 -59zM326 31q-97 -57 -97 -152
q0 -75 59.5 -106t205.5 -31q122 0 194 34t72 99q0 62 -48 92t-188 43l-170 17z" />
    <glyph glyph-name="h" unicode="h" horiz-adv-x="1058" 
d="M117 0v1516h233v-572q54 67 143 115.5t191 48.5q126 0 196 -78t70 -227v-803h-233v750q0 81 -29.5 119t-95.5 38q-60 0 -127.5 -40t-114.5 -87v-780h-233z" />
    <glyph glyph-name="i" unicode="i" horiz-adv-x="489" 
d="M127 1264v219h235v-219h-235zM127 0v1085h233v-1085h-233z" />
    <glyph glyph-name="j" unicode="j" horiz-adv-x="489" 
d="M127 1264v219h235v-219h-235zM86 -412q-94 0 -121 9v176q18 -6 66 -6q49 0 72.5 29t23.5 91v1198h233v-1220q0 -67 -12.5 -115.5t-42.5 -86t-84.5 -56.5t-134.5 -19z" />
    <glyph glyph-name="k" unicode="k" horiz-adv-x="980" 
d="M117 0v1516h231v-928q19 40 125 192l209 305h238l-289 -399l319 -686h-237l-228 496l-137 -185v-311h-231z" />
    <glyph glyph-name="l" unicode="l" horiz-adv-x="489" 
d="M127 0v1516h233v-1516h-233z" />
    <glyph glyph-name="m" unicode="m" horiz-adv-x="1619" 
d="M117 0v1085h233v-141q52 65 142 114.5t180 49.5q110 0 166.5 -37.5t76.5 -122.5q59 68 144 114t186 46q126 0 196 -78t70 -227v-803h-233v750q0 81 -29.5 119t-95.5 38q-93 0 -223 -108v-799h-234v750q0 83 -25 120t-93 37q-99 0 -228 -125v-782h-233z" />
    <glyph glyph-name="n" unicode="n" horiz-adv-x="1058" 
d="M117 0v1085h233v-141q54 67 143 115.5t191 48.5q126 0 196 -78t70 -227v-803h-233v750q0 81 -29.5 119t-95.5 38q-60 0 -127.5 -40t-114.5 -87v-780h-233z" />
    <glyph glyph-name="o" unicode="o" horiz-adv-x="1040" 
d="M520 -23q-93 0 -174 34.5t-144 102.5t-99.5 178t-36.5 251q0 142 36 252.5t99 177.5t144 101t175 34t174 -34t143.5 -101t99.5 -177.5t36 -252.5q0 -141 -36 -251t-99 -178t-144 -102.5t-174 -34.5zM520 168q219 0 219 375q0 173 -53.5 270.5t-165.5 97.5
q-221 0 -221 -368q0 -115 21.5 -196t71.5 -130t128 -49z" />
    <glyph glyph-name="p" unicode="p" horiz-adv-x="1067" 
d="M117 -410v1495h233v-133q120 156 291 156q165 0 262.5 -141t97.5 -422t-102.5 -421t-271.5 -140q-91 0 -156.5 34t-120.5 103v-531h-233zM563 174q203 0 203 369q0 366 -205 366q-51 0 -112 -39t-99 -84v-495q93 -117 213 -117z" />
    <glyph glyph-name="q" unicode="q" horiz-adv-x="1067" 
d="M717 -410v547q-125 -155 -289 -155q-166 0 -263 138.5t-97 420.5q0 281 98.5 424t263.5 143t287 -152v129h233v-1495h-233zM508 168q57 0 105.5 32t103.5 91v495q-54 61 -103.5 92t-107.5 31q-203 0 -203 -366q0 -375 205 -375z" />
    <glyph glyph-name="r" unicode="r" horiz-adv-x="731" 
d="M117 0v1085h233v-167h4q43 77 126.5 133.5t197.5 56.5h20l-6 -215q-1 0 -21.5 1t-31.5 1q-93 0 -167.5 -47t-121.5 -125v-723h-233z" />
    <glyph glyph-name="s" unicode="s" horiz-adv-x="921" 
d="M461 -23q-144 0 -256 56t-185 155l144 121q59 -73 138.5 -112t162.5 -39q178 0 178 123q0 42 -24 73.5t-63 50.5t-89 38.5t-102.5 35.5t-102.5 43t-89 60.5t-63 89.5t-24 127q0 144 105.5 226.5t267.5 82.5q115 0 216 -48.5t167 -135.5l-140 -127q-48 56 -111.5 91.5
t-133.5 35.5q-73 0 -111.5 -29.5t-38.5 -83.5q0 -41 24 -72.5t63 -50t88.5 -37t102 -34.5t102 -43t88.5 -61t63 -90t24 -128q0 -147 -115.5 -232.5t-285.5 -85.5z" />
    <glyph glyph-name="t" unicode="t" horiz-adv-x="708" 
d="M487 -12q-170 0 -235.5 62t-65.5 208v641h-155v186h155v381h234v-381h235v-186h-235v-577q0 -86 28.5 -119t106.5 -33q56 0 92 12v-180q-40 -14 -160 -14z" />
    <glyph glyph-name="u" unicode="u" horiz-adv-x="1058" 
d="M375 -23q-126 0 -196 78.5t-70 227.5v802h233v-753q0 -81 30 -118.5t99 -37.5q107 0 238 127v782h233v-1085h-233v141q-62 -71 -147 -117.5t-187 -46.5z" />
    <glyph glyph-name="v" unicode="v" horiz-adv-x="931" 
d="M342 -4l-324 1089h236l147 -548q38 -145 72 -295h4q31 142 70 293l147 550h219l-323 -1089h-248z" />
    <glyph glyph-name="w" unicode="w" horiz-adv-x="1337" 
d="M287 -4l-267 1089h228l104 -454q34 -140 62 -309h4q24 143 63 313l101 450h198l101 -444q48 -209 65 -319h4q13 84 62 317l102 446h203l-266 -1089h-209l-170 749h-4l-174 -749h-207z" />
    <glyph glyph-name="x" unicode="x" horiz-adv-x="927" 
d="M25 0l323 563l-295 522h242l188 -348l174 348h224l-295 -514l321 -571h-239l-211 395l-209 -395h-223z" />
    <glyph glyph-name="y" unicode="y" horiz-adv-x="958" 
d="M211 -414q-119 0 -213 29l45 184q81 -18 145 -18q60 0 92 31t56 104l22 72l-340 1097h242l135 -493q53 -190 82 -332h4q42 177 86 342l135 483h226l-377 -1198q-50 -159 -124 -230t-216 -71z" />
    <glyph glyph-name="z" unicode="z" horiz-adv-x="903" 
d="M55 0v145l488 754h-447v186h725v-147l-489 -754h516v-184h-793z" />
    <glyph glyph-name="braceleft" unicode="{" horiz-adv-x="735" 
d="M510 -410q-135 0 -201.5 75t-66.5 212v356q0 97 -21 148t-60 68.5t-112 17.5v172q109 0 151 46.5t42 186.5v357q0 138 67.5 212.5t206.5 74.5h176v-175h-76q-71 0 -104 -37t-33 -114v-336q0 -142 -37.5 -205.5t-119.5 -93.5v-4q82 -30 119.5 -93.5t37.5 -205.5v-340
q0 -77 33 -113.5t104 -36.5h76v-172h-182z" />
    <glyph glyph-name="bar" unicode="|" horiz-adv-x="669" 
d="M217 -410v1926h236v-1926h-236z" />
    <glyph glyph-name="braceright" unicode="}" horiz-adv-x="735" 
d="M43 -410v172h76q71 0 104 36.5t33 113.5v350q0 97 20 156.5t51 85.5t87 47v4q-56 21 -87 47t-51 85.5t-20 156.5v346q0 77 -33 114t-104 37h-76v175h188q139 0 201 -69.5t62 -207.5v-367q0 -140 41.5 -186.5t150.5 -46.5v-172q-73 0 -112 -17.5t-59.5 -68.5t-20.5 -148
v-366q0 -137 -61.5 -207t-194.5 -70h-195z" />
    <glyph glyph-name="asciitilde" unicode="~" 
d="M815 528q-57 0 -129 18.5t-127.5 40t-115 40t-95.5 18.5q-71 0 -86 -90l-151 20q15 134 74.5 200.5t156.5 66.5q74 0 167 -29t173 -57.5t121 -28.5q37 0 60 19.5t30 68.5l151 -18q-30 -269 -229 -269z" />
    <glyph glyph-name="exclamdown" unicode="&#xa1;" horiz-adv-x="608" 
d="M168 1268v248h264v-248h-264zM160 0l49 1081h182l51 -1081h-282z" />
    <glyph glyph-name="cent" unicode="&#xa2;" horiz-adv-x="958" 
d="M303 29q-110 61 -173.5 191t-63.5 323q0 117 24.5 212.5t67 160t100 108.5t122 64t134.5 20h8l35 176h170l-41 -209q86 -38 137 -116t82 -191l-209 -51q-25 97 -61 143l-143 -698h18q74 0 122.5 49t74.5 160l202 -52q-42 -161 -142 -251.5t-263 -90.5q-23 0 -41 3
l-43 -207h-170zM492 920q-88 -10 -140.5 -103t-52.5 -274q0 -193 57 -289z" />
    <glyph glyph-name="sterling" unicode="&#xa3;" horiz-adv-x="1173" 
d="M401 690h-249v170h170q-86 179 -86 295q0 176 104.5 282.5t280.5 106.5q100 0 175 -30t120.5 -86t70.5 -125t35 -158l-217 -29q-10 111 -51 170.5t-131 59.5q-75 0 -117.5 -46.5t-42.5 -138.5q0 -47 15 -102.5t31 -93.5t48 -105h303v-170h-231q43 -127 43 -248
q0 -116 -37 -209q90 -69 156 -69q72 0 105 54t36 194h205q-2 -102 -18.5 -178.5t-52 -138t-98 -93t-151.5 -31.5q-138 0 -270 121q-108 -121 -273 -121q-105 0 -178 58t-73 166q0 113 71.5 184.5t179.5 71.5q94 0 191 -72q2 14 2 47q0 114 -66 264zM426 211q-86 86 -150 86
q-40 0 -64 -26t-24 -70q0 -41 25.5 -65.5t65.5 -24.5q97 0 147 100z" />
    <glyph glyph-name="yen" unicode="&#xa5;" horiz-adv-x="1128" 
d="M678 487v-141h338v-170h-338v-176h-229v176h-336v170h336v141h-336v170h313l-408 859h248l301 -689h4l301 689h236l-408 -859h316v-170h-338z" />
    <glyph glyph-name="brokenbar" unicode="&#xa6;" horiz-adv-x="669" 
d="M217 678v838h236v-838h-236zM217 -410v838h236v-838h-236z" />
    <glyph glyph-name="section" unicode="&#xa7;" horiz-adv-x="1015" 
d="M500 -418q-97 0 -167.5 24.5t-115 73t-71 105t-44.5 135.5l201 55q23 -97 67.5 -151.5t125.5 -54.5q147 0 147 143q0 70 -52 126.5t-169 133.5q-43 28 -62 40.5t-56 38.5t-54.5 41t-46 40.5t-42.5 44.5t-32 46.5t-26.5 53t-14.5 56.5t-6 65q0 100 58 184.5t145 141.5
q-71 65 -104.5 129.5t-33.5 148.5q0 146 99 245t270 99q80 0 142 -17t104 -46t73.5 -74t50.5 -92.5t34 -110.5l-207 -55q-24 103 -67 154t-126 51q-74 0 -113.5 -38.5t-39.5 -103.5q0 -69 54 -125t175 -135q55 -36 79 -52t69 -49t65.5 -53.5t49.5 -54.5t42 -63.5t23 -69
t10 -82.5q0 -100 -58 -185t-145 -142q69 -63 100 -128t31 -149q0 -147 -96.5 -245.5t-265.5 -98.5zM596 311q129 79 129 185q0 78 -51.5 133t-198.5 151l-53 35q-131 -77 -131 -182q0 -54 27.5 -98.5t76 -84t148.5 -104.5q8 -6 26.5 -17.5t26.5 -17.5z" />
    <glyph glyph-name="dieresis" unicode="&#xa8;" horiz-adv-x="948" 
d="M549 1194v233h209v-233h-209zM190 1194v233h211v-233h-211z" />
    <glyph glyph-name="copyright" unicode="&#xa9;" horiz-adv-x="1468" 
d="M733 -29q-186 0 -337 104t-235.5 283.5t-84.5 397.5q0 217 85.5 398t237 285.5t336.5 104.5q140 0 262.5 -61t209 -165.5t136.5 -249.5t50 -308q0 -217 -85.5 -398t-237.5 -286t-337 -105zM735 84q153 0 275.5 88.5t191 242t68.5 341.5q0 140 -40.5 265t-111 215.5
t-171 143t-214.5 52.5q-153 0 -275.5 -88.5t-190.5 -242t-68 -341.5t68.5 -342.5t191.5 -244t276 -89.5zM735 317q-145 0 -227 116t-82 333q0 212 82.5 328t228.5 116q225 0 281 -284l-144 -27q-19 85 -49 126.5t-88 41.5q-75 0 -115 -81.5t-40 -219.5q0 -143 39.5 -222
t115.5 -79q58 0 91.5 42.5t52.5 135.5l143 -29q-30 -142 -99 -219.5t-190 -77.5z" />
    <glyph glyph-name="ordfeminine" unicode="&#xaa;" horiz-adv-x="776" 
d="M266 743q-86 0 -137 50.5t-51 148.5q0 237 418 318v36q0 107 -90 107q-106 0 -218 -96l-88 102q142 133 332 133q120 0 176 -61t56 -185v-350q0 -134 20 -190h-172q-16 62 -16 100q-95 -113 -230 -113zM330 881q88 0 166 82v194q-250 -55 -250 -188q0 -43 22.5 -65.5
t61.5 -22.5z" />
    <glyph glyph-name="guillemotleft" unicode="&#xab;" horiz-adv-x="1019" 
d="M733 0l-264 543l264 540h223l-258 -540l258 -543h-223zM317 0l-264 543l264 540h224l-256 -540l256 -543h-224z" />
    <glyph glyph-name="registered" unicode="&#xae;" horiz-adv-x="970" 
d="M485 598q-169 0 -282 136t-113 337q0 199 114 336t283 137t282.5 -136t113.5 -335q0 -131 -51.5 -240t-143 -172t-203.5 -63zM487 666q137 0 228.5 116.5t91.5 288.5q0 171 -92.5 288.5t-229.5 117.5t-228 -116.5t-91 -287.5q0 -172 91.5 -289.5t229.5 -117.5zM330 825
v510h159q80 0 123 -39.5t43 -117.5q0 -110 -80 -146l89 -207h-103l-84 193h-51v-193h-96zM426 1098h57q78 0 78 76q0 39 -19 56t-59 17h-57v-149z" />
    <glyph glyph-name="macron" unicode="&#xaf;" horiz-adv-x="948" 
d="M203 1194v180h540v-180h-540z" />
    <glyph glyph-name="macron" unicode="&#x2c9;" horiz-adv-x="948" 
d="M203 1194v180h540v-180h-540z" />
    <glyph glyph-name="degree" unicode="&#xb0;" horiz-adv-x="710" 
d="M356 944q-121 0 -196.5 84t-75.5 215t75.5 215t196.5 84q120 0 194.5 -83t74.5 -214t-75 -216t-194 -85zM356 1067q59 0 93 47t34 129t-34 129t-93 47q-60 0 -94.5 -47t-34.5 -129t34.5 -129t94.5 -47z" />
    <glyph glyph-name="plusminus" unicode="&#xb1;" horiz-adv-x="1808" 
d="M193 0v899h-156v186h156v134q0 144 73 222.5t248 78.5q91 0 119 -7v-188q-16 4 -70 4q-65 0 -101 -28t-36 -99v-117h199v-186h-199v-899h-233zM852 0v899h-156v186h156v134q0 144 73.5 222.5t248.5 78.5q90 0 118 -7v-188q-16 4 -69 4q-65 0 -101.5 -28t-36.5 -99v-117
h199v-186h-199v-899h-233zM1446 0v1516h233v-1516h-233z" />
    <glyph glyph-name="twosuperior" unicode="&#xb2;" horiz-adv-x="743" 
d="M74 596v47q0 76 22 140.5t58 109.5t79 84t85.5 72.5t78.5 65.5t58 72t22 85q0 104 -94 104q-46 0 -81.5 -37.5t-65.5 -113.5l-160 67q47 122 121.5 182t191.5 60q129 0 201 -69t72 -193q0 -54 -19.5 -103t-51 -86t-69.5 -70.5t-77.5 -64t-72 -59t-55 -62.5t-26.5 -69h368
v-162h-585z" />
    <glyph glyph-name="threesuperior" unicode="&#xb3;" horiz-adv-x="763" 
d="M375 584q-230 0 -322 229l146 72q60 -146 172 -146q63 0 97 36t34 95q0 81 -45 117.5t-144 36.5h-43v119h58q83 0 119 33t36 96q0 45 -26 74.5t-76 29.5q-92 0 -170 -104l-127 92q119 174 309 174q127 0 198 -68t71 -174q0 -142 -127 -204q145 -64 145 -228
q0 -128 -84 -204t-221 -76z" />
    <glyph glyph-name="acute" unicode="&#xb4;" horiz-adv-x="948" 
d="M371 1198l166 330h243l-250 -330h-159z" />
    <glyph glyph-name="mu" unicode="&#xb5;" horiz-adv-x="1062" 
d="M113 -410v1497h235v-753q0 -81 29.5 -120.5t97.5 -39.5q107 0 238 121v792h233v-1087h-233v152q-131 -146 -273 -160q-63 -3 -92 26v-428h-235z" />
    <glyph glyph-name="mu" unicode="&#x3bc;" horiz-adv-x="1062" 
d="M113 -410v1497h235v-753q0 -81 29.5 -120.5t97.5 -39.5q107 0 238 121v792h233v-1087h-233v152q-131 -146 -273 -160q-63 -3 -92 26v-428h-235z" />
    <glyph glyph-name="paragraph" unicode="&#xb6;" horiz-adv-x="1146" 
d="M504 -410v1086q-201 3 -311.5 110t-110.5 306q0 185 107 304.5t290 119.5h547v-1926h-186v1735h-152v-1735h-184z" />
    <glyph glyph-name="periodcentered" unicode="&#xb7;" horiz-adv-x="546" 
d="M135 492v264h277v-264h-277z" />
    <glyph glyph-name="periodcentered" unicode="&#x2219;" horiz-adv-x="546" 
d="M135 492v264h277v-264h-277z" />
    <glyph glyph-name="cedilla" unicode="&#xb8;" horiz-adv-x="948" 
d="M483 -422q-145 0 -256 72l56 94q83 -57 192 -57q111 0 111 77q0 62 -66 62q-46 0 -86 -37l-74 33l56 190h110l-32 -118q42 30 106 30q57 0 97 -37t40 -106q0 -91 -72.5 -147t-181.5 -56z" />
    <glyph glyph-name="onesuperior" unicode="&#xb9;" horiz-adv-x="624" 
d="M100 592v160h138v569q-62 -25 -136 -25v162q106 6 158 58h170v-764h121v-160h-451z" />
    <glyph glyph-name="ordmasculine" unicode="&#xba;" horiz-adv-x="790" 
d="M395 745q-138 0 -229.5 102.5t-91.5 297.5q0 197 90.5 298t230.5 101q67 0 124 -24t102 -71.5t70.5 -125.5t25.5 -178q0 -196 -91.5 -298t-230.5 -102zM395 881q150 0 150 264q0 120 -37 189t-113 69q-149 0 -149 -258q0 -264 149 -264z" />
    <glyph glyph-name="guillemotright" unicode="&#xbb;" horiz-adv-x="1019" 
d="M479 0l256 543l-256 540h223l263 -540l-263 -543h-223zM63 0l259 543l-259 540h224l264 -540l-264 -543h-224z" />
    <glyph glyph-name="onequarter" unicode="&#xbc;" horiz-adv-x="1601" 
d="M80 590v164h137v563q-55 -25 -135 -25v166q106 3 158 58h170v-762h120v-164h-450zM1266 0v203h-355v125l346 598h191v-568h121v-155h-121v-203h-182zM354 0l770 1516h197l-770 -1516h-197zM1085 350h191v336z" />
    <glyph glyph-name="onehalf" unicode="&#xbd;" horiz-adv-x="1681" 
d="M1032 0v47q0 76 22.5 140.5t58 109.5t78.5 84t86 72.5t78.5 65.5t58 72t22.5 85q0 104 -95 104q-46 0 -81.5 -37.5t-65.5 -113.5l-160 67q93 242 314 242q129 0 200.5 -69t71.5 -193q0 -54 -19.5 -103t-51 -86t-69.5 -70.5t-77.5 -64t-72 -59t-55 -62.5t-26.5 -69h369
v-162h-586zM80 590v164h137v563q-55 -25 -135 -25v166q106 3 158 58h170v-762h120v-164h-450zM354 0l770 1516h197l-770 -1516h-197z" />
    <glyph glyph-name="threequarters" unicode="&#xbe;" horiz-adv-x="1642" 
d="M350 580q-223 0 -317 231l143 72q60 -144 168 -144q61 0 96 34.5t35 92.5q0 81 -44.5 117.5t-143.5 36.5h-41v119h55q84 0 120 33t36 96q0 45 -26 73.5t-77 28.5q-85 0 -166 -108l-127 90q124 182 306 182q128 0 198 -67.5t70 -174.5q0 -143 -127 -205q147 -63 147 -227
q0 -128 -84.5 -204t-220.5 -76zM1309 0v203h-355v125l346 598h189v-568h121v-155h-121v-203h-180zM397 0l768 1516h197l-768 -1516h-197zM1126 350h191v336z" />
    <glyph glyph-name="questiondown" unicode="&#xbf;" horiz-adv-x="991" 
d="M401 1266v250h265v-250h-265zM467 -29q-187 0 -290 99.5t-103 255.5q0 56 12 105t26.5 81t46.5 71t50.5 57t60.5 56q72 67 103.5 113.5t45 107t13.5 166.5h199q4 -43 4 -122q0 -62 -14 -114.5t-44 -97t-58 -75t-73 -72.5q-76 -68 -110.5 -123t-34.5 -135t47 -125t133 -45
q82 0 146 57t106 148l193 -80q-66 -154 -181 -241t-278 -87z" />
    <glyph glyph-name="Agrave" unicode="&#xc0;" horiz-adv-x="1193" 
d="M365 362l-101 -362h-225l442 1522h232l442 -1522h-242l-98 362h-450zM758 573l-49 185q-91 329 -115 440h-4q-24 -106 -117 -438l-51 -187h336zM528 1608l-249 329h245l164 -329h-160z" />
    <glyph glyph-name="Aacute" unicode="&#xc1;" horiz-adv-x="1193" 
d="M365 362l-101 -362h-225l442 1522h232l442 -1522h-242l-98 362h-450zM758 573l-49 185q-91 329 -115 440h-4q-24 -106 -117 -438l-51 -187h336zM504 1608l166 329h243l-249 -329h-160z" />
    <glyph glyph-name="Acircumflex" unicode="&#xc2;" horiz-adv-x="1193" 
d="M365 362l-101 -362h-225l442 1522h232l442 -1522h-242l-98 362h-450zM758 573l-49 185q-91 329 -115 440h-4q-24 -106 -117 -438l-51 -187h336zM293 1595l225 332h158l225 -332h-139l-166 164l-166 -164h-137z" />
    <glyph glyph-name="Atilde" unicode="&#xc3;" horiz-adv-x="1193" 
d="M365 362l-101 -362h-225l442 1522h232l442 -1522h-242l-98 362h-450zM758 573l-49 185q-91 329 -115 440h-4q-24 -106 -117 -438l-51 -187h336zM735 1591q-42 0 -83 18t-68.5 39.5t-59 39.5t-55.5 18q-72 0 -72 -111h-129q0 283 193 283q41 0 82 -18t68 -39.5t59 -39.5
t57 -18q36 0 54 25.5t18 85.5h127q0 -283 -191 -283z" />
    <glyph glyph-name="Adieresis" unicode="&#xc4;" horiz-adv-x="1193" 
d="M365 362l-101 -362h-225l442 1522h232l442 -1522h-242l-98 362h-450zM758 573l-49 185q-91 329 -115 440h-4q-24 -106 -117 -438l-51 -187h336zM672 1604v233h209v-233h-209zM313 1604v233h211v-233h-211z" />
    <glyph glyph-name="Aring" unicode="&#xc5;" horiz-adv-x="1193" 
d="M365 362l-101 -362h-225l430 1479q-63 57 -63 161q0 92 52.5 151.5t137.5 59.5t138.5 -59.5t53.5 -151.5q0 -98 -63 -161l430 -1479h-242l-98 362h-450zM758 573l-49 185q-91 329 -115 440h-4q-24 -106 -117 -438l-51 -187h336zM596 1530q38 0 60 32t22 78q0 45 -22 76
t-60 31q-37 0 -58.5 -31t-21.5 -76q0 -46 21.5 -78t58.5 -32z" />
    <glyph glyph-name="AE" unicode="&#xc6;" horiz-adv-x="1761" 
d="M31 0l692 1516h940v-224h-578v-391h420v-213h-420v-471h611v-217h-850v428h-387l-191 -428h-237zM549 631h297v653z" />
    <glyph glyph-name="Ccedilla" unicode="&#xc7;" horiz-adv-x="1220" 
d="M618 -422q-145 0 -256 72l56 94q83 -57 192 -57q111 0 111 77q0 62 -66 62q-46 0 -86 -37l-73 33l45 160q-218 35 -339.5 231t-121.5 547q0 383 152.5 583.5t412.5 200.5q219 0 336 -130.5t156 -369.5l-226 -40q-32 167 -93.5 241t-178.5 74q-156 0 -236.5 -142.5
t-80.5 -414.5q0 -283 81.5 -427.5t239.5 -144.5q120 0 186 76.5t101 259.5l223 -37q-98 -508 -502 -516l-22 -79q42 30 106 30q57 0 97 -37t40 -106q0 -91 -72.5 -147t-181.5 -56z" />
    <glyph glyph-name="Egrave" unicode="&#xc8;" horiz-adv-x="1058" 
d="M141 0v1516h822v-224h-580v-389h420v-217h-420v-469h610v-217h-852zM494 1608l-250 329h245l164 -329h-159z" />
    <glyph glyph-name="Eacute" unicode="&#xc9;" horiz-adv-x="1058" 
d="M416 1608l166 329h243l-250 -329h-159zM141 0v1516h822v-224h-580v-389h420v-217h-420v-469h610v-217h-852z" />
    <glyph glyph-name="Ecircumflex" unicode="&#xca;" horiz-adv-x="1058" 
d="M236 1606l225 331h157l226 -331h-139l-166 163l-166 -163h-137zM141 0v1516h822v-224h-580v-389h420v-217h-420v-469h610v-217h-852z" />
    <glyph glyph-name="Edieresis" unicode="&#xcb;" horiz-adv-x="1058" 
d="M614 1604v233h209v-233h-209zM256 1604v233h211v-233h-211zM141 0v1516h822v-224h-580v-389h420v-217h-420v-469h610v-217h-852z" />
    <glyph glyph-name="Igrave" unicode="&#xcc;" horiz-adv-x="546" 
d="M152 0v1516h241v-1516h-241zM209 1608l-250 329h246l164 -329h-160z" />
    <glyph glyph-name="Iacute" unicode="&#xcd;" horiz-adv-x="546" 
d="M152 0v1516h241v-1516h-241zM180 1608l166 329h244l-250 -329h-160z" />
    <glyph glyph-name="Icircumflex" unicode="&#xce;" horiz-adv-x="546" 
d="M152 0v1516h241v-1516h-241zM-31 1606l226 331h157l226 -331h-140l-166 163l-166 -163h-137z" />
    <glyph glyph-name="Idieresis" unicode="&#xcf;" horiz-adv-x="546" 
d="M152 0v1516h241v-1516h-241zM348 1604v233h209v-233h-209zM-10 1604v233h211v-233h-211z" />
    <glyph glyph-name="Eth" unicode="&#xd0;" horiz-adv-x="1255" 
d="M141 696h-118v191h118v629h365q160 0 280 -40t209.5 -127.5t135 -234.5t45.5 -352q0 -207 -46.5 -356t-136.5 -237t-209.5 -128.5t-277.5 -40.5h-365v696zM383 887h248v-191h-248v-481h149q214 0 307 125.5t93 421.5q0 287 -93.5 409.5t-308.5 122.5h-147v-407z" />
    <glyph glyph-name="Ntilde" unicode="&#xd1;" horiz-adv-x="1308" 
d="M141 0v1516h260l412 -805q62 -119 129 -265h4v1070h219v-1516h-223l-450 856q-94 184 -127 256h-5v-1112h-219zM793 1591q-42 0 -83.5 18t-69 39.5t-59 39.5t-55.5 18q-36 0 -53.5 -26t-17.5 -85h-129q0 283 192 283q41 0 82 -18t68 -39.5t59 -39.5t57 -18q36 0 54 25.5
t18 85.5h127q0 -283 -190 -283z" />
    <glyph glyph-name="Ograve" unicode="&#xd2;" horiz-adv-x="1308" 
d="M655 -29q-123 0 -227 50t-182 145.5t-122 247.5t-44 344t44 343.5t122 247.5t182 145.5t227 49.5q122 0 225.5 -49.5t182 -145.5t122.5 -247.5t44 -343.5t-44 -344t-122.5 -247.5t-182 -145.5t-225.5 -50zM655 190q158 0 244 146.5t86 421.5q0 274 -86 418.5t-244 144.5
q-160 0 -246.5 -144t-86.5 -419t87 -421.5t246 -146.5zM598 1608l-250 329h246l164 -329h-160z" />
    <glyph glyph-name="Oacute" unicode="&#xd3;" horiz-adv-x="1308" 
d="M551 1608l166 329h244l-250 -329h-160zM655 -29q-123 0 -227 50t-182 145.5t-122 247.5t-44 344t44 343.5t122 247.5t182 145.5t227 49.5q122 0 225.5 -49.5t182 -145.5t122.5 -247.5t44 -343.5t-44 -344t-122.5 -247.5t-182 -145.5t-225.5 -50zM655 190q158 0 244 146.5
t86 421.5q0 274 -86 418.5t-244 144.5q-160 0 -246.5 -144t-86.5 -419t87 -421.5t246 -146.5z" />
    <glyph glyph-name="Ocircumflex" unicode="&#xd4;" horiz-adv-x="1308" 
d="M350 1606l225 331h158l225 -331h-139l-166 163l-166 -163h-137zM655 -29q-123 0 -227 50t-182 145.5t-122 247.5t-44 344t44 343.5t122 247.5t182 145.5t227 49.5q122 0 225.5 -49.5t182 -145.5t122.5 -247.5t44 -343.5t-44 -344t-122.5 -247.5t-182 -145.5t-225.5 -50z
M655 190q158 0 244 146.5t86 421.5q0 274 -86 418.5t-244 144.5q-160 0 -246.5 -144t-86.5 -419t87 -421.5t246 -146.5z" />
    <glyph glyph-name="Otilde" unicode="&#xd5;" horiz-adv-x="1308" 
d="M655 -29q-123 0 -227 50t-182 145.5t-122 247.5t-44 344t44 343.5t122 247.5t182 145.5t227 49.5q122 0 225.5 -49.5t182 -145.5t122.5 -247.5t44 -343.5t-44 -344t-122.5 -247.5t-182 -145.5t-225.5 -50zM655 190q158 0 244 146.5t86 421.5q0 274 -86 418.5t-244 144.5
q-160 0 -246.5 -144t-86.5 -419t87 -421.5t246 -146.5zM793 1591q-42 0 -83.5 18t-69 39.5t-59 39.5t-55.5 18q-36 0 -53.5 -26t-17.5 -85h-129q0 283 192 283q41 0 82 -18t68 -39.5t59 -39.5t57 -18q36 0 54 25.5t18 85.5h127q0 -283 -190 -283z" />
    <glyph glyph-name="Odieresis" unicode="&#xd6;" horiz-adv-x="1308" 
d="M729 1604v233h209v-233h-209zM371 1604v233h211v-233h-211zM655 -29q-123 0 -227 50t-182 145.5t-122 247.5t-44 344t44 343.5t122 247.5t182 145.5t227 49.5q122 0 225.5 -49.5t182 -145.5t122.5 -247.5t44 -343.5t-44 -344t-122.5 -247.5t-182 -145.5t-225.5 -50z
M655 190q158 0 244 146.5t86 421.5q0 274 -86 418.5t-244 144.5q-160 0 -246.5 -144t-86.5 -419t87 -421.5t246 -146.5z" />
    <glyph glyph-name="multiply" unicode="&#xd7;" horiz-adv-x="1126" 
d="M252 246l-131 131l311 311l-311 309l131 131l311 -311l309 311l132 -131l-312 -309l312 -311l-132 -131l-309 311z" />
    <glyph glyph-name="Oslash" unicode="&#xd8;" horiz-adv-x="1308" 
d="M1077 1327q152 -209 152 -569q0 -192 -44 -344t-122.5 -247.5t-182 -145.5t-225.5 -50q-177 0 -313 103l-102 -168l-134 82l123 202q-149 208 -149 568q0 192 44 343.5t122 247.5t182 145.5t227 49.5q178 0 310 -100l104 168l133 -82zM371 410l481 833q-82 82 -197 82
q-160 0 -249 -146.5t-89 -420.5q0 -206 54 -348zM936 1106l-483 -834q80 -86 202 -86q158 0 246 148.5t88 423.5q0 212 -53 348z" />
    <glyph glyph-name="Ugrave" unicode="&#xd9;" horiz-adv-x="1243" 
d="M623 -27q-498 0 -498 537v1006h242v-984q0 -177 60 -260.5t200 -83.5q138 0 198 83t60 257v988h231v-1002q0 -258 -120.5 -399.5t-372.5 -141.5zM565 1608l-250 329h246l164 -329h-160z" />
    <glyph glyph-name="Uacute" unicode="&#xda;" horiz-adv-x="1243" 
d="M518 1608l166 329h244l-250 -329h-160zM623 -27q-498 0 -498 537v1006h242v-984q0 -177 60 -260.5t200 -83.5q138 0 198 83t60 257v988h231v-1002q0 -258 -120.5 -399.5t-372.5 -141.5z" />
    <glyph glyph-name="Ucircumflex" unicode="&#xdb;" horiz-adv-x="1243" 
d="M317 1606l226 331h157l226 -331h-140l-165 163l-166 -163h-138zM623 -27q-498 0 -498 537v1006h242v-984q0 -177 60 -260.5t200 -83.5q138 0 198 83t60 257v988h231v-1002q0 -258 -120.5 -399.5t-372.5 -141.5z" />
    <glyph glyph-name="Udieresis" unicode="&#xdc;" horiz-adv-x="1243" 
d="M696 1604v233h209v-233h-209zM338 1604v233h211v-233h-211zM623 -27q-498 0 -498 537v1006h242v-984q0 -177 60 -260.5t200 -83.5q138 0 198 83t60 257v988h231v-1002q0 -258 -120.5 -399.5t-372.5 -141.5z" />
    <glyph glyph-name="Yacute" unicode="&#xdd;" horiz-adv-x="1128" 
d="M442 0v610l-424 906h248l301 -687h4l301 687h236l-424 -904v-612h-242zM461 1608l166 329h243l-249 -329h-160z" />
    <glyph glyph-name="Thorn" unicode="&#xde;" horiz-adv-x="1153" 
d="M141 0v1516h238v-261h203q108 0 196 -25.5t156.5 -79t106.5 -145.5t38 -217q0 -107 -27.5 -190.5t-73.5 -137t-112 -88t-138 -49t-155 -14.5h-194v-309h-238zM379 520h203q138 0 202 61.5t64 200.5q0 135 -64 193.5t-204 58.5h-201v-514z" />
    <glyph glyph-name="germandbls" unicode="&#xdf;" horiz-adv-x="1140" 
d="M686 -20q-173 0 -268 65l96 162q71 -43 154 -43q82 0 137 66t55 190q0 156 -85 224t-277 79v178q252 3 252 223q0 90 -50 140.5t-143 50.5q-205 0 -205 -254v-1061h-233v1055q0 223 118 342t322 119q191 0 300.5 -94t109.5 -267q0 -119 -59.5 -206.5t-149.5 -119.5
q149 -32 236 -135.5t87 -269.5q0 -199 -105 -321.5t-292 -122.5z" />
    <glyph glyph-name="agrave" unicode="&#xe0;" horiz-adv-x="991" 
d="M319 -12q-118 0 -190 73t-72 205q0 340 596 453v47q0 76 -31.5 108.5t-103.5 32.5q-164 0 -307 -125l-117 144q90 83 208 132.5t245 49.5q170 0 252 -85.5t82 -256.5v-500q0 -187 26 -266h-231q-23 79 -23 137q-56 -71 -143 -110t-191 -39zM412 172q135 0 241 113v274
q-368 -79 -368 -254q0 -66 33.5 -99.5t93.5 -33.5zM459 1198l-250 330h246l163 -330h-159z" />
    <glyph glyph-name="aacute" unicode="&#xe1;" horiz-adv-x="991" 
d="M319 -12q-118 0 -190 73t-72 205q0 340 596 453v47q0 76 -31.5 108.5t-103.5 32.5q-164 0 -307 -125l-117 144q90 83 208 132.5t245 49.5q170 0 252 -85.5t82 -256.5v-500q0 -187 26 -266h-231q-23 79 -23 137q-56 -71 -143 -110t-191 -39zM412 172q135 0 241 113v274
q-368 -79 -368 -254q0 -66 33.5 -99.5t93.5 -33.5zM371 1198l166 330h243l-250 -330h-159z" />
    <glyph glyph-name="acircumflex" unicode="&#xe2;" horiz-adv-x="991" 
d="M319 -12q-118 0 -190 73t-72 205q0 340 596 453v47q0 76 -31.5 108.5t-103.5 32.5q-164 0 -307 -125l-117 144q90 83 208 132.5t245 49.5q170 0 252 -85.5t82 -256.5v-500q0 -187 26 -266h-231q-23 79 -23 137q-56 -71 -143 -110t-191 -39zM412 172q135 0 241 113v274
q-368 -79 -368 -254q0 -66 33.5 -99.5t93.5 -33.5zM190 1196l226 332h157l226 -332h-140l-165 164l-166 -164h-138z" />
    <glyph glyph-name="atilde" unicode="&#xe3;" horiz-adv-x="991" 
d="M319 -12q-118 0 -190 73t-72 205q0 340 596 453v47q0 76 -31.5 108.5t-103.5 32.5q-164 0 -307 -125l-117 144q90 83 208 132.5t245 49.5q170 0 252 -85.5t82 -256.5v-500q0 -187 26 -266h-231q-23 79 -23 137q-56 -71 -143 -110t-191 -39zM412 172q135 0 241 113v274
q-368 -79 -368 -254q0 -66 33.5 -99.5t93.5 -33.5zM633 1182q-42 0 -83 18t-68.5 39t-59 39t-55.5 18q-36 0 -54 -26t-18 -84h-129q0 282 192 282q41 0 82 -18t68.5 -39t59.5 -39t57 -18q36 0 53.5 25t17.5 85h127q0 -282 -190 -282z" />
    <glyph glyph-name="adieresis" unicode="&#xe4;" horiz-adv-x="991" 
d="M319 -12q-118 0 -190 73t-72 205q0 340 596 453v47q0 76 -31.5 108.5t-103.5 32.5q-164 0 -307 -125l-117 144q90 83 208 132.5t245 49.5q170 0 252 -85.5t82 -256.5v-500q0 -187 26 -266h-231q-23 79 -23 137q-56 -71 -143 -110t-191 -39zM412 172q135 0 241 113v274
q-368 -79 -368 -254q0 -66 33.5 -99.5t93.5 -33.5zM569 1194v233h209v-233h-209zM211 1194v233h211v-233h-211z" />
    <glyph glyph-name="aring" unicode="&#xe5;" horiz-adv-x="991" 
d="M319 -12q-118 0 -190 73t-72 205q0 340 596 453v47q0 76 -31.5 108.5t-103.5 32.5q-164 0 -307 -125l-117 144q90 83 208 132.5t245 49.5q170 0 252 -85.5t82 -256.5v-500q0 -187 26 -266h-231q-23 79 -23 137q-56 -71 -143 -110t-191 -39zM412 172q135 0 241 113v274
q-368 -79 -368 -254q0 -66 33.5 -99.5t93.5 -33.5zM494 1174q-85 0 -138 59.5t-53 150.5q0 92 53 151.5t138 59.5t138.5 -59.5t53.5 -151.5q0 -90 -53.5 -150t-138.5 -60zM494 1274q38 0 59.5 31.5t21.5 78.5q0 45 -21.5 76t-59.5 31q-37 0 -58.5 -31t-21.5 -76
q0 -46 21.5 -78t58.5 -32z" />
    <glyph glyph-name="ae" unicode="&#xe6;" horiz-adv-x="1566" 
d="M731 184q-166 -196 -412 -196q-118 0 -190 73t-72 205q0 340 596 453v47q0 76 -31.5 108.5t-103.5 32.5q-164 0 -307 -125l-117 144q91 84 210 133t253 49q194 0 252 -125q59 62 132 93.5t149 31.5q191 0 302 -143t111 -428v-64h-626q7 -151 66.5 -228t162.5 -77
q81 0 136.5 36t111.5 111l147 -106q-66 -105 -169.5 -168.5t-237.5 -63.5q-118 0 -212 52t-151 155zM653 557q-368 -81 -368 -252q0 -66 33.5 -99.5t93.5 -33.5q144 0 270 135q-29 110 -29 236v14zM879 637h407q-15 276 -196 276q-83 0 -140.5 -66.5t-70.5 -209.5z" />
    <glyph glyph-name="ccedilla" unicode="&#xe7;" horiz-adv-x="958" 
d="M487 -422q-145 0 -256 72l56 94q83 -57 192 -57q111 0 111 77q0 62 -66 62q-46 0 -86 -37l-73 33l47 166q-154 33 -250 174t-96 381q0 117 24.5 212.5t67 160t100 108.5t122 64t134.5 20q71 0 129.5 -17.5t99 -47.5t73 -74.5t53 -92.5t36.5 -108l-209 -51
q-27 101 -69 146.5t-117 45.5q-97 0 -154 -88.5t-57 -277.5q0 -182 53 -277.5t158 -95.5q76 0 124 45.5t73 155.5l202 -52q-88 -331 -389 -342l-22 -83q42 30 106 30q57 0 97 -37t40 -106q0 -91 -72.5 -147t-181.5 -56z" />
    <glyph glyph-name="egrave" unicode="&#xe8;" horiz-adv-x="987" 
d="M514 -23q-96 0 -176 34t-141.5 101.5t-96 177.5t-34.5 253q0 145 38 257t102 177.5t141 98t163 32.5q191 0 301.5 -143t110.5 -428v-64h-627q7 -151 66.5 -228t162.5 -77q81 0 136.5 36t111.5 111l148 -106q-65 -103 -172 -167.5t-234 -64.5zM297 637h408
q-15 276 -197 276q-83 0 -140.5 -66.5t-70.5 -209.5zM446 1198l-249 330h245l164 -330h-160z" />
    <glyph glyph-name="eacute" unicode="&#xe9;" horiz-adv-x="987" 
d="M389 1198l166 330h244l-250 -330h-160zM514 -23q-96 0 -176 34t-141.5 101.5t-96 177.5t-34.5 253q0 145 38 257t102 177.5t141 98t163 32.5q191 0 301.5 -143t110.5 -428v-64h-627q7 -151 66.5 -228t162.5 -77q81 0 136.5 36t111.5 111l148 -106q-65 -103 -172 -167.5
t-234 -64.5zM297 637h408q-15 276 -197 276q-83 0 -140.5 -66.5t-70.5 -209.5z" />
    <glyph glyph-name="ecircumflex" unicode="&#xea;" horiz-adv-x="987" 
d="M188 1196l226 332h157l226 -332h-140l-165 164l-166 -164h-138zM514 -23q-96 0 -176 34t-141.5 101.5t-96 177.5t-34.5 253q0 145 38 257t102 177.5t141 98t163 32.5q191 0 301.5 -143t110.5 -428v-64h-627q7 -151 66.5 -228t162.5 -77q81 0 136.5 36t111.5 111l148 -106
q-65 -103 -172 -167.5t-234 -64.5zM297 637h408q-15 276 -197 276q-83 0 -140.5 -66.5t-70.5 -209.5z" />
    <glyph glyph-name="edieresis" unicode="&#xeb;" horiz-adv-x="987" 
d="M567 1194v233h209v-233h-209zM209 1194v233h211v-233h-211zM514 -23q-96 0 -176 34t-141.5 101.5t-96 177.5t-34.5 253q0 145 38 257t102 177.5t141 98t163 32.5q191 0 301.5 -143t110.5 -428v-64h-627q7 -151 66.5 -228t162.5 -77q81 0 136.5 36t111.5 111l148 -106
q-65 -103 -172 -167.5t-234 -64.5zM297 637h408q-15 276 -197 276q-83 0 -140.5 -66.5t-70.5 -209.5z" />
    <glyph glyph-name="igrave" unicode="&#xec;" horiz-adv-x="489" 
d="M127 0v1085h233v-1085h-233zM178 1198l-250 330h246l164 -330h-160z" />
    <glyph glyph-name="iacute" unicode="&#xed;" horiz-adv-x="489" 
d="M152 1198l165 330h244l-250 -330h-159zM127 0v1085h233v-1085h-233z" />
    <glyph glyph-name="icircumflex" unicode="&#xee;" horiz-adv-x="489" 
d="M-59 1196l225 332h158l225 -332h-139l-166 164l-166 -164h-137zM127 0v1085h233v-1085h-233z" />
    <glyph glyph-name="idieresis" unicode="&#xef;" horiz-adv-x="489" 
d="M319 1194v233h209v-233h-209zM-39 1194v233h211v-233h-211zM127 0v1085h233v-1085h-233z" />
    <glyph glyph-name="eth" unicode="&#xf0;" horiz-adv-x="1038" 
d="M614 1192l-147 -84l-78 139l121 70q-38 43 -109 100l125 131q86 -62 154 -133l151 88l78 -139l-127 -74q100 -145 144.5 -324.5t44.5 -406.5q0 -281 -122.5 -431.5t-328.5 -150.5t-330 144t-124 395q0 252 113.5 388t299.5 136q78 0 150.5 -37t111.5 -106
q-30 152 -127 295zM520 166q106 0 162.5 92t56.5 262q0 165 -56.5 256.5t-162.5 91.5q-107 0 -164 -89t-57 -261q0 -168 55.5 -260t165.5 -92z" />
    <glyph glyph-name="ntilde" unicode="&#xf1;" horiz-adv-x="1058" 
d="M117 0v1085h233v-141q54 67 143 115.5t191 48.5q126 0 196 -78t70 -227v-803h-233v750q0 81 -29.5 119t-95.5 38q-60 0 -127.5 -40t-114.5 -87v-780h-233zM668 1182q-42 0 -83.5 18t-69 39t-59 39t-55.5 18q-36 0 -53.5 -25.5t-17.5 -84.5h-129q0 282 192 282
q41 0 82 -18t68 -39t59 -39t57 -18q37 0 54.5 25t17.5 85h127q0 -282 -190 -282z" />
    <glyph glyph-name="ograve" unicode="&#xf2;" horiz-adv-x="1040" 
d="M520 -23q-93 0 -174 34.5t-144 102.5t-99.5 178t-36.5 251q0 142 36 252.5t99 177.5t144 101t175 34t174 -34t143.5 -101t99.5 -177.5t36 -252.5q0 -141 -36 -251t-99 -178t-144 -102.5t-174 -34.5zM520 168q219 0 219 375q0 173 -53.5 270.5t-165.5 97.5
q-221 0 -221 -368q0 -115 21.5 -196t71.5 -130t128 -49zM463 1198l-250 330h246l164 -330h-160z" />
    <glyph glyph-name="oacute" unicode="&#xf3;" horiz-adv-x="1040" 
d="M416 1198l166 330h243l-250 -330h-159zM520 -23q-93 0 -174 34.5t-144 102.5t-99.5 178t-36.5 251q0 142 36 252.5t99 177.5t144 101t175 34t174 -34t143.5 -101t99.5 -177.5t36 -252.5q0 -141 -36 -251t-99 -178t-144 -102.5t-174 -34.5zM520 168q219 0 219 375
q0 173 -53.5 270.5t-165.5 97.5q-221 0 -221 -368q0 -115 21.5 -196t71.5 -130t128 -49z" />
    <glyph glyph-name="ocircumflex" unicode="&#xf4;" horiz-adv-x="1040" 
d="M215 1196l225 332h158l225 -332h-139l-166 164l-166 -164h-137zM520 -23q-93 0 -174 34.5t-144 102.5t-99.5 178t-36.5 251q0 142 36 252.5t99 177.5t144 101t175 34t174 -34t143.5 -101t99.5 -177.5t36 -252.5q0 -141 -36 -251t-99 -178t-144 -102.5t-174 -34.5z
M520 168q219 0 219 375q0 173 -53.5 270.5t-165.5 97.5q-221 0 -221 -368q0 -115 21.5 -196t71.5 -130t128 -49z" />
    <glyph glyph-name="otilde" unicode="&#xf5;" horiz-adv-x="1040" 
d="M520 -23q-93 0 -174 34.5t-144 102.5t-99.5 178t-36.5 251q0 142 36 252.5t99 177.5t144 101t175 34t174 -34t143.5 -101t99.5 -177.5t36 -252.5q0 -141 -36 -251t-99 -178t-144 -102.5t-174 -34.5zM520 168q219 0 219 375q0 173 -53.5 270.5t-165.5 97.5
q-221 0 -221 -368q0 -115 21.5 -196t71.5 -130t128 -49zM657 1182q-42 0 -83 18t-68.5 39t-59 39t-55.5 18q-36 0 -54 -26t-18 -84h-129q0 282 193 282q41 0 82 -18t68 -39t59 -39t57 -18q37 0 54.5 25t17.5 85h127q0 -282 -191 -282z" />
    <glyph glyph-name="odieresis" unicode="&#xf6;" horiz-adv-x="1040" 
d="M594 1194v233h209v-233h-209zM236 1194v233h210v-233h-210zM520 -23q-93 0 -174 34.5t-144 102.5t-99.5 178t-36.5 251q0 142 36 252.5t99 177.5t144 101t175 34t174 -34t143.5 -101t99.5 -177.5t36 -252.5q0 -141 -36 -251t-99 -178t-144 -102.5t-174 -34.5zM520 168
q219 0 219 375q0 173 -53.5 270.5t-165.5 97.5q-221 0 -221 -368q0 -115 21.5 -196t71.5 -130t128 -49z" />
    <glyph glyph-name="divide" unicode="&#xf7;" horiz-adv-x="1126" 
d="M455 954v217h215v-217h-215zM104 590v194h918v-194h-918zM455 201v219h215v-219h-215z" />
    <glyph glyph-name="oslash" unicode="&#xf8;" horiz-adv-x="1040" 
d="M862 942q111 -150 111 -399q0 -141 -36 -251t-99 -178t-144 -102.5t-174 -34.5q-136 0 -246 72l-90 -135l-114 74l104 159q-108 151 -108 396q0 142 36 252.5t99 177.5t144 101t175 34q136 0 240 -70l94 138l113 -74zM315 346l336 518q-51 51 -131 51q-111 0 -169 -96.5
t-58 -275.5q0 -107 22 -197zM721 741l-340 -518q53 -59 139 -59q111 0 168 98.5t57 280.5q0 115 -24 198z" />
    <glyph glyph-name="ugrave" unicode="&#xf9;" horiz-adv-x="1058" 
d="M375 -23q-126 0 -196 78.5t-70 227.5v802h233v-753q0 -81 30 -118.5t99 -37.5q107 0 238 127v782h233v-1085h-233v141q-62 -71 -147 -117.5t-187 -46.5zM494 1198l-250 330h245l164 -330h-159z" />
    <glyph glyph-name="uacute" unicode="&#xfa;" horiz-adv-x="1058" 
d="M406 1198l165 330h244l-250 -330h-159zM375 -23q-126 0 -196 78.5t-70 227.5v802h233v-753q0 -81 30 -118.5t99 -37.5q107 0 238 127v782h233v-1085h-233v141q-62 -71 -147 -117.5t-187 -46.5z" />
    <glyph glyph-name="ucircumflex" unicode="&#xfb;" horiz-adv-x="1058" 
d="M225 1196l226 332h157l226 -332h-140l-166 164l-166 -164h-137zM375 -23q-126 0 -196 78.5t-70 227.5v802h233v-753q0 -81 30 -118.5t99 -37.5q107 0 238 127v782h233v-1085h-233v141q-62 -71 -147 -117.5t-187 -46.5z" />
    <glyph glyph-name="udieresis" unicode="&#xfc;" horiz-adv-x="1058" 
d="M604 1194v233h209v-233h-209zM246 1194v233h211v-233h-211zM375 -23q-126 0 -196 78.5t-70 227.5v802h233v-753q0 -81 30 -118.5t99 -37.5q107 0 238 127v782h233v-1085h-233v141q-62 -71 -147 -117.5t-187 -46.5z" />
    <glyph glyph-name="yacute" unicode="&#xfd;" horiz-adv-x="958" 
d="M211 -414q-119 0 -213 29l45 184q81 -18 145 -18q60 0 92 31t56 104l22 72l-340 1097h242l135 -493q53 -190 82 -332h4q42 177 86 342l135 483h226l-377 -1198q-50 -159 -124 -230t-216 -71zM375 1198l166 330h243l-249 -330h-160z" />
    <glyph glyph-name="thorn" unicode="&#xfe;" horiz-adv-x="1067" 
d="M117 -410v1926h233v-564q120 156 291 156q165 0 262.5 -141t97.5 -422t-102.5 -421t-271.5 -140q-91 0 -156.5 34t-120.5 103v-531h-233zM563 174q203 0 203 369q0 366 -205 366q-51 0 -112 -39t-99 -84v-495q93 -117 213 -117z" />
    <glyph glyph-name="ydieresis" unicode="&#xff;" horiz-adv-x="958" 
d="M211 -414q-119 0 -213 29l45 184q81 -18 145 -18q60 0 92 31t56 104l22 72l-340 1097h242l135 -493q53 -190 82 -332h4q42 177 86 342l135 483h226l-377 -1198q-50 -159 -124 -230t-216 -71zM553 1194v233h209v-233h-209zM195 1194v233h211v-233h-211z" />
    <glyph glyph-name="dotlessi" unicode="&#x131;" horiz-adv-x="489" 
d="M127 0v1085h233v-1085h-233z" />
    <glyph glyph-name="Lslash" unicode="&#x141;" horiz-adv-x="1019" 
d="M141 0v633l-118 -47v190l118 49v691h242v-609l223 99v-195l-223 -94v-500h584v-217h-826z" />
    <glyph glyph-name="lslash" unicode="&#x142;" horiz-adv-x="573" 
d="M170 0v860l-127 -55v184l127 55v472h233v-396l125 56v-185l-125 -55v-936h-233z" />
    <glyph glyph-name="OE" unicode="&#x152;" horiz-adv-x="1902" 
d="M1008 1378v138h796v-224h-579v-391h422v-213h-422v-471h612v-217h-829v147q-116 -176 -353 -176q-123 0 -227 50t-182 145.5t-122 247.5t-44 344t44 343.5t122 247.5t182 145.5t227 49.5q109 0 200 -41.5t153 -124.5zM655 190q158 0 244 146.5t86 421.5q0 274 -86 418.5
t-244 144.5q-160 0 -246.5 -144t-86.5 -419t87 -421.5t246 -146.5z" />
    <glyph glyph-name="oe" unicode="&#x153;" horiz-adv-x="1652" 
d="M850 934q60 87 144.5 130.5t181.5 43.5q191 0 302 -143t111 -428v-64h-626q7 -151 66.5 -228t162.5 -77q81 0 136.5 36t111.5 111l147 -106q-66 -105 -169.5 -168.5t-237.5 -63.5q-215 0 -332 170q-58 -84 -142.5 -127t-185.5 -43q-93 0 -174 34.5t-144 102.5t-99.5 178
t-36.5 251q0 142 36 252.5t99 177.5t144 101t175 34q103 0 188.5 -44t141.5 -130zM965 637h407q-15 276 -196 276q-83 0 -140.5 -66.5t-70.5 -209.5zM520 168q219 0 219 375q0 173 -53.5 270.5t-165.5 97.5q-221 0 -221 -368q0 -115 21.5 -196t71.5 -130t128 -49z" />
    <glyph glyph-name="Scaron" unicode="&#x160;" horiz-adv-x="1161" 
d="M500 1610l-224 332h140l166 -164l166 164h137l-226 -332h-159zM598 -27q-371 0 -537 365l203 100q119 -254 334 -254q116 0 180 51.5t64 145.5q0 44 -17 82t-39.5 64t-67 54t-76.5 44t-91 43q-157 72 -218 111q-166 107 -199 271q-9 45 -9 95q0 177 126 288t320 111
q333 0 484 -330l-203 -104q-49 105 -116 163t-169 58q-94 0 -149.5 -47.5t-55.5 -128.5q0 -43 16 -80t38.5 -63t64 -54t74 -45t86.5 -43q161 -73 225 -114q174 -113 204 -284q7 -40 7 -83q0 -85 -32.5 -160t-92 -132t-151.5 -90.5t-203 -33.5z" />
    <glyph glyph-name="scaron" unicode="&#x161;" horiz-adv-x="921" 
d="M381 1200l-223 332h139l166 -164l166 164h137l-225 -332h-160zM461 -23q-144 0 -256 56t-185 155l144 121q59 -73 138.5 -112t162.5 -39q178 0 178 123q0 42 -24 73.5t-63 50.5t-89 38.5t-102.5 35.5t-102.5 43t-89 60.5t-63 89.5t-24 127q0 144 105.5 226.5t267.5 82.5
q115 0 216 -48.5t167 -135.5l-140 -127q-48 56 -111.5 91.5t-133.5 35.5q-73 0 -111.5 -29.5t-38.5 -83.5q0 -41 24 -72.5t63 -50t88.5 -37t102 -34.5t102 -43t88.5 -61t63 -90t24 -128q0 -147 -115.5 -232.5t-285.5 -85.5z" />
    <glyph glyph-name="Ydieresis" unicode="&#x178;" horiz-adv-x="1128" 
d="M442 0v610l-424 906h248l301 -687h4l301 687h236l-424 -904v-612h-242zM639 1604v233h209v-233h-209zM281 1604v233h211v-233h-211z" />
    <glyph glyph-name="Zcaron" unicode="&#x17d;" horiz-adv-x="1103" 
d="M471 1610l-223 332h139l166 -164l166 164h137l-225 -332h-160zM55 0v176l684 1116h-635v224h926v-181l-676 -1118h676v-217h-975z" />
    <glyph glyph-name="zcaron" unicode="&#x17e;" horiz-adv-x="903" 
d="M371 1200l-224 332h140l166 -164l165 164h138l-226 -332h-159zM55 0v145l488 754h-447v186h725v-147l-489 -754h516v-184h-793z" />
    <glyph glyph-name="florin" unicode="&#x192;" horiz-adv-x="741" 
d="M211 707h-162l27 182h160l43 330q19 153 104.5 228t255.5 75q40 0 121 -9l-27 -188q-54 6 -74 6q-65 0 -104 -28t-47 -101l-41 -313h197l-25 -182h-197l-112 -836q-21 -144 -102.5 -214.5t-250.5 -70.5q-87 0 -127 8l29 185q32 -8 68 -8q137 0 157 143z" />
    <glyph glyph-name="circumflex" unicode="&#x2c6;" horiz-adv-x="948" 
d="M170 1196l225 332h158l225 -332h-139l-166 164l-166 -164h-137z" />
    <glyph glyph-name="caron" unicode="&#x2c7;" horiz-adv-x="948" 
d="M393 1200l-223 332h139l166 -164l166 164h137l-225 -332h-160z" />
    <glyph glyph-name="breve" unicode="&#x2d8;" horiz-adv-x="948" 
d="M475 1186q-138 0 -211.5 93t-81.5 257h137q19 -195 156 -195q135 0 154 195h137q-8 -164 -81 -257t-210 -93z" />
    <glyph glyph-name="dotaccent" unicode="&#x2d9;" horiz-adv-x="948" 
d="M348 1196v221h250v-221h-250z" />
    <glyph glyph-name="ring" unicode="&#x2da;" horiz-adv-x="948" 
d="M473 1174q-85 0 -137.5 59.5t-52.5 150.5q0 92 52.5 151.5t137.5 59.5t139 -59.5t54 -151.5q0 -90 -54 -150t-139 -60zM473 1274q38 0 60 32t22 78q0 45 -22 76t-60 31q-37 0 -58.5 -31t-21.5 -76q0 -46 21.5 -78t58.5 -32z" />
    <glyph glyph-name="ogonek" unicode="&#x2db;" horiz-adv-x="948" 
d="M455 -391q-93 0 -143 44t-50 118q0 63 44 127.5t110 111.5h127q-59 -42 -91 -95t-32 -105q0 -89 86 -89q62 0 153 52l56 -76q-63 -43 -123 -65.5t-137 -22.5z" />
    <glyph glyph-name="tilde" unicode="&#x2dc;" horiz-adv-x="948" 
d="M612 1182q-42 0 -83 18t-68.5 39t-59 39t-55.5 18q-36 0 -54 -26t-18 -84h-129q0 282 193 282q41 0 82 -18t68 -39t59 -39t57 -18q37 0 54.5 25t17.5 85h127q0 -282 -191 -282z" />
    <glyph glyph-name="hungarumlaut" unicode="&#x2dd;" horiz-adv-x="948" 
d="M532 1198l179 330h247l-266 -330h-160zM203 1198l172 330h248l-258 -330h-162z" />
    <glyph glyph-name="Delta" unicode="&#x394;" horiz-adv-x="1148" 
d="M193 0v899h-156v186h156v134q0 144 73 222.5t248 78.5q91 0 119 -7v-188q-16 4 -70 4q-65 0 -101 -28t-36 -99v-117h199v-186h-199v-899h-233zM786 1264v219h236v-219h-236zM745 -412q-93 0 -120 9v176q18 -6 65 -6q49 0 72.5 29t23.5 91v1198h234v-1220
q0 -138 -60 -207.5t-215 -69.5z" />
    <glyph glyph-name="Delta" unicode="&#x2206;" horiz-adv-x="1148" 
d="M193 0v899h-156v186h156v134q0 144 73 222.5t248 78.5q91 0 119 -7v-188q-16 4 -70 4q-65 0 -101 -28t-36 -99v-117h199v-186h-199v-899h-233zM786 1264v219h236v-219h-236zM745 -412q-93 0 -120 9v176q18 -6 65 -6q49 0 72.5 29t23.5 91v1198h234v-1220
q0 -138 -60 -207.5t-215 -69.5z" />
    <glyph glyph-name="space.tab" unicode="&#x2007;" horiz-adv-x="577" 
 />
    <glyph glyph-name="endash.tab" unicode="&#x2012;" 
d="M92 537v202h971v-202h-971z" />
    <glyph glyph-name="endash" unicode="&#x2013;" horiz-adv-x="1165" 
d="M96 537v202h971v-202h-971z" />
    <glyph glyph-name="emdash" unicode="&#x2014;" horiz-adv-x="1572" 
d="M94 537v202h1383v-202h-1383z" />
    <glyph glyph-name="quoteleft" unicode="&#x2018;" horiz-adv-x="497" 
d="M125 1024v244l119 248h110l-71 -230h88v-262h-246z" />
    <glyph glyph-name="quoteright" unicode="&#x2019;" horiz-adv-x="497" 
d="M143 1024l72 229h-90v263h246v-244l-117 -248h-111z" />
    <glyph glyph-name="quotesinglbase" unicode="&#x201a;" horiz-adv-x="497" 
d="M143 -229l72 229h-90v262h246v-244l-117 -247h-111z" />
    <glyph glyph-name="quotedblleft" unicode="&#x201c;" horiz-adv-x="899" 
d="M528 1024v244l117 248h109l-70 -230h88v-262h-244zM125 1024v244l119 248h110l-71 -230h88v-262h-246z" />
    <glyph glyph-name="quotedblright" unicode="&#x201d;" horiz-adv-x="899" 
d="M545 1024l71 229h-88v263h244v-244l-117 -248h-110zM143 1024l72 229h-90v263h246v-244l-117 -248h-111z" />
    <glyph glyph-name="quotedblbase" unicode="&#x201e;" horiz-adv-x="899" 
d="M545 -229l71 229h-88v262h244v-244l-117 -247h-110zM143 -229l72 229h-90v262h246v-244l-117 -247h-111z" />
    <glyph glyph-name="dagger" unicode="&#x2020;" horiz-adv-x="1034" 
d="M393 -410l37 1221l-362 -25v215l362 -26l-37 541h246l-35 -541l363 26v-215l-363 25l35 -1221h-246z" />
    <glyph glyph-name="daggerdbl" unicode="&#x2021;" horiz-adv-x="1032" 
d="M393 -410l37 455l-342 -27v209l342 -26l-29 356l29 348l-342 -24v209l342 -27l-37 453h246l-37 -453l342 27v-209l-342 24l31 -348l-31 -356l342 26v-209l-342 27l37 -455h-246z" />
    <glyph glyph-name="bullet" unicode="&#x2022;" horiz-adv-x="948" 
d="M473 465q-109 0 -180.5 71.5t-71.5 180.5q0 110 71.5 182t180.5 72q110 0 182 -72t72 -182q0 -109 -72 -180.5t-182 -71.5z" />
    <glyph glyph-name="ellipsis" unicode="&#x2026;" horiz-adv-x="1480" 
d="M1108 0v262h250v-262h-250zM614 0v262h250v-262h-250zM121 0v262h250v-262h-250z" />
    <glyph glyph-name="perthousand" unicode="&#x2030;" horiz-adv-x="2521" 
d="M397 580q-157 0 -241 122.5t-84 356.5t84 356.5t241 122.5q156 0 240 -122t84 -357t-84 -357t-240 -122zM416 0l770 1516h196l-770 -1516h-196zM2126 -18q-157 0 -241.5 122.5t-84.5 356.5q0 233 84.5 355t241.5 122q155 0 238 -122t83 -355q0 -235 -83 -357t-238 -122z
M1405 -18q-157 0 -241.5 122.5t-84.5 356.5q0 233 84.5 355t241.5 122q155 0 238 -122t83 -355q0 -235 -83 -357t-238 -122zM397 756q70 0 99.5 71t29.5 232q0 159 -30.5 230t-98.5 71q-70 0 -99.5 -69.5t-29.5 -231.5q0 -161 30.5 -232t98.5 -71zM2126 156q70 0 99.5 71
t29.5 234q0 158 -30.5 228.5t-98.5 70.5q-71 0 -101 -69t-30 -230t31 -233t100 -72zM1405 156q70 0 99.5 71t29.5 234q0 158 -30.5 228.5t-98.5 70.5q-71 0 -101 -69t-30 -230t31 -233t100 -72z" />
    <glyph glyph-name="guilsinglleft" unicode="&#x2039;" horiz-adv-x="606" 
d="M313 0l-264 543l264 540h224l-256 -540l256 -543h-224z" />
    <glyph glyph-name="guilsinglright" unicode="&#x203a;" horiz-adv-x="606" 
d="M68 0l258 543l-258 540h223l266 -540l-266 -543h-223z" />
    <glyph glyph-name="fraction" unicode="&#x2044;" horiz-adv-x="935" 
d="M-14 0l753 1516h211l-753 -1516h-211z" />
    <glyph glyph-name="fraction" unicode="&#x2215;" horiz-adv-x="935" 
d="M-14 0l753 1516h211l-753 -1516h-211z" />
    <glyph glyph-name="Euro" unicode="&#x20ac;" horiz-adv-x="1263" 
d="M221 823h-188v170h203q37 280 165.5 415.5t327.5 135.5q194 0 310 -119.5t149 -330.5l-221 -37q-23 134 -78 204t-158 70q-109 0 -174 -83.5t-88 -254.5h324v-170h-338v-59q0 -55 2 -82h336v-170h-324q22 -169 86.5 -250.5t181.5 -81.5q102 0 163 71t87 218l217 -29
q-34 -207 -155.5 -338t-311.5 -131q-203 0 -331.5 132.5t-167.5 408.5h-205v170h190q-2 27 -2 80v61z" />
    <glyph glyph-name="trademark" unicode="&#x2122;" horiz-adv-x="1572" 
d="M725 641v875h211l166 -637l166 637h211v-875h-156v604l-160 -604h-133l-162 604v-604h-143zM254 641v727h-205v148h574v-148h-207v-727h-162z" />
    <glyph glyph-name="minus" unicode="&#x2212;" horiz-adv-x="1126" 
d="M104 590v194h918v-194h-918z" />
    <glyph glyph-name="radical" unicode="&#x221a;" horiz-adv-x="1052" 
d="M340 -4l-324 1089h236l147 -548q38 -145 72 -295h4q31 142 70 293l272 981h219l-448 -1520h-248z" />
    <glyph glyph-name="infinity" unicode="&#x221e;" horiz-adv-x="1808" 
d="M193 0v899h-156v186h156v134q0 144 73 222.5t248 78.5q91 0 119 -7v-188q-16 4 -70 4q-65 0 -101 -28t-36 -99v-117h199v-186h-199v-899h-233zM852 0v899h-156v186h156v134q0 144 73.5 222.5t248.5 78.5q90 0 118 -7v-188q-16 4 -69 4q-65 0 -101.5 -28t-36.5 -99v-117
h199v-186h-199v-899h-233zM1446 1264v219h235v-219h-235zM1446 0v1085h233v-1085h-233z" />
    <glyph glyph-name="approxequal" unicode="&#x2248;" horiz-adv-x="1191" 
d="M819 287q-52 1 -122.5 23.5t-127 49t-114.5 49t-88 23.5q-41 2 -64.5 -17.5t-30.5 -72.5l-147 23q15 133 78 200.5t157 65.5q66 -2 158.5 -38.5t173.5 -72.5t119 -37q38 -2 61.5 17.5t30.5 70.5l152 -16q-15 -136 -77 -203t-159 -65zM831 713q-51 1 -121.5 24t-127.5 50
t-115 49.5t-88 23.5q-38 2 -60.5 -18t-31.5 -72l-150 23q15 134 78.5 200.5t159.5 63.5q66 -2 158.5 -38t173 -71.5t118.5 -36.5q39 -2 62.5 17t30.5 71l149 -18q-15 -136 -78 -203.5t-158 -64.5z" />
    <glyph glyph-name="notequal" unicode="&#x2260;" horiz-adv-x="1318" 
d="M193 0v899h-156v186h156v134q0 144 73 222.5t248 78.5q91 0 119 -7v-188q-16 4 -70 4q-65 0 -101 -28t-36 -99v-117h199v-186h-199v-899h-233zM852 0v899h-156v186h156v134q0 144 73.5 222.5t248.5 78.5q90 0 118 -7v-188q-16 4 -69 4q-65 0 -101.5 -28t-36.5 -99v-117
h199v-186h-199v-899h-233z" />
    <glyph glyph-name="lessequal" unicode="&#x2264;" horiz-adv-x="1185" 
d="M1038 326l-905 364v152l905 372v-208l-641 -240l641 -234v-206zM123 88v184h932v-184h-932z" />
    <glyph glyph-name="greaterequal" unicode="&#x2265;" horiz-adv-x="1185" 
d="M156 326v206l641 234l-641 240v208l905 -372v-152zM133 88v184h932v-184h-932z" />
    <glyph glyph-name="lozenge" unicode="&#x25ca;" horiz-adv-x="0" 
 />
    <glyph glyph-name="apple" unicode="&#xf8ff;" horiz-adv-x="1576" 
d="M360 1184v59l342 -26l-36 299h245l-37 -299l343 26v-59h57l-27 -342l299 37v-246l-299 37l27 -342h-57v-54l-343 27l37 -301h-245l36 301l-342 -27v54h-55l27 342l-301 -37v246l301 -37l-27 342h55zM1094 1063l-230 16v-248h246zM713 831v248l-228 -16l-18 -232h246z
M864 680v-244l230 17l16 227h-246zM483 453l230 -17v244h-246z" />
    <glyph glyph-name="zero.tab" 
d="M580 -25q-247 0 -376.5 199.5t-129.5 583.5t129.5 583t376.5 199q246 0 373.5 -198.5t127.5 -583.5t-127.5 -584t-373.5 -199zM580 186q136 0 204 134t68 438q0 203 -33.5 331.5t-92 183t-146.5 54.5q-138 0 -206.5 -133t-68.5 -436q0 -154 18.5 -264.5t54.5 -177.5
t86 -98.5t116 -31.5z" />
    <glyph glyph-name="one.tab" 
d="M207 0v211h282v1061q-46 -29 -130 -49.5t-148 -20.5v215q87 3 165.5 28.5t119.5 70.5h227v-1305h248v-211h-764z" />
    <glyph glyph-name="two.tab" 
d="M104 0v33q0 103 23 193.5t58.5 159t96 137.5t118.5 119t143 114q83 65 131.5 115t80 116t31.5 141q0 193 -194 193q-190 0 -275 -221l-200 86q69 172 191.5 264t297.5 92q195 0 304.5 -109.5t109.5 -291.5q0 -73 -18.5 -139t-47.5 -117t-78 -104t-95 -92t-113 -89
q-137 -107 -212 -198.5t-83 -186.5h649v-215h-918z" />
    <glyph glyph-name="three.tab" 
d="M553 -27q-177 0 -306.5 84t-195.5 232l199 94q94 -203 295 -203q120 0 186 65.5t66 176.5q0 148 -82.5 212t-274.5 64h-61v203h72q178 0 246.5 55t68.5 179q0 194 -211 194q-176 0 -272 -162l-174 111q76 123 192.5 193.5t271.5 70.5q203 0 314.5 -106t111.5 -275
q0 -137 -67 -231t-172 -121q133 -35 201.5 -129t68.5 -260q0 -203 -130 -325t-347 -122z" />
    <glyph glyph-name="four.tab" 
d="M676 0v328h-600v180l565 1008h266v-988h191v-200h-191v-328h-231zM305 528h375v660h-4z" />
    <glyph glyph-name="five.tab" 
d="M565 -27q-172 0 -295.5 89t-185.5 235l197 92q93 -207 276 -207q130 0 195 83.5t65 234.5q0 155 -64.5 230t-181.5 75q-162 0 -245 -143l-170 43l49 811h764l-15 -213h-559l-26 -410q86 117 276 117q193 0 299.5 -129.5t106.5 -372.5q0 -248 -130.5 -391.5t-355.5 -143.5
z" />
    <glyph glyph-name="six.tab" 
d="M602 -27q-235 0 -368.5 191.5t-133.5 566.5q0 388 143.5 599.5t387.5 211.5q78 0 141.5 -17t110 -49t79 -68t60.5 -83l-184 -119q-40 62 -88.5 93.5t-122.5 31.5q-139 0 -214.5 -129.5t-82.5 -384.5q148 148 336 148q198 0 303.5 -129.5t105.5 -354.5q0 -226 -126.5 -367
t-346.5 -141zM614 176q114 0 175 76.5t61 220.5q0 136 -54 209.5t-178 73.5q-84 0 -159.5 -34t-128.5 -95q15 -235 86.5 -343t197.5 -108z" />
    <glyph glyph-name="seven.tab" 
d="M262 0l518 1303h-633v213h875v-201l-518 -1315h-242z" />
    <glyph glyph-name="eight.tab" 
d="M580 -29q-235 0 -365.5 111.5t-130.5 288.5q0 257 313 426q-129 76 -192.5 159.5t-63.5 217.5q0 155 117.5 261.5t321.5 106.5q207 0 321.5 -106.5t114.5 -261.5q0 -231 -254 -373q76 -42 127 -78.5t96.5 -87.5t67.5 -116.5t22 -147.5q0 -176 -132.5 -288t-362.5 -112z
M578 160q121 0 192.5 60.5t71.5 162.5q0 100 -66.5 170t-208.5 143q-129 -72 -191.5 -144.5t-62.5 -168.5q0 -99 72.5 -161t192.5 -62zM590 895q107 62 155 120.5t48 141.5q0 82 -52.5 137.5t-158.5 55.5q-103 0 -160 -54t-57 -133q0 -89 53.5 -147t171.5 -121z" />
    <glyph glyph-name="nine.tab" 
d="M524 -27q-78 0 -141.5 17t-110 49t-79 68t-60.5 83l184 119q40 -62 88.5 -93.5t122.5 -31.5q139 0 214.5 129.5t82.5 384.5q-143 -143 -336 -143q-198 0 -303.5 127t-105.5 352q0 226 126.5 367t346.5 141q235 0 368.5 -191.5t133.5 -566.5q0 -388 -143.5 -599.5
t-387.5 -211.5zM537 760q84 0 159.5 34t128.5 95q-15 235 -86.5 342.5t-197.5 107.5q-114 0 -175 -76.5t-61 -220.5q0 -136 54 -209t178 -73z" />
    <glyph glyph-name="plus.tab" 
d="M477 197v405h-358v193h358v405h203v-405h358v-193h-358v-405h-203z" />
    <glyph glyph-name="minus.tab" 
d="M123 602v193h911v-193h-911z" />
    <glyph glyph-name="multiply.tab" 
d="M283 229l-138 136l297 294l-297 291l138 137l295 -294l292 294l138 -135l-295 -293l297 -290l-136 -136l-296 291z" />
    <glyph glyph-name="divide.tab" 
d="M469 209v217h215v-217h-215zM119 602v193h919v-193h-919zM469 969v217h215v-217h-215z" />
    <glyph glyph-name="equal.tab" 
d="M123 358v181h909v-181h-909zM123 797v182h909v-182h-909z" />
    <glyph glyph-name="less.tab" 
d="M1030 145l-907 443v153l907 443v-207l-668 -313l668 -312v-207z" />
    <glyph glyph-name="greater.tab" 
d="M141 145v207l666 312l-666 313v207l906 -443v-153z" />
    <glyph glyph-name="dollar.tab" 
d="M496 -190v192q-304 40 -418 358l201 66q41 -97 94 -155.5t135 -77.5v495q-49 21 -81 35t-76.5 38.5t-73 47t-60.5 56.5t-50 70.5t-30 86t-12 106.5q0 156 97 262.5t274 127.5v159h172v-161q258 -39 366 -320l-192 -84q-76 166 -189 201v-447q159 -66 226 -110
q163 -106 186 -284q4 -32 4 -66q0 -166 -103.5 -276t-297.5 -130v-190h-172zM840 385q0 84 -48.5 139.5t-138.5 100.5v-437q88 12 137.5 61.5t49.5 135.5zM354 1147q0 -73 39.5 -122.5t114.5 -90.5v387q-68 -15 -111 -59t-43 -115z" />
    <glyph glyph-name="cent.tab" horiz-adv-x="958" 
d="M250 -227l51 256q-111 62 -173 192.5t-62 321.5q0 142 35 252.5t97 177.5t140.5 101t169.5 34h14l37 176h180l-45 -215q85 -42 133.5 -118.5t77.5 -180.5l-209 -51q-24 96 -63 149l-141 -714h18q73 0 122.5 52.5t76.5 164.5l200 -52q-42 -158 -141.5 -250t-257.5 -92
q-21 0 -39 3l-41 -207h-180zM297 543q0 -212 65 -312l138 697q-92 -5 -147.5 -102t-55.5 -283z" />
    <glyph glyph-name="Euro.tab" 
d="M668 -25q-197 0 -323 131t-161 408h-174v166h162q-4 79 -2 143h-160v164h172q35 284 162 418.5t320 134.5q191 0 293.5 -112t144.5 -328l-209 -47q-31 153 -78 215.5t-149 62.5q-220 0 -260 -344h299v-164h-310q-1 -12 -1 -68t1 -75h310v-166h-297q20 -175 83.5 -254.5
t178.5 -79.5q102 0 155.5 69t83.5 228l207 -41q-22 -103 -57 -183t-87.5 -144.5t-129 -99t-174.5 -34.5z" />
    <glyph glyph-name="sterling.tab" 
d="M281 -25q-99 0 -167.5 57.5t-68.5 164.5q0 108 66.5 172.5t167.5 64.5q93 0 176 -72q4 25 4 82q-2 94 -72 256h-233v162h149q-67 150 -67 293q0 171 102 278t270 107q361 0 389 -393l-204 -35q-8 112 -48.5 171.5t-128.5 59.5q-74 0 -113.5 -46.5t-39.5 -137.5
q0 -130 78 -297h305v-162h-232q48 -139 48 -254q0 -109 -37 -210q86 -78 147 -78q66 0 94.5 56t32.5 202h195q-2 -104 -15.5 -179t-44.5 -137t-88.5 -93.5t-140.5 -31.5q-141 0 -275 121q-45 -57 -109.5 -89t-139.5 -32zM285 113q96 0 139 98q-38 42 -70.5 64t-68.5 22
q-39 0 -63.5 -25.5t-24.5 -68.5q0 -42 25 -66t63 -24z" />
    <glyph glyph-name="yen.tab" 
d="M455 0v207h-312v166h312v143h-312v164h297l-391 836h248l283 -652h2q2 5 10 23.5t29 68t49 113.5t81 186.5t113 260.5h238l-395 -836h301v-164h-314v-143h314v-166h-314v-207h-239z" />
    <glyph glyph-name="florin.tab" 
d="M84 -408l25 177q30 -5 67 -5q69 0 108.5 33.5t49.5 108.5l121 862h-160q0 1 24 172h158l39 279q10 76 33 130t65 93.5t108 58.5t159 19q81 0 116 -7l-24 -180q-21 6 -70 6q-67 0 -108.5 -27.5t-49.5 -99.5l-36 -272h198l-22 -172h-199l-123 -893q-21 -149 -100 -219
t-254 -70q-101 0 -125 6z" />
    <glyph glyph-name="numbersign.tab" 
d="M154 0l63 418h-156v182h183l51 315h-170v183h194l64 418h192l-63 -418h221l66 418h192l-63 -418h168v-183h-195l-51 -315h180v-182h-205l-63 -418h-193l62 418h-221l-64 -418h-192zM434 600h223l52 315h-222z" />
    <glyph glyph-name="percent.tab" horiz-adv-x="1748" 
d="M412 600q-155 0 -234.5 122.5t-79.5 342.5q0 222 82 345.5t234 123.5t232.5 -122.5t80.5 -342.5q0 -219 -80 -344t-235 -125zM414 764q127 0 127 303q0 299 -129 299q-127 0 -127 -297q0 -305 129 -305zM1337 -18q-155 0 -234 124t-79 343q0 221 81.5 343.5t233.5 122.5
t233 -122t81 -342q0 -218 -80.5 -343.5t-235.5 -125.5zM1337 147q129 0 129 302q0 301 -129 301q-127 0 -127 -299q0 -304 127 -304zM440 0l707 1516h162l-705 -1516h-164z" />
    <glyph glyph-name="period.tab" horiz-adv-x="577" 
d="M158 0v262h262v-262h-262z" />
    <glyph glyph-name="comma.tab" horiz-adv-x="577" 
d="M195 -229l67 229h-106v262h264v-235l-121 -256h-104z" />
    <glyph glyph-name="colon.tab" horiz-adv-x="577" 
d="M158 0v262h260v-262h-260zM158 825v262h260v-262h-260z" />
    <glyph glyph-name="semicolon.tab" horiz-adv-x="577" 
d="M193 -229l67 229h-102v262h260v-231l-121 -260h-104zM158 825v262h260v-262h-260z" />
    <glyph glyph-name="parenleft.tab" horiz-adv-x="577" 
d="M461 -420q-438 428 -438 985q0 553 438 981l119 -94q-342 -398 -342 -887q0 -253 90.5 -483.5t255.5 -409.5z" />
    <glyph glyph-name="parenright.tab" horiz-adv-x="577" 
d="M121 -420l-125 92q348 398 348 891q0 251 -90 480t-254 409l121 94q438 -425 438 -983q0 -290 -112.5 -531.5t-325.5 -451.5z" />
    <glyph glyph-name="asterisk.tab" 
d="M436 739l-121 70l183 270l-328 -20v135l332 -23l-187 275l121 70l142 -295l145 295l121 -70l-185 -272l328 20v-135l-328 20l185 -270l-119 -70l-145 291z" />
    <glyph glyph-name="periodcentered.tab" horiz-adv-x="577" 
d="M166 506v244h248v-244h-248z" />
    <glyph glyph-name="slash.tab" 
d="M90 0l746 1516h231l-745 -1516h-232z" />
    </font>
</defs>
</svg>
