<?xml version="1.0" standalone="no"?>
<!DOCTYPE svg PUBLIC "-//W3C//DTD SVG 1.1//EN" "http://www.w3.org/Graphics/SVG/1.1/DTD/svg11.dtd" >
<svg xmlns="http://www.w3.org/2000/svg" xmlns:xlink="http://www.w3.org/1999/xlink" version="1.1">
<metadata>
Created by FontForge 20170731 at Thu Oct  8 12:50:49 2020
 By Aleksey,,,
Copyright (c) The Font Bureau, Inc., 2008. All rights reserved.
</metadata>
<defs>
<font id="BentonSansCond-Bold" horiz-adv-x="1155" >
  <font-face 
    font-family="BentonSansCond Bold"
    font-weight="700"
    font-stretch="condensed"
    units-per-em="2048"
    panose-1="2 0 5 6 5 0 0 2 0 4"
    ascent="1612"
    descent="-436"
    x-height="1092"
    cap-height="1516"
    bbox="-152 -430 2601 1948"
    underline-thickness="40"
    underline-position="-312"
    unicode-range="U+0020-FB02"
  />
<missing-glyph horiz-adv-x="458" 
 />
    <glyph glyph-name="fi" unicode="fi" horiz-adv-x="1161" 
d="M748 1231v262h301v-262h-301zM186 0v868h-155v224h155v100q0 328 330 328q116 0 143 -9v-223q-36 6 -61 6q-113 0 -113 -116v-86h166v-224h-166v-868h-299zM748 0v1092h301v-1092h-301z" />
    <glyph glyph-name="fl" unicode="fl" horiz-adv-x="1161" 
d="M186 0v868h-155v224h155v100q0 328 330 328q116 0 143 -9v-223q-36 6 -61 6q-113 0 -113 -116v-86h166v-224h-166v-868h-299zM748 0v1516h301v-1516h-301z" />
    <glyph glyph-name="f_f_l" unicode="ffl" horiz-adv-x="1939" 
d="M186 0v868h-155v224h155v100q0 58 7.5 103t30 89t60 72.5t100.5 46t148 17.5q131 0 158 -9v-223q-36 6 -76 6q-63 0 -96 -23.5t-33 -92.5v-86h197v-224h-197v-868h-299zM887 0v868h-156v224h156v100q0 58 7.5 103t30 89t60 72.5t100.5 46t148 17.5q131 0 158 -9v-223
q-36 6 -76 6q-63 0 -96 -23.5t-33 -92.5v-86h196v-224h-196v-868h-299zM1524 0v1516h303v-1516h-303z" />
    <glyph glyph-name="f_f_i" unicode="ffi" horiz-adv-x="1939" 
d="M186 0v868h-155v224h155v100q0 58 7.5 103t30 89t60 72.5t100.5 46t148 17.5q131 0 158 -9v-223q-36 6 -76 6q-63 0 -96 -23.5t-33 -92.5v-86h197v-224h-197v-868h-299zM887 0v868h-156v224h156v100q0 58 7.5 103t30 89t60 72.5t100.5 46t148 17.5q131 0 158 -9v-223
q-36 6 -76 6q-63 0 -96 -23.5t-33 -92.5v-86h196v-224h-196v-868h-299zM1524 1231v262h303v-262h-303zM1524 0v1092h303v-1092h-303z" />
    <glyph glyph-name="f_f" unicode="ff" horiz-adv-x="1411" 
d="M186 0v868h-155v224h155v100q0 58 7.5 103t30 89t60 72.5t100.5 46t148 17.5q131 0 158 -9v-223q-36 6 -76 6q-63 0 -96 -23.5t-33 -92.5v-86h197v-224h-197v-868h-299zM887 0v868h-156v224h156v100q0 58 7.5 103t30 89t60 72.5t100.5 46t148 17.5q131 0 158 -9v-223
q-36 6 -76 6q-63 0 -96 -23.5t-33 -92.5v-86h196v-224h-196v-868h-299z" />
    <glyph glyph-name="f_j" unicode="fj" horiz-adv-x="1239" 
d="M186 0v868h-155v224h155v100q0 58 7.5 103t30 89t60 72.5t100.5 46t148 17.5q131 0 158 -9v-223q-36 6 -76 6q-63 0 -96 -23.5t-33 -92.5v-86h197v-224h-197v-868h-299zM823 1231v262h303v-262h-303zM801 -414q-31 0 -89 4t-67 7v215q42 -7 74 -7q55 0 79.5 30.5
t24.5 94.5v1162h303v-1194q0 -58 -7.5 -102t-29 -85t-57 -67.5t-94 -42t-137.5 -15.5z" />
    <glyph glyph-name=".notdef" horiz-adv-x="458" 
 />
    <glyph glyph-name=".notdef" horiz-adv-x="458" 
 />
    <glyph glyph-name=".null" horiz-adv-x="0" 
 />
    <glyph glyph-name="nonmarkingreturn" horiz-adv-x="682" 
 />
    <glyph glyph-name="space" unicode=" " horiz-adv-x="458" 
 />
    <glyph glyph-name="space" unicode="&#xa0;" horiz-adv-x="458" 
 />
    <glyph glyph-name="exclam" unicode="!" horiz-adv-x="641" 
d="M203 451l-62 1065h369l-64 -1065h-243zM160 0v291h329v-291h-329z" />
    <glyph glyph-name="quotedbl" unicode="&#x22;" horiz-adv-x="835" 
d="M500 971l-29 418v127h260v-127l-29 -418h-202zM133 971l-31 418v127h263v-127l-29 -418h-203z" />
    <glyph glyph-name="numbersign" unicode="#" horiz-adv-x="1337" 
d="M158 0l67 397h-186v232h229l47 258h-202v231h243l72 398h270l-69 -398h186l72 398h270l-70 -398h209v-231h-252l-45 -258h222v-232h-265l-67 -397h-273l68 397h-184l-70 -397h-272zM539 625h190l47 266h-190z" />
    <glyph glyph-name="dollar" unicode="$" horiz-adv-x="1183" 
d="M485 1513v164h213v-164q271 -47 379 -360l-252 -100q-85 219 -254 219q-82 0 -126 -39.5t-44 -106.5q0 -62 39 -108t101 -75t137 -56.5t150.5 -63t137.5 -83t101 -128t39 -186.5q0 -169 -105 -284.5t-303 -139.5v-192h-213v194q-91 14 -163 51t-122 93t-84 119.5
t-57 142.5l263 75q43 -121 109 -185t173 -64q93 0 149 41.5t56 121.5q0 63 -39 109.5t-101 76.5t-136.5 57.5t-149.5 63t-137 83t-101 128t-39 187.5q0 166 101 274.5t278 134.5z" />
    <glyph glyph-name="percent" unicode="%" horiz-adv-x="1888" 
d="M403 547q-168 0 -260 125.5t-92 369.5q0 241 92 366.5t260 125.5q169 0 260 -125t91 -367q0 -245 -91 -370t-260 -125zM434 0l768 1516h250l-768 -1516h-250zM1487 -18q-168 0 -260 125.5t-92 369.5q0 243 92 368.5t260 125.5q169 0 259.5 -125t90.5 -369
q0 -245 -90.5 -370t-259.5 -125zM403 762q60 0 81.5 63t21.5 217q0 149 -22.5 212t-80.5 63q-60 0 -82 -62t-22 -213t23 -215.5t81 -64.5zM1487 197q60 0 81 63t21 217q0 149 -22.5 212t-79.5 63q-60 0 -82.5 -62.5t-22.5 -212.5q0 -151 23.5 -215.5t81.5 -64.5z" />
    <glyph glyph-name="ampersand" unicode="&#x26;" horiz-adv-x="1325" 
d="M526 -29q-243 0 -372 103.5t-129 287.5q0 84 23.5 154.5t68 125t93 94t114.5 79.5q-86 187 -86 354q0 168 103 271.5t282 103.5q92 0 161.5 -26t110 -71t60.5 -100t20 -118q0 -81 -24.5 -149t-73 -123.5t-97 -94.5t-118.5 -84q41 -64 77 -116q78 -111 154 -193
q58 138 70 311h260q-36 -281 -131 -465q111 -69 221 -75v-260q-231 6 -402 114q-155 -123 -385 -123zM569 958q73 55 112.5 115t39.5 139q0 51 -22.5 84t-71.5 33q-51 0 -82 -37t-31 -104q0 -104 55 -230zM539 193q103 0 178 57q-95 103 -193 239q-44 59 -90 129
q-110 -95 -110 -221q0 -100 57 -152t158 -52z" />
    <glyph glyph-name="quotesingle" unicode="'" horiz-adv-x="471" 
d="M133 971l-31 418v127h265v-127l-31 -418h-203z" />
    <glyph glyph-name="parenleft" unicode="(" horiz-adv-x="737" 
d="M512 -422q-442 432 -442 995q0 560 442 992l176 -133q-303 -405 -303 -859q0 -241 83.5 -467t225.5 -397z" />
    <glyph glyph-name="parenright" unicode=")" horiz-adv-x="737" 
d="M225 -422l-182 131q309 404 309 862q0 239 -82.5 465t-222.5 396l176 133q443 -430 443 -994q0 -552 -441 -993z" />
    <glyph glyph-name="asterisk" unicode="*" horiz-adv-x="987" 
d="M362 674l-169 100l186 260l-320 -30v192l326 -33l-195 264l172 101l132 -295l131 295l172 -101l-191 -262l322 31v-192l-320 30l189 -260l-170 -100l-133 293z" />
    <glyph glyph-name="plus" unicode="+" horiz-adv-x="1157" 
d="M451 172v401h-340v250h340v402h256v-402h340v-250h-340v-401h-256z" />
    <glyph glyph-name="comma" unicode="," horiz-adv-x="501" 
d="M131 -229l86 229h-123v311h312v-276l-134 -264h-141z" />
    <glyph glyph-name="hyphen" unicode="-" horiz-adv-x="647" 
d="M76 526v222h495v-222h-495z" />
    <glyph glyph-name="hyphen" unicode="&#xad;" horiz-adv-x="647" 
d="M76 526v222h495v-222h-495z" />
    <glyph glyph-name="period" unicode="." horiz-adv-x="501" 
d="M94 0v311h312v-311h-312z" />
    <glyph glyph-name="slash" unicode="/" horiz-adv-x="1107" 
d="M25 0l747 1516h311l-749 -1516h-309z" />
    <glyph glyph-name="zero" unicode="0" horiz-adv-x="1216" 
d="M608 -29q-263 0 -402.5 200t-139.5 587t139.5 586.5t402.5 199.5t402 -199.5t139 -586.5t-139 -587t-402 -200zM608 223q120 0 176 125.5t56 409.5q0 281 -57 403.5t-175 122.5q-122 0 -177.5 -121.5t-55.5 -404.5q0 -282 57.5 -408.5t175.5 -126.5z" />
    <glyph glyph-name="one" unicode="1" horiz-adv-x="829" 
d="M53 0v250h236v979q-47 -30 -111.5 -50t-120.5 -20v258q156 6 240 99h291v-1266h207v-250h-742z" />
    <glyph glyph-name="two" unicode="2" horiz-adv-x="1085" 
d="M45 0v33q0 113 22.5 210.5t61 168.5t88.5 132t105 107.5t110 89.5t105 84.5t88.5 84.5t61 97.5t22.5 116.5q0 74 -39 115t-113 41q-75 0 -141 -57t-111 -164l-246 110q165 375 519 375q207 0 321.5 -111.5t114.5 -293.5q0 -98 -33.5 -184t-87.5 -149.5t-119 -120
t-131 -107t-120.5 -99.5t-89 -107.5t-36.5 -121.5h613v-250h-965z" />
    <glyph glyph-name="three" unicode="3" horiz-adv-x="1105" 
d="M530 -27q-205 0 -331 89t-195 253l244 109q85 -207 268 -207q103 0 162 60.5t59 152.5q0 130 -79.5 190t-241.5 60h-70v231h88q150 0 209 54t59 163q0 74 -41.5 119t-128.5 45q-77 0 -145 -43t-117 -116l-207 139q186 272 496 272q204 0 324.5 -104.5t120.5 -276.5
q0 -132 -68.5 -225t-187.5 -129q290 -84 290 -385q0 -210 -140.5 -330.5t-367.5 -120.5z" />
    <glyph glyph-name="four" unicode="4" horiz-adv-x="1185" 
d="M653 0v317h-618v215l581 984h334v-963h207v-236h-207v-317h-297zM330 553h327v563h-2z" />
    <glyph glyph-name="five" unicode="5" horiz-adv-x="1089" 
d="M539 -29q-363 0 -519 334l242 113q44 -96 111 -149.5t153 -53.5q110 0 166 72.5t56 212.5q0 137 -55.5 207.5t-157.5 70.5q-64 0 -122 -36t-98 -99l-219 47l51 826h811l-14 -265h-551l-26 -358q88 123 274 123q199 0 303.5 -131t104.5 -375q0 -254 -136.5 -396.5
t-373.5 -142.5z" />
    <glyph glyph-name="six" unicode="6" horiz-adv-x="1136" 
d="M596 -29q-252 0 -391 193t-139 567q0 402 150 607.5t407 205.5q288 0 430 -266l-244 -125q-83 145 -193 145q-118 0 -181 -110t-73 -338q142 127 320 127q192 0 303 -129.5t111 -360.5t-135 -373.5t-365 -142.5zM612 207q94 0 143.5 72t49.5 194q0 256 -193 256
q-138 0 -250 -106q12 -217 73.5 -316.5t176.5 -99.5z" />
    <glyph glyph-name="seven" unicode="7" horiz-adv-x="962" 
d="M135 0l490 1251h-602v265h919v-246l-491 -1270h-316z" />
    <glyph glyph-name="eight" unicode="8" horiz-adv-x="1130" 
d="M565 -29q-253 0 -389.5 111.5t-136.5 296.5q0 132 81.5 236.5t211.5 175.5q-58 38 -95 69t-72.5 75t-52 101t-16.5 129q0 159 124.5 269t344.5 110q116 0 207.5 -31t147.5 -84t85 -120.5t29 -143.5q0 -115 -62.5 -212t-170.5 -160q70 -39 116 -72t89.5 -81.5t64.5 -113
t21 -147.5q0 -186 -139.5 -297t-387.5 -111zM582 913q81 51 119 104t38 122q0 72 -41.5 120t-128.5 48t-130.5 -46t-43.5 -116q0 -78 46.5 -131t140.5 -101zM565 199q102 0 159.5 54.5t57.5 141.5q0 84 -56.5 144.5t-178.5 122.5q-201 -120 -201 -267q0 -85 57.5 -140.5
t161.5 -55.5z" />
    <glyph glyph-name="nine" unicode="9" horiz-adv-x="1136" 
d="M514 -29q-291 0 -434 269l244 127q86 -156 196 -156q234 0 252 455q-142 -127 -317 -127q-192 0 -303 129t-111 360q0 229 137 372.5t363 143.5q259 0 394.5 -191.5t135.5 -568.5q0 -402 -150 -607.5t-407 -205.5zM524 786q138 0 248 107q-12 215 -73.5 311t-174.5 96
q-96 0 -144 -68t-48 -190q0 -120 43.5 -188t148.5 -68z" />
    <glyph glyph-name="colon" unicode=":" horiz-adv-x="520" 
d="M104 780v312h312v-312h-312zM104 0v311h312v-311h-312z" />
    <glyph glyph-name="semicolon" unicode=";" horiz-adv-x="520" 
d="M104 780v312h312v-312h-312zM137 -229l86 229h-119v311h312v-272l-137 -268h-142z" />
    <glyph glyph-name="less" unicode="&#x3c;" horiz-adv-x="1181" 
d="M1049 119l-922 448v193l922 448v-260l-621 -284l621 -285v-260z" />
    <glyph glyph-name="equal" unicode="=" horiz-adv-x="1157" 
d="M121 778v228h913v-228h-913zM121 332v227h913v-227h-913z" />
    <glyph glyph-name="greater" unicode="&#x3e;" horiz-adv-x="1181" 
d="M133 119v260l621 285l-621 284v260l924 -448v-193z" />
    <glyph glyph-name="question" unicode="?" horiz-adv-x="1026" 
d="M356 449q-4 45 -4 122q0 51 12 97.5t28 79.5t46 71t51 59.5t58 57.5q65 63 96 112.5t31 112.5t-37 98t-102 35q-71 0 -128 -57.5t-94 -142.5l-247 92q63 168 186.5 263t304.5 95q195 0 300.5 -100t105.5 -254q0 -56 -12.5 -105.5t-26 -80.5t-46.5 -71.5t-48.5 -56
t-57.5 -55.5q-72 -72 -102.5 -115.5t-44 -100.5t-13.5 -156h-256zM319 0v291h330v-291h-330z" />
    <glyph glyph-name="at" unicode="@" horiz-adv-x="1544" 
d="M762 -29q-326 0 -510 205t-184 580q0 178 51.5 325.5t144.5 249t223.5 157.5t286.5 56q316 0 509.5 -210t193.5 -556q0 -221 -92.5 -341t-264.5 -120q-192 0 -254 162q-107 -149 -262 -149q-116 0 -178 92.5t-59 255.5q3 244 94 386t239 142q135 0 197 -106l12 88h228
l-78 -598q-9 -78 13.5 -111t82.5 -33q83 0 132.5 80t49.5 248q0 302 -154 471.5t-411 169.5q-259 0 -410 -172t-151 -485q0 -333 147.5 -498.5t409.5 -165.5q213 0 358 92l62 -100q-76 -54 -192.5 -84.5t-233.5 -30.5zM702 520q63 0 127 64l45 368q-49 58 -114 58
q-73 0 -114 -82t-44 -223q-3 -95 20 -140t80 -45z" />
    <glyph glyph-name="A" unicode="A" horiz-adv-x="1232" 
d="M397 319l-84 -319h-290l444 1522h299l444 -1522h-313l-82 319h-418zM752 561l-39 154q-11 43 -36 136.5t-39.5 153t-27.5 123.5h-4q-10 -50 -22.5 -105t-22.5 -91.5t-29 -106t-30 -108.5l-41 -156h291z" />
    <glyph glyph-name="B" unicode="B" horiz-adv-x="1234" 
d="M125 0v1516h518q477 0 477 -379q0 -80 -20.5 -142.5t-56.5 -102.5t-78 -65t-93 -39v-4q135 -27 209 -111t74 -259q0 -110 -40.5 -192.5t-111 -129.5t-156 -69.5t-185.5 -22.5h-537zM428 885h195q104 0 155 45.5t51 142.5q0 99 -49 144t-155 45h-197v-377zM428 244h213
q217 0 217 211t-231 211h-199v-422z" />
    <glyph glyph-name="C" unicode="C" horiz-adv-x="1239" 
d="M647 -27q-133 0 -238 46.5t-182.5 141t-119 246.5t-41.5 353q0 199 43 350t122 245.5t185.5 141.5t238.5 47q121 0 213 -36.5t152.5 -106.5t97 -163t53.5 -216l-292 -51q-27 162 -79.5 234.5t-154.5 72.5q-266 0 -266 -518q0 -531 270 -531q105 0 160.5 75.5t85.5 252.5
l293 -47q-22 -120 -60.5 -213.5t-101.5 -168.5t-159 -115t-220 -40z" />
    <glyph glyph-name="D" unicode="D" horiz-adv-x="1282" 
d="M125 0v1516h397q128 0 229.5 -22t190.5 -75t148.5 -138t93 -216t33.5 -303q0 -173 -34.5 -305.5t-94.5 -218t-149 -140t-190.5 -76.5t-226.5 -22h-397zM436 260h115q196 0 275 113t79 389q0 268 -79.5 379.5t-276.5 111.5h-113v-993z" />
    <glyph glyph-name="E" unicode="E" horiz-adv-x="1077" 
d="M125 0v1516h868v-263h-557v-342h402v-247h-402v-408h586v-256h-897z" />
    <glyph glyph-name="F" unicode="F" horiz-adv-x="1011" 
d="M125 0v1516h852v-263h-541v-374h387v-248h-387v-631h-311z" />
    <glyph glyph-name="G" unicode="G" horiz-adv-x="1302" 
d="M616 -25q-266 0 -408 206.5t-142 580.5t152.5 578t436.5 204q218 0 341.5 -125t170.5 -397l-282 -55q-32 169 -88.5 240t-151.5 71q-266 0 -266 -512q0 -149 20 -255.5t59 -167t88.5 -87.5t115.5 -27q105 0 168.5 73.5t78.5 217.5h-219v234h500v-754h-229v195h-3
q-32 -86 -122.5 -153t-219.5 -67z" />
    <glyph glyph-name="H" unicode="H" horiz-adv-x="1325" 
d="M125 0v1516h311v-594h453v594h311v-1516h-311v664h-453v-664h-311z" />
    <glyph glyph-name="I" unicode="I" horiz-adv-x="583" 
d="M137 0v1516h312v-1516h-312z" />
    <glyph glyph-name="J" unicode="J" horiz-adv-x="935" 
d="M418 -23q-226 0 -400 115l125 227q120 -75 236 -75q69 0 104 40t35 128v1104h311v-1135q0 -190 -103 -297t-308 -107z" />
    <glyph glyph-name="K" unicode="K" horiz-adv-x="1241" 
d="M125 0v1516h309v-660q63 114 131 217l281 443h332l-406 -596l455 -920h-336l-320 653l-137 -188v-465h-309z" />
    <glyph glyph-name="L" unicode="L" horiz-adv-x="1048" 
d="M125 0v1516h311v-1260h570v-256h-881z" />
    <glyph glyph-name="M" unicode="M" horiz-adv-x="1570" 
d="M125 0v1516h397l266 -1084h3l249 1084h404v-1516h-295v1065h-4q-13 -134 -78 -373l-180 -692h-232l-176 692q-65 259 -78 381h-4v-1073h-272z" />
    <glyph glyph-name="N" unicode="N" horiz-adv-x="1335" 
d="M125 0v1516h321l349 -680q71 -140 123 -261h4v941h282v-1516h-289l-393 735q-59 112 -110 226h-4v-961h-283z" />
    <glyph glyph-name="O" unicode="O" horiz-adv-x="1335" 
d="M668 -29q-126 0 -233 47.5t-190.5 141.5t-131 247t-47.5 351t47.5 351t131 246.5t190.5 141t233 47.5q99 0 187.5 -29t164.5 -91.5t131 -153.5t86 -222t31 -290q0 -198 -47.5 -351t-130.5 -247t-190 -141.5t-232 -47.5zM668 229q139 0 212.5 138t73.5 391
q0 252 -73.5 386t-212.5 134q-141 0 -215 -134t-74 -386q0 -254 74.5 -391.5t214.5 -137.5z" />
    <glyph glyph-name="P" unicode="P" horiz-adv-x="1173" 
d="M125 0v1516h459q88 0 163 -14t144 -49.5t116.5 -89.5t76 -139.5t28.5 -195.5q0 -97 -21 -175.5t-59 -132t-87 -92t-111 -60t-123.5 -31t-130.5 -9.5h-148v-528h-307zM432 774h156q120 0 173.5 59.5t53.5 186.5q0 123 -53 179t-176 56h-154v-481z" />
    <glyph glyph-name="Q" unicode="Q" horiz-adv-x="1335" 
d="M946 -406q-436 0 -440 406q-202 48 -322.5 240.5t-120.5 517.5q0 198 47.5 351t131.5 246.5t191 141t233 47.5q100 0 188.5 -29t164.5 -91.5t130.5 -153.5t85.5 -222t31 -290q0 -173 -35.5 -311t-99 -230t-146.5 -147.5t-184 -75.5q19 -94 72.5 -121t187.5 -27h82v-252
h-197zM666 229q140 0 213 137.5t73 391.5q0 253 -73 386.5t-213 133.5q-141 0 -215 -134t-74 -386q0 -254 74.5 -391.5t214.5 -137.5z" />
    <glyph glyph-name="R" unicode="R" horiz-adv-x="1214" 
d="M125 0v1516h473q514 0 514 -476q0 -150 -67.5 -253.5t-182.5 -149.5l289 -637h-322l-256 561h-143v-561h-305zM430 799h158q117 0 172 54.5t55 180.5q0 120 -55 170.5t-172 50.5h-158v-456z" />
    <glyph glyph-name="S" unicode="S" horiz-adv-x="1204" 
d="M625 -27q-397 0 -570 361l252 127q54 -108 134.5 -174t183.5 -66q96 0 148 47t52 125q0 36 -15.5 68t-36.5 54t-61 46t-71 39t-84 37q-163 69 -231 112q-182 116 -207 305q-4 33 -4 68q0 187 136 304.5t345 117.5q349 0 510 -338l-242 -131q-106 213 -274 213
q-80 0 -125 -42.5t-45 -108.5q0 -35 14 -66t34 -53t56.5 -45.5t66.5 -38.5t79 -37q161 -70 220 -104q179 -105 223 -262q17 -58 17 -125q0 -87 -33 -164.5t-95 -137.5t-159.5 -95.5t-217.5 -35.5z" />
    <glyph glyph-name="T" unicode="T" horiz-adv-x="1099" 
d="M393 0v1253h-360v263h1034v-263h-362v-1253h-312z" />
    <glyph glyph-name="U" unicode="U" horiz-adv-x="1251" 
d="M629 -25q-523 0 -523 549v992h312v-973q0 -160 49.5 -232.5t165.5 -72.5q115 0 165 72.5t50 230.5v975h297v-990q0 -271 -124 -411t-392 -140z" />
    <glyph glyph-name="V" unicode="V" horiz-adv-x="1202" 
d="M451 -6l-428 1522h313l178 -717q57 -220 92 -404h4q16 76 95 400l184 721h291l-428 -1522h-301z" />
    <glyph glyph-name="W" unicode="W" horiz-adv-x="1654" 
d="M369 -6l-338 1522h299l116 -609q38 -196 70 -403h4q14 108 68 401l112 611h279l115 -621q41 -204 67 -393h4q30 213 66 389l119 625h276l-338 -1522h-270l-189 997h-4l-188 -997h-268z" />
    <glyph glyph-name="X" unicode="X" horiz-adv-x="1232" 
d="M35 0l414 801l-369 715h338l215 -461l207 461h301l-363 -705l416 -811h-332l-264 555l-256 -555h-307z" />
    <glyph glyph-name="Y" unicode="Y" horiz-adv-x="1177" 
d="M432 0v594l-426 922h318l270 -639h4l270 639h303l-428 -920v-596h-311z" />
    <glyph glyph-name="Z" unicode="Z" horiz-adv-x="1128" 
d="M45 0v225l653 1028h-608v263h975v-232l-643 -1028h643v-256h-1020z" />
    <glyph glyph-name="bracketleft" unicode="[" horiz-adv-x="772" 
d="M115 -410v1926h614v-220h-307v-1489h307v-217h-614z" />
    <glyph glyph-name="backslash" unicode="\" horiz-adv-x="1077" 
d="M756 0l-748 1516h311l748 -1516h-311z" />
    <glyph glyph-name="bracketright" unicode="]" horiz-adv-x="772" 
d="M43 -410v217h305v1489h-305v220h614v-1926h-614z" />
    <glyph glyph-name="asciicircum" unicode="^" horiz-adv-x="1181" 
d="M78 719l424 797h178l426 -797h-270l-244 475l-246 -475h-268z" />
    <glyph glyph-name="underscore" unicode="_" horiz-adv-x="894" 
d="M-16 -311v217h927v-217h-927z" />
    <glyph glyph-name="grave" unicode="`" horiz-adv-x="985" 
d="M410 1202l-254 340h297l163 -340h-206z" />
    <glyph glyph-name="a" unicode="a" horiz-adv-x="1017" 
d="M309 -12q-121 0 -193.5 69t-72.5 215q0 327 588 435v45q0 64 -25.5 94.5t-85.5 30.5q-138 0 -301 -119l-137 180q201 176 496 176q181 0 263.5 -87.5t82.5 -274.5v-486q0 -194 26 -266h-299q-20 68 -20 147q-125 -159 -322 -159zM438 219q103 0 193 86v242
q-158 -34 -226.5 -88t-68.5 -131q0 -53 27.5 -81t74.5 -28z" />
    <glyph glyph-name="b" unicode="b" horiz-adv-x="1093" 
d="M684 -16q-172 0 -278 141v-125h-304v1513h304v-567q114 168 282 168q164 0 259 -142t95 -425q0 -282 -96 -422.5t-262 -140.5zM575 219q82 0 122 78.5t40 247.5q0 162 -39 237.5t-125 75.5q-78 0 -167 -98v-449q45 -46 83.5 -69t85.5 -23z" />
    <glyph glyph-name="c" unicode="c" horiz-adv-x="985" 
d="M518 -23q-94 0 -175.5 32.5t-148 98.5t-105 178t-38.5 259q0 121 27 218.5t72.5 162t107.5 107.5t129.5 62t140.5 19q97 0 170 -27t121 -77.5t77.5 -111.5t49.5 -142l-268 -64q-22 99 -57 143t-97 44q-170 0 -170 -334q0 -170 40 -256t128 -86q61 0 103.5 45.5
t64.5 152.5l260 -63q-91 -361 -432 -361z" />
    <glyph glyph-name="d" unicode="d" horiz-adv-x="1093" 
d="M408 -16q-167 0 -261 137t-94 420q0 284 95.5 428.5t261.5 144.5q175 0 280 -147v549h301v-1250q0 -186 29 -266h-309q-8 22 -14.5 67t-6.5 72q-112 -155 -282 -155zM522 219q76 0 168 96v451q-87 94 -170 94q-84 0 -124 -75t-40 -242q0 -164 40 -244t126 -80z" />
    <glyph glyph-name="e" unicode="e" horiz-adv-x="1011" 
d="M530 -23q-101 0 -186 33t-151.5 99.5t-104 177.5t-37.5 258q0 120 28 218t73.5 162.5t107.5 107.5t127.5 62t134.5 19q95 0 173 -33.5t138.5 -102t94 -184t33.5 -268.5v-55h-613q14 -268 197 -268q73 0 135.5 41t99.5 100l176 -141q-155 -226 -426 -226zM350 643h336
q-15 240 -164 240q-68 0 -114.5 -58t-57.5 -182z" />
    <glyph glyph-name="f" unicode="f" horiz-adv-x="710" 
d="M186 0v868h-155v224h155v100q0 58 7.5 103t30 89t60 72.5t100.5 46t148 17.5q131 0 158 -9v-223q-36 6 -76 6q-63 0 -96 -23.5t-33 -92.5v-86h197v-224h-197v-868h-299z" />
    <glyph glyph-name="g" unicode="g" horiz-adv-x="1077" 
d="M807 1006q46 43 113.5 73.5t126.5 36.5v-250q-86 0 -152 -14q25 -73 25 -133q0 -182 -113.5 -287.5t-310.5 -105.5q-74 0 -140 16q-30 -23 -30 -51q0 -27 20 -37t80 -16l141 -11q246 -17 346.5 -87t100.5 -218q0 -155 -152 -243.5t-399 -88.5q-248 0 -353.5 61
t-105.5 181q0 135 164 219q-86 52 -86 142q0 56 38.5 111.5t100.5 94.5q-158 112 -158 320q0 180 116.5 287.5t316.5 107.5t311 -108zM498 512q71 0 109 53.5t38 145.5q0 94 -37.5 145t-109.5 51t-110 -52t-38 -144q0 -93 38 -146t110 -53zM332 2q-60 -51 -60 -117
q0 -71 55.5 -102t184.5 -31q105 0 169 33t64 90q0 37 -15 56.5t-64 33.5t-146 21l-162 14q-18 0 -26 2z" />
    <glyph glyph-name="h" unicode="h" horiz-adv-x="1089" 
d="M102 0v1516h304v-576q48 69 133.5 121.5t191.5 52.5q264 0 264 -287v-827h-301v731q0 64 -23 95.5t-75 31.5q-84 0 -190 -98v-760h-304z" />
    <glyph glyph-name="i" unicode="i" horiz-adv-x="528" 
d="M113 1231v262h303v-262h-303zM113 0v1092h303v-1092h-303z" />
    <glyph glyph-name="j" unicode="j" horiz-adv-x="528" 
d="M113 1231v262h303v-262h-303zM90 -414q-31 0 -89 4t-67 7v215q42 -7 74 -7q55 0 80 30.5t25 94.5v1162h303v-1194q0 -73 -13.5 -125.5t-47.5 -97t-100.5 -67t-164.5 -22.5z" />
    <glyph glyph-name="k" unicode="k" horiz-adv-x="1021" 
d="M102 0v1516h297v-865q19 40 103 172l172 269h305l-287 -406l309 -686h-307l-192 442l-103 -143v-299h-297z" />
    <glyph glyph-name="l" unicode="l" horiz-adv-x="528" 
d="M113 0v1516h303v-1516h-303z" />
    <glyph glyph-name="m" unicode="m" horiz-adv-x="1642" 
d="M102 0v1092h304v-152q49 69 131.5 121.5t179.5 52.5q208 0 250 -174q52 70 135.5 122t179.5 52q266 0 266 -297v-817h-301v731q0 67 -20 97t-74 30q-74 0 -176 -98v-760h-303v731q0 67 -19 97t-71 30q-76 0 -178 -98v-760h-304z" />
    <glyph glyph-name="n" unicode="n" horiz-adv-x="1089" 
d="M102 0v1092h304v-152q48 69 133.5 121.5t191.5 52.5q264 0 264 -287v-827h-301v731q0 64 -23 95.5t-75 31.5q-84 0 -190 -98v-760h-304z" />
    <glyph glyph-name="o" unicode="o" horiz-adv-x="1064" 
d="M532 -23q-96 0 -180 32.5t-153 98.5t-108.5 178t-39.5 259q0 148 39.5 261t108 178.5t152.5 97.5t181 32t180.5 -32t152.5 -97.5t109 -178.5t40 -261q0 -147 -40 -259t-108.5 -178t-153 -98.5t-180.5 -32.5zM532 209q93 0 136 82.5t43 253.5q0 161 -42 245t-137 84
q-93 0 -135.5 -80.5t-42.5 -248.5q0 -164 41 -250t137 -86z" />
    <glyph glyph-name="p" unicode="p" horiz-adv-x="1093" 
d="M102 -410v1502h304v-146q113 168 282 168q164 0 258 -142t94 -425q0 -282 -95 -422.5t-261 -140.5q-177 0 -278 141v-535h-304zM575 219q82 0 122 78.5t40 247.5q0 162 -39 237.5t-125 75.5q-78 0 -167 -98v-449q45 -46 83.5 -69t85.5 -23z" />
    <glyph glyph-name="q" unicode="q" horiz-adv-x="1093" 
d="M688 -410v545q-113 -151 -280 -151t-261 137t-94 420q0 284 95.5 428.5t261.5 144.5q169 0 278 -145v123h303v-1502h-303zM522 219q46 0 84.5 25.5t81.5 70.5v451q-83 94 -168 94q-84 0 -124 -75t-40 -242q0 -164 40 -244t126 -80z" />
    <glyph glyph-name="r" unicode="r" horiz-adv-x="755" 
d="M102 0v1092h304v-177h4q104 199 303 199l18 -2l-4 -276q-24 6 -63 6q-84 0 -150 -35t-108 -90v-717h-304z" />
    <glyph glyph-name="s" unicode="s" horiz-adv-x="950" 
d="M477 -25q-294 0 -459 189l158 170q65 -67 148 -107.5t157 -40.5q68 0 106 25.5t38 75.5q0 41 -30.5 69.5t-79 46t-107 34.5t-117.5 41.5t-107.5 59.5t-79 97.5t-30.5 146.5q0 107 56 183.5t146 112.5t201 36t219.5 -46t180.5 -128l-158 -168q-129 123 -244 123
q-57 0 -88 -25t-31 -69q0 -40 30.5 -68.5t78.5 -45.5t106.5 -33.5t117.5 -41.5t107 -60t78.5 -97t30.5 -146q0 -106 -60.5 -183t-156 -114t-211.5 -37z" />
    <glyph glyph-name="t" unicode="t" horiz-adv-x="751" 
d="M510 -12q-132 0 -205 31t-100 90.5t-27 162.5v596h-155v224h155v374h301v-374h234v-224h-234v-520q0 -83 26.5 -112t102.5 -29q62 0 90 12v-217q-16 -5 -76.5 -9.5t-111.5 -4.5z" />
    <glyph glyph-name="u" unicode="u" horiz-adv-x="1089" 
d="M358 -23q-264 0 -264 287v828h301v-740q0 -63 23.5 -94t77.5 -31q89 0 188 99v766h303v-1092h-303v150q-51 -70 -135.5 -121.5t-190.5 -51.5z" />
    <glyph glyph-name="v" unicode="v" horiz-adv-x="960" 
d="M317 -2l-317 1094h305l121 -488q34 -144 63 -297h5q30 166 63 295l123 490h281l-318 -1094h-326z" />
    <glyph glyph-name="w" unicode="w" horiz-adv-x="1366" 
d="M258 -2l-256 1094h293l80 -369q31 -159 55 -315h4q21 155 60 317l79 367h254l80 -361q41 -172 62 -325h4q25 180 57 321l76 365h258l-254 -1094h-272l-152 670h-4l-152 -670h-272z" />
    <glyph glyph-name="x" unicode="x" horiz-adv-x="960" 
d="M12 0l320 561l-293 531h311l156 -308l141 308h287l-295 -519l317 -573h-311l-174 344l-170 -344h-289z" />
    <glyph glyph-name="y" unicode="y" horiz-adv-x="985" 
d="M240 -414q-152 0 -256 31l57 238q101 -21 160 -21q53 0 80 22.5t45 77.5l18 54l-346 1104h315l109 -424q47 -192 76 -338h4q30 151 80 344l108 418h291l-379 -1198q-50 -159 -131 -233.5t-231 -74.5z" />
    <glyph glyph-name="z" unicode="z" horiz-adv-x="923" 
d="M45 0v168l451 700h-414v224h772v-177l-451 -698h482v-217h-840z" />
    <glyph glyph-name="braceleft" unicode="{" horiz-adv-x="784" 
d="M516 -410q-138 0 -210.5 78t-72.5 215v334q0 94 -20 143t-59 65.5t-113 16.5v222q75 0 114.5 17t58.5 65.5t19 142.5v334q0 138 73 215.5t220 77.5h228v-220h-76q-72 0 -103.5 -37t-31.5 -114v-285q0 -98 -20 -160.5t-53.5 -93.5t-90.5 -51v-4q57 -20 90.5 -51
t53.5 -93.5t20 -160.5v-293q0 -75 32 -110.5t103 -35.5h76v-217h-238z" />
    <glyph glyph-name="bar" unicode="|" horiz-adv-x="708" 
d="M203 -410v1926h303v-1926h-303z" />
    <glyph glyph-name="braceright" unicode="}" horiz-adv-x="784" 
d="M29 -410v217h75q72 0 105 35.5t33 110.5v307q0 97 20 156.5t53 87t91 47.5v4q-58 20 -91 47.5t-53 87t-20 156.5v299q0 77 -32.5 114t-105.5 37h-75v220h245q146 0 211.5 -70.5t65.5 -208.5v-348q0 -94 19 -142.5t58 -65.5t115 -17v-222q-75 0 -114 -16.5t-58.5 -65
t-19.5 -143.5v-348q0 -279 -268 -279h-254z" />
    <glyph glyph-name="asciitilde" unicode="~" horiz-adv-x="1171" 
d="M819 524q-74 0 -166 27t-170 53.5t-118 26.5q-33 0 -52.5 -18t-27.5 -68l-189 30q37 306 256 306q77 0 169.5 -26.5t168.5 -53.5t115 -27q34 0 54 17.5t28 66.5l188 -24q-19 -159 -82 -234.5t-174 -75.5z" />
    <glyph glyph-name="exclamdown" unicode="&#xa1;" horiz-adv-x="641" 
d="M150 1225v291h329v-291h-329zM131 0l62 1065h243l62 -1065h-367z" />
    <glyph glyph-name="cent" unicode="&#xa2;" horiz-adv-x="985" 
d="M514 1114l29 158h213l-37 -195q91 -40 144.5 -122t82.5 -199l-268 -64q-22 100 -57.5 145.5t-96.5 45.5q-174 0 -174 -338q0 -346 172 -346q126 0 168 202l260 -63q-91 -361 -432 -361h-10l-35 -186h-211l43 236q-116 59 -185 188.5t-69 329.5q0 119 26 215t70 160
t104.5 108t125.5 64t137 22z" />
    <glyph glyph-name="sterling" unicode="&#xa3;" horiz-adv-x="1245" 
d="M406 684h-254v180h163q-77 161 -77 279q0 179 112 290t301 111q108 0 188 -29.5t129.5 -86t77 -127.5t39.5 -166l-272 -43q-13 103 -47.5 157t-108.5 54q-59 0 -94 -39.5t-35 -114.5q0 -46 14.5 -99t29.5 -87t46 -99h312v-180h-236q41 -115 41 -235q0 -114 -43 -207
q65 -43 127 -43q66 0 96 50.5t31 186.5h266q-2 -109 -19.5 -188.5t-55.5 -144.5t-107.5 -98.5t-169.5 -33.5q-147 0 -282 111q-121 -111 -287 -111q-55 0 -104.5 14.5t-89.5 42.5t-63.5 75t-23.5 106q0 123 79 193.5t198 70.5q90 0 186 -61v16q0 104 -67 256zM428 225
q-80 76 -135 76q-36 0 -58 -22t-22 -60q0 -37 22.5 -58.5t59.5 -21.5q86 0 133 86z" />
    <glyph glyph-name="yen" unicode="&#xa5;" horiz-adv-x="1177" 
d="M735 475v-135h322v-178h-322v-162h-295v162h-319v178h319v135h-319v178h291l-406 863h318l270 -644h4l270 644h303l-409 -863h295v-178h-322z" />
    <glyph glyph-name="brokenbar" unicode="&#xa6;" horiz-adv-x="708" 
d="M203 678v838h303v-838h-303zM203 -410v838h303v-838h-303z" />
    <glyph glyph-name="section" unicode="&#xa7;" horiz-adv-x="1069" 
d="M524 -418q-104 0 -180 25.5t-124 76t-76 108t-50 138.5l248 70q25 -98 66 -147.5t110 -49.5q64 0 93.5 35t29.5 92q0 33 -14.5 62.5t-50.5 61t-65 52.5t-89 60q-143 89 -198 138q-143 127 -144 292q0 97 50.5 180t127.5 139q-113 116 -113 265q0 101 44.5 183t136 132.5
t217.5 50.5q86 0 153 -17.5t112 -47t78.5 -76t53.5 -95.5t37 -114l-246 -68q-26 97 -69 146t-113 49q-64 0 -94.5 -34.5t-30.5 -90.5q0 -33 15 -63t49.5 -60.5t67.5 -53t91 -58.5q40 -26 55.5 -35.5t52.5 -35t53.5 -39.5t47 -40.5t44.5 -46t34.5 -48.5t29.5 -56.5t16 -61.5
t7 -70q0 -96 -50 -178.5t-128 -140.5q56 -60 83.5 -122t27.5 -142q0 -155 -105.5 -260t-290.5 -105zM641 344q82 63 82 137q0 72 -49 125t-180 135l-66 41q-84 -61 -84 -135q0 -72 49 -124.5t180 -135.5q50 -31 68 -43z" />
    <glyph glyph-name="dieresis" unicode="&#xa8;" horiz-adv-x="985" 
d="M561 1196v283h254v-283h-254zM172 1196v283h256v-283h-256z" />
    <glyph glyph-name="copyright" unicode="&#xa9;" horiz-adv-x="1480" 
d="M737 -29q-190 0 -342 103t-236.5 282t-84.5 398q0 164 50.5 310t138 251.5t212 167t266.5 61.5q190 0 343 -103t238 -281.5t85 -397.5q0 -220 -86.5 -401t-240.5 -285.5t-343 -104.5zM741 104q151 0 270 84.5t184 232.5t65 333q0 186 -66 336t-186 235.5t-271 85.5
t-269 -84t-182.5 -232t-64.5 -333q0 -186 66 -336t185 -236t269 -86zM739 317q-147 0 -230 116t-83 331t83.5 330.5t233.5 115.5q237 0 287 -286l-172 -33q-15 72 -40 107.5t-77 35.5q-62 0 -94.5 -72t-32.5 -198q0 -128 32 -198t97 -70q49 0 77 37.5t42 117.5l174 -35
q-30 -144 -99 -221.5t-198 -77.5z" />
    <glyph glyph-name="ordfeminine" unicode="&#xaa;" horiz-adv-x="796" 
d="M260 743q-84 0 -136 49.5t-52 151.5q0 238 411 311v31q0 43 -17 63.5t-58 20.5q-103 0 -209 -82l-101 127q141 125 351 125q127 0 185 -61.5t58 -192.5v-342q0 -134 21 -188h-215q-15 58 -15 102q-88 -115 -223 -115zM350 911q66 0 133 62v166q-200 -45 -200 -154
q0 -36 18 -55t49 -19z" />
    <glyph glyph-name="guillemotleft" unicode="&#xab;" horiz-adv-x="1105" 
d="M776 0l-276 543l276 542h283l-264 -542l264 -543h-283zM315 0l-276 543l276 542h283l-264 -542l264 -543h-283z" />
    <glyph glyph-name="registered" unicode="&#xae;" horiz-adv-x="1013" 
d="M506 600q-172 0 -286 135t-114 336t115 337t287 136q174 0 286.5 -134.5t112.5 -336.5q0 -201 -114.5 -337t-286.5 -136zM508 676q137 0 224 112.5t87 282.5q0 169 -89 283t-224 114q-136 0 -222.5 -112t-86.5 -283q0 -169 88 -283t223 -114zM346 827v510h168
q82 0 128 -42t46 -126q0 -104 -74 -147l78 -195h-121l-73 179h-39v-179h-113zM459 1098h49q35 0 51 15.5t16 51.5q0 66 -67 66h-49v-133z" />
    <glyph glyph-name="macron" unicode="&#xaf;" horiz-adv-x="985" 
d="M190 1196v221h605v-221h-605z" />
    <glyph glyph-name="macron" unicode="&#x2c9;" horiz-adv-x="985" 
d="M190 1196v221h605v-221h-605z" />
    <glyph glyph-name="degree" unicode="&#xb0;" horiz-adv-x="716" 
d="M358 920q-126 0 -206 87t-80 224q0 135 80 223t206 88t205.5 -86t79.5 -223q0 -136 -80 -224.5t-205 -88.5zM358 1067q54 0 85.5 44t31.5 122q0 77 -31.5 120.5t-85.5 43.5t-85 -43t-31 -121t31 -122t85 -44z" />
    <glyph glyph-name="plusminus" unicode="&#xb1;" horiz-adv-x="1939" 
d="M186 0v868h-155v224h155v100q0 58 7.5 103t30 89t60 72.5t100.5 46t148 17.5q131 0 158 -9v-223q-36 6 -76 6q-63 0 -96 -23.5t-33 -92.5v-86h197v-224h-197v-868h-299zM887 0v868h-156v224h156v100q0 58 7.5 103t30 89t60 72.5t100.5 46t148 17.5q131 0 158 -9v-223
q-36 6 -76 6q-63 0 -96 -23.5t-33 -92.5v-86h196v-224h-196v-868h-299zM1524 0v1516h303v-1516h-303z" />
    <glyph glyph-name="twosuperior" unicode="&#xb2;" horiz-adv-x="788" 
d="M66 565v51q0 79 22.5 147t58.5 115.5t80 88t87.5 74.5t79.5 65.5t58.5 69.5t22.5 79q0 76 -72 76q-42 0 -75 -35.5t-66 -111.5l-201 86q53 130 134.5 194t214.5 64q141 0 220 -72.5t79 -204.5q0 -73 -35.5 -137t-87 -109.5t-103.5 -84.5t-92.5 -79t-46.5 -77h361v-199
h-639z" />
    <glyph glyph-name="threesuperior" unicode="&#xb3;" horiz-adv-x="808" 
d="M395 549q-251 0 -350 242l178 96q61 -142 164 -142q58 0 87.5 30.5t29.5 82.5q0 74 -42.5 105.5t-133.5 31.5h-41v138h51q80 0 112.5 29.5t32.5 84.5q0 36 -22.5 61t-63.5 25q-89 0 -166 -102l-157 112q124 191 340 191q135 0 214 -69.5t79 -184.5q0 -146 -127 -205
q149 -64 149 -229q0 -138 -92.5 -217.5t-241.5 -79.5z" />
    <glyph glyph-name="acute" unicode="&#xb4;" horiz-adv-x="985" 
d="M369 1202l163 340h299l-256 -340h-206z" />
    <glyph glyph-name="mu" unicode="&#xb5;" horiz-adv-x="1095" 
d="M100 -410v1502h303v-734q0 -65 23 -97t76 -32q90 0 188 88v775h303v-1092h-303v150q-97 -127 -233 -152q-35 -4 -54 12v-420h-303z" />
    <glyph glyph-name="mu" unicode="&#x3bc;" horiz-adv-x="1095" 
d="M100 -410v1502h303v-734q0 -65 23 -97t76 -32q90 0 188 88v775h303v-1092h-303v150q-97 -127 -233 -152q-35 -4 -54 12v-420h-303z" />
    <glyph glyph-name="paragraph" unicode="&#xb6;" horiz-adv-x="1187" 
d="M496 -410v1072q-202 5 -314 114t-112 309q0 122 47.5 219t140 154.5t215.5 57.5h621v-1926h-232v1684h-135v-1684h-231z" />
    <glyph glyph-name="periodcentered" unicode="&#xb7;" horiz-adv-x="548" 
d="M102 459v311h344v-311h-344z" />
    <glyph glyph-name="periodcentered" unicode="&#x2219;" horiz-adv-x="548" 
d="M102 459v311h344v-311h-344z" />
    <glyph glyph-name="cedilla" unicode="&#xb8;" horiz-adv-x="985" 
d="M506 -430q-161 0 -277 70l60 110q38 -25 94 -40t109 -15q44 0 71 17t27 50q0 52 -60 52q-45 0 -81 -33l-84 39l59 192h129l-31 -112q44 28 113 28q60 0 99.5 -37.5t39.5 -109.5q0 -90 -75.5 -150.5t-192.5 -60.5z" />
    <glyph glyph-name="onesuperior" unicode="&#xb9;" horiz-adv-x="659" 
d="M88 561v199h139v518q-47 -23 -135 -23v203q59 1 95.5 14.5t64.5 43.5h219v-756h123v-199h-506z" />
    <glyph glyph-name="ordmasculine" unicode="&#xba;" horiz-adv-x="823" 
d="M412 745q-68 0 -127 23t-107.5 69.5t-77 125.5t-28.5 182q0 104 28 183t76.5 125t107.5 68.5t128 22.5q68 0 127 -22.5t108 -68.5t77 -125t28 -183q0 -103 -28.5 -182t-77 -125.5t-107.5 -69.5t-127 -23zM412 909q65 0 94 58.5t29 177.5q0 227 -123 227q-64 0 -93.5 -56
t-29.5 -171q0 -236 123 -236z" />
    <glyph glyph-name="guillemotright" unicode="&#xbb;" horiz-adv-x="1105" 
d="M510 0l264 543l-264 542h283l274 -542l-274 -543h-283zM47 0l266 543l-266 542h285l274 -542l-274 -543h-285z" />
    <glyph glyph-name="onequarter" unicode="&#xbc;" horiz-adv-x="1759" 
d="M78 561v205h139v504q-54 -23 -135 -23v209q108 5 160 57h219v-747h123v-205h-506zM1374 0v195h-362v159l354 600h240v-567h120v-192h-120v-195h-232zM403 0l768 1516h250l-768 -1516h-250zM1221 375h168v291z" />
    <glyph glyph-name="onehalf" unicode="&#xbd;" horiz-adv-x="1841" 
d="M1126 0v51q0 79 22.5 147t59 115.5t80.5 88.5t88 74.5t80.5 65.5t59 70t22.5 80q0 76 -72 76q-43 0 -76 -35.5t-65 -111.5l-203 86q106 258 351 258q140 0 219.5 -73.5t79.5 -203.5q0 -54 -19 -102.5t-50 -86t-68.5 -71t-75.5 -62.5t-70.5 -55.5t-55 -55t-26.5 -56.5h360
v-199h-641zM78 561v205h139v504q-54 -23 -135 -23v209q108 5 160 57h219v-747h123v-205h-506zM403 0l768 1516h250l-768 -1516h-250z" />
    <glyph glyph-name="threequarters" unicode="&#xbe;" horiz-adv-x="1812" 
d="M377 543q-121 0 -208.5 64.5t-135.5 183.5l176 92q29 -69 73 -104.5t89 -35.5q53 0 83.5 29.5t30.5 79.5q0 75 -42 106t-132 31h-43v137h54q79 0 111 30t32 85q0 35 -22 58.5t-62 23.5t-82.5 -29.5t-79.5 -81.5l-160 113q135 203 336 203q136 0 215.5 -69.5t79.5 -184.5
q0 -145 -129 -205q78 -34 114 -89.5t36 -139.5q0 -139 -92 -218t-242 -79zM1427 0v195h-364v159l354 600h242v-567h121v-192h-121v-195h-232zM457 0l768 1516h250l-768 -1516h-250zM1274 375h168v291z" />
    <glyph glyph-name="questiondown" unicode="&#xbf;" horiz-adv-x="1026" 
d="M379 1225v291h330v-291h-330zM471 -29q-196 0 -302 100.5t-106 254.5q0 66 14 120.5t43.5 97.5t55.5 72t67 68q7 7 11 10q72 72 102.5 116t44 101t13.5 156h256q4 -45 4 -123q0 -63 -15 -115.5t-48.5 -100.5t-57.5 -74.5t-72 -73.5q-66 -62 -97.5 -112t-31.5 -114
q0 -63 37.5 -98t102.5 -35q72 0 128 57.5t93 143.5l250 -92q-64 -168 -188 -263.5t-304 -95.5z" />
    <glyph glyph-name="Agrave" unicode="&#xc0;" horiz-adv-x="1232" 
d="M397 319l-84 -319h-290l444 1522h299l444 -1522h-313l-82 319h-418zM752 561l-39 154q-11 43 -36 136.5t-39.5 153t-27.5 123.5h-4q-10 -50 -22.5 -105t-22.5 -91.5t-29 -106t-30 -108.5l-41 -156h291zM526 1606l-254 340h297l164 -340h-207z" />
    <glyph glyph-name="Aacute" unicode="&#xc1;" horiz-adv-x="1232" 
d="M397 319l-84 -319h-290l444 1522h299l444 -1522h-313l-82 319h-418zM752 561l-39 154q-11 43 -36 136.5t-39.5 153t-27.5 123.5h-4q-10 -50 -22.5 -105t-22.5 -91.5t-29 -106t-30 -108.5l-41 -156h291zM496 1606l163 340h299l-256 -340h-206z" />
    <glyph glyph-name="Acircumflex" unicode="&#xc2;" horiz-adv-x="1232" 
d="M397 319l-84 -319h-290l444 1522h299l444 -1522h-313l-82 319h-418zM752 561l-39 154q-11 43 -36 136.5t-39.5 153t-27.5 123.5h-4q-10 -50 -22.5 -105t-22.5 -91.5t-29 -106t-30 -108.5l-41 -156h291zM289 1602l225 340h203l223 -340h-174l-152 143l-151 -143h-174z" />
    <glyph glyph-name="Atilde" unicode="&#xc3;" horiz-adv-x="1232" 
d="M397 319l-84 -319h-290l444 1522h299l444 -1522h-313l-82 319h-418zM752 561l-39 154q-11 43 -36 136.5t-39.5 153t-27.5 123.5h-4q-10 -50 -22.5 -105t-22.5 -91.5t-29 -106t-30 -108.5l-41 -156h291zM756 1581q-45 0 -87 18t-68 39.5t-56.5 39.5t-55.5 18
q-73 0 -73 -111h-158q0 166 57 246t160 80q46 0 88 -18t68 -39.5t56.5 -39.5t55.5 -18q72 0 72 111h158q0 -326 -217 -326z" />
    <glyph glyph-name="Adieresis" unicode="&#xc4;" horiz-adv-x="1232" 
d="M397 319l-84 -319h-290l444 1522h299l444 -1522h-313l-82 319h-418zM752 561l-39 154q-11 43 -36 136.5t-39.5 153t-27.5 123.5h-4q-10 -50 -22.5 -105t-22.5 -91.5t-29 -106t-30 -108.5l-41 -156h291zM684 1599v283h254v-283h-254zM295 1599v283h256v-283h-256z" />
    <glyph glyph-name="Aring" unicode="&#xc5;" horiz-adv-x="1232" 
d="M397 319l-84 -319h-290l434 1487q-49 58 -49 151q0 97 57.5 160.5t150.5 63.5q91 0 149 -64t58 -160q0 -87 -49 -149l436 -1489h-313l-82 319h-418zM752 561l-39 154q-11 43 -36 136.5t-39.5 153t-27.5 123.5h-4q-10 -50 -22.5 -105t-22.5 -91.5t-29 -106t-30 -108.5
l-41 -156h291zM616 1532q35 0 54.5 30t19.5 74q0 43 -19.5 73t-54.5 30q-36 0 -55.5 -30t-19.5 -73q0 -44 19.5 -74t55.5 -30z" />
    <glyph glyph-name="AE" unicode="&#xc6;" horiz-adv-x="1812" 
d="M20 0l687 1516h1024v-263h-557v-342h399v-247h-399v-408h583v-256h-893v422h-352l-186 -422h-306zM608 645h256v572z" />
    <glyph glyph-name="Ccedilla" unicode="&#xc7;" horiz-adv-x="1239" 
d="M631 -430q-161 0 -277 70l60 110q38 -25 93.5 -40t108.5 -15q45 0 72 17t27 50q0 52 -60 52q-46 0 -82 -33l-84 39l50 162q-223 35 -348 228.5t-125 549.5q0 199 43 350t122 245.5t185.5 141.5t238.5 47q121 0 213 -36.5t152.5 -106.5t97 -163t53.5 -216l-292 -51
q-27 162 -79.5 234.5t-154.5 72.5q-266 0 -266 -518q0 -531 270 -531q105 0 160.5 75.5t85.5 252.5l293 -47q-17 -94 -43.5 -170.5t-69 -144.5t-98.5 -115t-134.5 -75.5t-174.5 -31.5l-21 -73q44 28 113 28q60 0 99.5 -37.5t39.5 -109.5q0 -90 -75.5 -150.5t-192.5 -60.5z
" />
    <glyph glyph-name="Egrave" unicode="&#xc8;" horiz-adv-x="1077" 
d="M125 0v1516h868v-263h-557v-342h402v-247h-402v-408h586v-256h-897zM465 1606l-254 340h297l164 -340h-207z" />
    <glyph glyph-name="Eacute" unicode="&#xc9;" horiz-adv-x="1077" 
d="M408 1606l163 340h299l-256 -340h-206zM125 0v1516h868v-263h-557v-342h402v-247h-402v-408h586v-256h-897z" />
    <glyph glyph-name="Ecircumflex" unicode="&#xca;" horiz-adv-x="1077" 
d="M215 1606l225 340h203l223 -340h-174l-151 143l-152 -143h-174zM125 0v1516h868v-263h-557v-342h402v-247h-402v-408h586v-256h-897z" />
    <glyph glyph-name="Edieresis" unicode="&#xcb;" horiz-adv-x="1077" 
d="M610 1599v283h254v-283h-254zM221 1599v283h256v-283h-256zM125 0v1516h868v-263h-557v-342h402v-247h-402v-408h586v-256h-897z" />
    <glyph glyph-name="Igrave" unicode="&#xcc;" horiz-adv-x="583" 
d="M137 0v1516h312v-1516h-312zM205 1606l-254 340h297l164 -340h-207z" />
    <glyph glyph-name="Iacute" unicode="&#xcd;" horiz-adv-x="583" 
d="M137 0v1516h312v-1516h-312zM174 1606l164 340h299l-256 -340h-207z" />
    <glyph glyph-name="Icircumflex" unicode="&#xce;" horiz-adv-x="583" 
d="M137 0v1516h312v-1516h-312zM-35 1606l225 340h203l223 -340h-174l-151 143l-152 -143h-174z" />
    <glyph glyph-name="Idieresis" unicode="&#xcf;" horiz-adv-x="583" 
d="M137 0v1516h312v-1516h-312zM360 1599v283h254v-283h-254zM-29 1599v283h256v-283h-256z" />
    <glyph glyph-name="Eth" unicode="&#xd0;" horiz-adv-x="1282" 
d="M125 666h-107v239h107v611h397q128 0 229.5 -22t190.5 -75t148.5 -138t93 -216t33.5 -303q0 -173 -34.5 -305.5t-94.5 -218t-149 -140t-190.5 -76.5t-226.5 -22h-397v666zM426 905h242v-239h-242v-406h125q196 0 275 113t79 389q0 268 -79.5 379.5t-276.5 111.5h-123
v-348z" />
    <glyph glyph-name="Ntilde" unicode="&#xd1;" horiz-adv-x="1335" 
d="M125 0v1516h321l349 -680q71 -140 123 -261h4v941h282v-1516h-289l-393 735q-59 112 -110 226h-4v-961h-283zM807 1581q-45 0 -87 18t-68 39.5t-56 39.5t-55 18q-74 0 -74 -111h-158q0 166 57 246t160 80q46 0 88.5 -18t68.5 -39.5t56.5 -39.5t55.5 -18q71 0 71 111h158
q0 -326 -217 -326z" />
    <glyph glyph-name="Ograve" unicode="&#xd2;" horiz-adv-x="1335" 
d="M668 -29q-126 0 -233 47.5t-190.5 141.5t-131 247t-47.5 351t47.5 351t131 246.5t190.5 141t233 47.5q99 0 187.5 -29t164.5 -91.5t131 -153.5t86 -222t31 -290q0 -198 -47.5 -351t-130.5 -247t-190 -141.5t-232 -47.5zM668 229q139 0 212.5 138t73.5 391
q0 252 -73.5 386t-212.5 134q-141 0 -215 -134t-74 -386q0 -254 74.5 -391.5t214.5 -137.5zM584 1606l-254 340h297l164 -340h-207z" />
    <glyph glyph-name="Oacute" unicode="&#xd3;" horiz-adv-x="1335" 
d="M543 1606l164 340h299l-256 -340h-207zM668 -29q-126 0 -233 47.5t-190.5 141.5t-131 247t-47.5 351t47.5 351t131 246.5t190.5 141t233 47.5q99 0 187.5 -29t164.5 -91.5t131 -153.5t86 -222t31 -290q0 -198 -47.5 -351t-130.5 -247t-190 -141.5t-232 -47.5zM668 229
q139 0 212.5 138t73.5 391q0 252 -73.5 386t-212.5 134q-141 0 -215 -134t-74 -386q0 -254 74.5 -391.5t214.5 -137.5z" />
    <glyph glyph-name="Ocircumflex" unicode="&#xd4;" horiz-adv-x="1335" 
d="M340 1606l225 340h203l223 -340h-174l-151 143l-152 -143h-174zM668 -29q-126 0 -233 47.5t-190.5 141.5t-131 247t-47.5 351t47.5 351t131 246.5t190.5 141t233 47.5q99 0 187.5 -29t164.5 -91.5t131 -153.5t86 -222t31 -290q0 -198 -47.5 -351t-130.5 -247t-190 -141.5
t-232 -47.5zM668 229q139 0 212.5 138t73.5 391q0 252 -73.5 386t-212.5 134q-141 0 -215 -134t-74 -386q0 -254 74.5 -391.5t214.5 -137.5z" />
    <glyph glyph-name="Otilde" unicode="&#xd5;" horiz-adv-x="1335" 
d="M668 -29q-126 0 -233 47.5t-190.5 141.5t-131 247t-47.5 351t47.5 351t131 246.5t190.5 141t233 47.5q99 0 187.5 -29t164.5 -91.5t131 -153.5t86 -222t31 -290q0 -198 -47.5 -351t-130.5 -247t-190 -141.5t-232 -47.5zM668 229q139 0 212.5 138t73.5 391
q0 252 -73.5 386t-212.5 134q-141 0 -215 -134t-74 -386q0 -254 74.5 -391.5t214.5 -137.5zM807 1581q-45 0 -87 18t-68 39.5t-56 39.5t-55 18q-74 0 -74 -111h-158q0 166 57 246t160 80q46 0 88.5 -18t68.5 -39.5t56.5 -39.5t55.5 -18q71 0 71 111h158q0 -326 -217 -326z
" />
    <glyph glyph-name="Odieresis" unicode="&#xd6;" horiz-adv-x="1335" 
d="M735 1599v283h254v-283h-254zM346 1599v283h256v-283h-256zM668 -29q-126 0 -233 47.5t-190.5 141.5t-131 247t-47.5 351t47.5 351t131 246.5t190.5 141t233 47.5q99 0 187.5 -29t164.5 -91.5t131 -153.5t86 -222t31 -290q0 -198 -47.5 -351t-130.5 -247t-190 -141.5
t-232 -47.5zM668 229q139 0 212.5 138t73.5 391q0 252 -73.5 386t-212.5 134q-141 0 -215 -134t-74 -386q0 -254 74.5 -391.5t214.5 -137.5z" />
    <glyph glyph-name="multiply" unicode="&#xd7;" horiz-adv-x="1157" 
d="M279 236l-166 165l299 297l-299 299l166 166l299 -299l299 299l165 -166l-299 -299l299 -297l-165 -165l-299 296z" />
    <glyph glyph-name="Oslash" unicode="&#xd8;" horiz-adv-x="1335" 
d="M1128 1303q140 -202 140 -545q0 -198 -47.5 -351t-130.5 -247t-190 -141.5t-232 -47.5q-192 0 -330 103l-113 -172l-162 104l140 209q-137 202 -137 543q0 198 47.5 351t131 246.5t190.5 141t233 47.5q183 0 323 -98l119 168l158 -103zM399 500l445 702q-71 80 -176 80
q-141 0 -218 -136t-77 -388q0 -151 26 -258zM934 1016l-451 -703q76 -88 185 -88q139 0 216 140.5t77 392.5q0 133 -27 258z" />
    <glyph glyph-name="Ugrave" unicode="&#xd9;" horiz-adv-x="1251" 
d="M629 -25q-523 0 -523 549v992h312v-973q0 -160 49.5 -232.5t165.5 -72.5q115 0 165 72.5t50 230.5v975h297v-990q0 -271 -124 -411t-392 -140zM543 1606l-254 340h297l164 -340h-207z" />
    <glyph glyph-name="Uacute" unicode="&#xda;" horiz-adv-x="1251" 
d="M502 1606l164 340h299l-256 -340h-207zM629 -25q-523 0 -523 549v992h312v-973q0 -160 49.5 -232.5t165.5 -72.5q115 0 165 72.5t50 230.5v975h297v-990q0 -271 -124 -411t-392 -140z" />
    <glyph glyph-name="Ucircumflex" unicode="&#xdb;" horiz-adv-x="1251" 
d="M299 1606l225 340h203l223 -340h-174l-151 143l-152 -143h-174zM629 -25q-523 0 -523 549v992h312v-973q0 -160 49.5 -232.5t165.5 -72.5q115 0 165 72.5t50 230.5v975h297v-990q0 -271 -124 -411t-392 -140z" />
    <glyph glyph-name="Udieresis" unicode="&#xdc;" horiz-adv-x="1251" 
d="M694 1599v283h254v-283h-254zM305 1599v283h256v-283h-256zM629 -25q-523 0 -523 549v992h312v-973q0 -160 49.5 -232.5t165.5 -72.5q115 0 165 72.5t50 230.5v975h297v-990q0 -271 -124 -411t-392 -140z" />
    <glyph glyph-name="Yacute" unicode="&#xdd;" horiz-adv-x="1177" 
d="M432 0v594l-426 922h318l270 -639h4l270 639h303l-428 -920v-596h-311zM465 1606l164 340h299l-256 -340h-207z" />
    <glyph glyph-name="Thorn" unicode="&#xde;" horiz-adv-x="1173" 
d="M125 0v1516h307v-244h152q88 0 163 -14.5t144 -50t116.5 -90t76 -140t28.5 -195.5q0 -116 -30.5 -204.5t-80.5 -143t-121 -89t-143.5 -47.5t-156.5 -13h-148v-285h-307zM432 530h156q120 0 173.5 59.5t53.5 186.5q0 122 -53.5 179t-175.5 57h-154v-482z" />
    <glyph glyph-name="germandbls" unicode="&#xdf;" horiz-adv-x="1196" 
d="M756 -20q-83 0 -162.5 21.5t-130.5 53.5l98 207q78 -47 162 -47q69 0 108 52t39 153q0 135 -80 197t-262 73v199q119 0 173.5 53.5t54.5 159.5q0 74 -42.5 120t-121.5 46q-89 0 -135.5 -58t-46.5 -172v-1038h-301v1030q0 240 130 363t355 123q206 0 325 -96t119 -275
q0 -125 -64.5 -211t-164.5 -119q166 -29 256 -133.5t90 -259.5q0 -199 -105 -320.5t-294 -121.5z" />
    <glyph glyph-name="agrave" unicode="&#xe0;" horiz-adv-x="1017" 
d="M309 -12q-121 0 -193.5 69t-72.5 215q0 327 588 435v45q0 64 -25.5 94.5t-85.5 30.5q-138 0 -301 -119l-137 180q201 176 496 176q181 0 263.5 -87.5t82.5 -274.5v-486q0 -194 26 -266h-299q-20 68 -20 147q-125 -159 -322 -159zM438 219q103 0 193 86v242
q-158 -34 -226.5 -88t-68.5 -131q0 -53 27.5 -81t74.5 -28zM434 1202l-254 340h297l164 -340h-207z" />
    <glyph glyph-name="aacute" unicode="&#xe1;" horiz-adv-x="1017" 
d="M309 -12q-121 0 -193.5 69t-72.5 215q0 327 588 435v45q0 64 -25.5 94.5t-85.5 30.5q-138 0 -301 -119l-137 180q201 176 496 176q181 0 263.5 -87.5t82.5 -274.5v-486q0 -194 26 -266h-299q-20 68 -20 147q-125 -159 -322 -159zM438 219q103 0 193 86v242
q-158 -34 -226.5 -88t-68.5 -131q0 -53 27.5 -81t74.5 -28zM373 1202l164 340h299l-256 -340h-207z" />
    <glyph glyph-name="acircumflex" unicode="&#xe2;" horiz-adv-x="1017" 
d="M309 -12q-121 0 -193.5 69t-72.5 215q0 327 588 435v45q0 64 -25.5 94.5t-85.5 30.5q-138 0 -301 -119l-137 180q201 176 496 176q181 0 263.5 -87.5t82.5 -274.5v-486q0 -194 26 -266h-299q-20 68 -20 147q-125 -159 -322 -159zM438 219q103 0 193 86v242
q-158 -34 -226.5 -88t-68.5 -131q0 -53 27.5 -81t74.5 -28zM180 1202l226 340h202l223 -340h-174l-151 144l-152 -144h-174z" />
    <glyph glyph-name="atilde" unicode="&#xe3;" horiz-adv-x="1017" 
d="M309 -12q-121 0 -193.5 69t-72.5 215q0 327 588 435v45q0 64 -25.5 94.5t-85.5 30.5q-138 0 -301 -119l-137 180q201 176 496 176q181 0 263.5 -87.5t82.5 -274.5v-486q0 -194 26 -266h-299q-20 68 -20 147q-125 -159 -322 -159zM438 219q103 0 193 86v242
q-158 -34 -226.5 -88t-68.5 -131q0 -53 27.5 -81t74.5 -28zM647 1178q-45 0 -87 18t-68 39t-56 39t-55 18q-74 0 -74 -110h-157q0 325 217 325q46 0 88 -18t68 -39t56.5 -39t55.5 -18q72 0 72 110h157q0 -325 -217 -325z" />
    <glyph glyph-name="adieresis" unicode="&#xe4;" horiz-adv-x="1017" 
d="M309 -12q-121 0 -193.5 69t-72.5 215q0 327 588 435v45q0 64 -25.5 94.5t-85.5 30.5q-138 0 -301 -119l-137 180q201 176 496 176q181 0 263.5 -87.5t82.5 -274.5v-486q0 -194 26 -266h-299q-20 68 -20 147q-125 -159 -322 -159zM438 219q103 0 193 86v242
q-158 -34 -226.5 -88t-68.5 -131q0 -53 27.5 -81t74.5 -28zM575 1196v283h254v-283h-254zM186 1196v283h256v-283h-256z" />
    <glyph glyph-name="aring" unicode="&#xe5;" horiz-adv-x="1017" 
d="M309 -12q-121 0 -193.5 69t-72.5 215q0 327 588 435v45q0 64 -25.5 94.5t-85.5 30.5q-138 0 -301 -119l-137 180q201 176 496 176q181 0 263.5 -87.5t82.5 -274.5v-486q0 -194 26 -266h-299q-20 68 -20 147q-125 -159 -322 -159zM438 219q103 0 193 86v242
q-158 -34 -226.5 -88t-68.5 -131q0 -53 27.5 -81t74.5 -28zM508 1174q-93 0 -151 63.5t-58 161.5q0 96 58 159.5t151 63.5q91 0 149 -63.5t58 -159.5q0 -98 -58 -161.5t-149 -63.5zM508 1292q35 0 54.5 30.5t19.5 74.5q0 42 -19.5 72t-54.5 30q-36 0 -56 -29.5t-20 -72.5
q0 -44 20 -74.5t56 -30.5z" />
    <glyph glyph-name="ae" unicode="&#xe6;" horiz-adv-x="1581" 
d="M707 195q-168 -209 -398 -209q-121 0 -193.5 69t-72.5 215q0 329 588 437v45q0 64 -25.5 94.5t-85.5 30.5q-138 0 -301 -119l-137 180q201 176 496 176q184 0 247 -100q121 100 267 100q96 0 173.5 -33.5t138 -102.5t93.5 -184t33 -268v-55h-612q17 -268 196 -268
q73 0 136 41t100 100l176 -141q-155 -226 -424 -226q-275 0 -395 218zM920 643h335q-7 123 -47.5 181.5t-115.5 58.5q-68 0 -114.5 -58t-57.5 -182zM631 545q-295 -66 -295 -219q0 -53 27.5 -81t74.5 -28q111 0 217 109q-24 95 -24 219z" />
    <glyph glyph-name="ccedilla" unicode="&#xe7;" horiz-adv-x="985" 
d="M506 -430q-161 0 -277 70l60 110q38 -25 94 -40t109 -15q44 0 71 17t27 50q0 52 -60 52q-45 0 -81 -33l-84 39l51 168q-77 16 -141.5 56t-115.5 106.5t-79.5 167.5t-28.5 227q0 121 27 218.5t72.5 162t107.5 107.5t129.5 62t140.5 19q97 0 170 -27t121 -77.5t77.5 -111.5
t49.5 -142l-268 -64q-22 99 -57 143t-97 44q-170 0 -170 -334q0 -170 40 -256t128 -86q61 0 103.5 45.5t64.5 152.5l260 -63q-40 -160 -138.5 -257t-268.5 -104l-21 -77q44 28 113 28q60 0 99.5 -37.5t39.5 -109.5q0 -90 -75.5 -150.5t-192.5 -60.5z" />
    <glyph glyph-name="egrave" unicode="&#xe8;" horiz-adv-x="1011" 
d="M530 -23q-101 0 -186 33t-151.5 99.5t-104 177.5t-37.5 258q0 120 28 218t73.5 162.5t107.5 107.5t127.5 62t134.5 19q95 0 173 -33.5t138.5 -102t94 -184t33.5 -268.5v-55h-613q14 -268 197 -268q73 0 135.5 41t99.5 100l176 -141q-155 -226 -426 -226zM350 643h336
q-15 240 -164 240q-68 0 -114.5 -58t-57.5 -182zM426 1202l-254 340h297l164 -340h-207z" />
    <glyph glyph-name="eacute" unicode="&#xe9;" horiz-adv-x="1011" 
d="M381 1202l164 340h299l-256 -340h-207zM530 -23q-101 0 -186 33t-151.5 99.5t-104 177.5t-37.5 258q0 120 28 218t73.5 162.5t107.5 107.5t127.5 62t134.5 19q95 0 173 -33.5t138.5 -102t94 -184t33.5 -268.5v-55h-613q14 -268 197 -268q73 0 135.5 41t99.5 100l176 -141
q-155 -226 -426 -226zM350 643h336q-15 240 -164 240q-68 0 -114.5 -58t-57.5 -182z" />
    <glyph glyph-name="ecircumflex" unicode="&#xea;" horiz-adv-x="1011" 
d="M178 1202l225 340h203l223 -340h-174l-151 144l-152 -144h-174zM530 -23q-101 0 -186 33t-151.5 99.5t-104 177.5t-37.5 258q0 120 28 218t73.5 162.5t107.5 107.5t127.5 62t134.5 19q95 0 173 -33.5t138.5 -102t94 -184t33.5 -268.5v-55h-613q14 -268 197 -268
q73 0 135.5 41t99.5 100l176 -141q-155 -226 -426 -226zM350 643h336q-15 240 -164 240q-68 0 -114.5 -58t-57.5 -182z" />
    <glyph glyph-name="edieresis" unicode="&#xeb;" horiz-adv-x="1011" 
d="M573 1196v283h254v-283h-254zM184 1196v283h256v-283h-256zM530 -23q-101 0 -186 33t-151.5 99.5t-104 177.5t-37.5 258q0 120 28 218t73.5 162.5t107.5 107.5t127.5 62t134.5 19q95 0 173 -33.5t138.5 -102t94 -184t33.5 -268.5v-55h-613q14 -268 197 -268
q73 0 135.5 41t99.5 100l176 -141q-155 -226 -426 -226zM350 643h336q-15 240 -164 240q-68 0 -114.5 -58t-57.5 -182z" />
    <glyph glyph-name="igrave" unicode="&#xec;" horiz-adv-x="528" 
d="M113 0v1092h303v-1092h-303zM176 1202l-254 340h297l164 -340h-207z" />
    <glyph glyph-name="iacute" unicode="&#xed;" horiz-adv-x="528" 
d="M145 1202l164 340h299l-256 -340h-207zM113 0v1092h303v-1092h-303z" />
    <glyph glyph-name="icircumflex" unicode="&#xee;" horiz-adv-x="528" 
d="M-63 1202l225 340h203l223 -340h-174l-152 144l-151 -144h-174zM113 0v1092h303v-1092h-303z" />
    <glyph glyph-name="idieresis" unicode="&#xef;" horiz-adv-x="528" 
d="M332 1196v283h254v-283h-254zM-57 1196v283h256v-283h-256zM113 0v1092h303v-1092h-303z" />
    <glyph glyph-name="eth" unicode="&#xf0;" horiz-adv-x="1062" 
d="M616 1165l-131 -75l-84 145l109 63q-53 57 -111 103l158 164q97 -70 166 -144l129 74l84 -145l-107 -62q181 -274 181 -717q0 -288 -127 -441t-348 -153t-351.5 141t-130.5 388q0 249 116 381.5t304 132.5q73 0 144 -34.5t112 -96.5q-25 138 -113 276zM532 207
q87 0 134 76t47 227q0 150 -47.5 227.5t-133.5 77.5q-180 0 -180 -305q0 -303 180 -303z" />
    <glyph glyph-name="ntilde" unicode="&#xf1;" horiz-adv-x="1089" 
d="M102 0v1092h304v-152q48 69 133.5 121.5t191.5 52.5q264 0 264 -287v-827h-301v731q0 64 -23 95.5t-75 31.5q-84 0 -190 -98v-760h-304zM684 1178q-45 0 -87 18t-67.5 39t-56 39t-55.5 18q-74 0 -74 -110h-158q0 325 217 325q46 0 88.5 -18t68.5 -39t56.5 -39t55.5 -18
q35 0 53 25.5t18 84.5h158q0 -325 -217 -325z" />
    <glyph glyph-name="ograve" unicode="&#xf2;" horiz-adv-x="1064" 
d="M532 -23q-96 0 -180 32.5t-153 98.5t-108.5 178t-39.5 259q0 148 39.5 261t108 178.5t152.5 97.5t181 32t180.5 -32t152.5 -97.5t109 -178.5t40 -261q0 -147 -40 -259t-108.5 -178t-153 -98.5t-180.5 -32.5zM532 209q93 0 136 82.5t43 253.5q0 161 -42 245t-137 84
q-93 0 -135.5 -80.5t-42.5 -248.5q0 -164 41 -250t137 -86zM449 1202l-254 340h297l163 -340h-206z" />
    <glyph glyph-name="oacute" unicode="&#xf3;" horiz-adv-x="1064" 
d="M408 1202l163 340h299l-256 -340h-206zM532 -23q-96 0 -180 32.5t-153 98.5t-108.5 178t-39.5 259q0 148 39.5 261t108 178.5t152.5 97.5t181 32t180.5 -32t152.5 -97.5t109 -178.5t40 -261q0 -147 -40 -259t-108.5 -178t-153 -98.5t-180.5 -32.5zM532 209q93 0 136 82.5
t43 253.5q0 161 -42 245t-137 84q-93 0 -135.5 -80.5t-42.5 -248.5q0 -164 41 -250t137 -86z" />
    <glyph glyph-name="ocircumflex" unicode="&#xf4;" horiz-adv-x="1064" 
d="M205 1202l225 340h203l223 -340h-174l-152 144l-151 -144h-174zM532 -23q-96 0 -180 32.5t-153 98.5t-108.5 178t-39.5 259q0 148 39.5 261t108 178.5t152.5 97.5t181 32t180.5 -32t152.5 -97.5t109 -178.5t40 -261q0 -147 -40 -259t-108.5 -178t-153 -98.5t-180.5 -32.5
zM532 209q93 0 136 82.5t43 253.5q0 161 -42 245t-137 84q-93 0 -135.5 -80.5t-42.5 -248.5q0 -164 41 -250t137 -86z" />
    <glyph glyph-name="otilde" unicode="&#xf5;" horiz-adv-x="1064" 
d="M532 -23q-96 0 -180 32.5t-153 98.5t-108.5 178t-39.5 259q0 148 39.5 261t108 178.5t152.5 97.5t181 32t180.5 -32t152.5 -97.5t109 -178.5t40 -261q0 -147 -40 -259t-108.5 -178t-153 -98.5t-180.5 -32.5zM532 209q93 0 136 82.5t43 253.5q0 161 -42 245t-137 84
q-93 0 -135.5 -80.5t-42.5 -248.5q0 -164 41 -250t137 -86zM672 1178q-45 0 -87 18t-67.5 39t-56 39t-55.5 18q-74 0 -74 -110h-158q0 325 217 325q46 0 88 -18t68 -39t56.5 -39t55.5 -18q72 0 72 110h158q0 -325 -217 -325z" />
    <glyph glyph-name="odieresis" unicode="&#xf6;" horiz-adv-x="1064" 
d="M600 1196v283h254v-283h-254zM211 1196v283h256v-283h-256zM532 -23q-96 0 -180 32.5t-153 98.5t-108.5 178t-39.5 259q0 148 39.5 261t108 178.5t152.5 97.5t181 32t180.5 -32t152.5 -97.5t109 -178.5t40 -261q0 -147 -40 -259t-108.5 -178t-153 -98.5t-180.5 -32.5z
M532 209q93 0 136 82.5t43 253.5q0 161 -42 245t-137 84q-93 0 -135.5 -80.5t-42.5 -248.5q0 -164 41 -250t137 -86z" />
    <glyph glyph-name="divide" unicode="&#xf7;" horiz-adv-x="1157" 
d="M449 961v247h258v-247h-258zM111 573v250h936v-250h-936zM449 186v250h258v-250h-258z" />
    <glyph glyph-name="oslash" unicode="&#xf8;" horiz-adv-x="1064" 
d="M901 944q113 -149 113 -399q0 -147 -40 -259t-108.5 -178t-153 -98.5t-180.5 -32.5q-137 0 -247 64l-90 -129l-134 88l101 152q-111 150 -111 393q0 148 39.5 261t108 178.5t152.5 97.5t181 32q136 0 242 -59l92 129l138 -86zM350 416l289 424q-45 39 -107 39
q-190 0 -190 -334q0 -77 8 -129zM711 682l-293 -430q43 -49 114 -49q189 0 189 342q0 69 -10 137z" />
    <glyph glyph-name="ugrave" unicode="&#xf9;" horiz-adv-x="1089" 
d="M358 -23q-264 0 -264 287v828h301v-740q0 -63 23.5 -94t77.5 -31q89 0 188 99v766h303v-1092h-303v150q-51 -70 -135.5 -121.5t-190.5 -51.5zM471 1202l-254 340h297l164 -340h-207z" />
    <glyph glyph-name="uacute" unicode="&#xfa;" horiz-adv-x="1089" 
d="M410 1202l163 340h299l-256 -340h-206zM358 -23q-264 0 -264 287v828h301v-740q0 -63 23.5 -94t77.5 -31q89 0 188 99v766h303v-1092h-303v150q-51 -70 -135.5 -121.5t-190.5 -51.5z" />
    <glyph glyph-name="ucircumflex" unicode="&#xfb;" horiz-adv-x="1089" 
d="M217 1202l225 340h203l223 -340h-174l-151 144l-152 -144h-174zM358 -23q-264 0 -264 287v828h301v-740q0 -63 23.5 -94t77.5 -31q89 0 188 99v766h303v-1092h-303v150q-51 -70 -135.5 -121.5t-190.5 -51.5z" />
    <glyph glyph-name="udieresis" unicode="&#xfc;" horiz-adv-x="1089" 
d="M612 1196v283h254v-283h-254zM223 1196v283h256v-283h-256zM358 -23q-264 0 -264 287v828h301v-740q0 -63 23.5 -94t77.5 -31q89 0 188 99v766h303v-1092h-303v150q-51 -70 -135.5 -121.5t-190.5 -51.5z" />
    <glyph glyph-name="yacute" unicode="&#xfd;" horiz-adv-x="985" 
d="M240 -414q-152 0 -256 31l57 238q101 -21 160 -21q53 0 80 22.5t45 77.5l18 54l-346 1104h315l109 -424q47 -192 76 -338h4q30 151 80 344l108 418h291l-379 -1198q-50 -159 -131 -233.5t-231 -74.5zM369 1202l163 340h299l-256 -340h-206z" />
    <glyph glyph-name="thorn" unicode="&#xfe;" horiz-adv-x="1093" 
d="M102 -410v1926h304v-570q113 168 282 168q164 0 258 -142t94 -425q0 -282 -95 -422.5t-261 -140.5q-177 0 -278 141v-535h-304zM575 219q82 0 122 78.5t40 247.5q0 162 -39 237.5t-125 75.5q-78 0 -167 -98v-449q45 -46 83.5 -69t85.5 -23z" />
    <glyph glyph-name="ydieresis" unicode="&#xff;" horiz-adv-x="985" 
d="M240 -414q-152 0 -256 31l57 238q101 -21 160 -21q53 0 80 22.5t45 77.5l18 54l-346 1104h315l109 -424q47 -192 76 -338h4q30 151 80 344l108 418h291l-379 -1198q-50 -159 -131 -233.5t-231 -74.5zM561 1196v283h254v-283h-254zM172 1196v283h256v-283h-256z" />
    <glyph glyph-name="dotlessi" unicode="&#x131;" horiz-adv-x="528" 
d="M113 0v1092h303v-1092h-303z" />
    <glyph glyph-name="Lslash" unicode="&#x141;" horiz-adv-x="1048" 
d="M125 0v629l-107 -39v241l107 39v646h311v-549l195 73v-243l-195 -72v-469h570v-256h-881z" />
    <glyph glyph-name="lslash" unicode="&#x142;" horiz-adv-x="612" 
d="M156 0v809l-111 -41v231l111 41v476h301v-383l108 41v-232l-108 -41v-901h-301z" />
    <glyph glyph-name="OE" unicode="&#x152;" horiz-adv-x="1906" 
d="M987 1382v134h836v-263h-557v-342h401v-247h-401v-408h585v-256h-864v131q-102 -160 -348 -160q-115 0 -216 47.5t-182 141t-128 247.5t-47 351q0 159 31 290t85.5 222t129.5 153.5t161.5 91.5t183.5 29q231 0 330 -162zM668 229q139 0 212.5 138t73.5 391
q0 252 -73.5 386t-212.5 134q-141 0 -215 -134t-74 -386q0 -254 74.5 -391.5t214.5 -137.5z" />
    <glyph glyph-name="oe" unicode="&#x153;" horiz-adv-x="1662" 
d="M856 967q61 73 143 110t172 37q96 0 174 -33.5t139 -102t94.5 -184t33.5 -268.5v-55h-615q17 -268 199 -268q72 0 134.5 41t99.5 100l178 -141q-155 -226 -426 -226q-207 0 -328 142q-124 -142 -322 -142q-96 0 -180 32.5t-153 98.5t-108.5 178t-39.5 259q0 148 39.5 261
t108 178.5t152.5 97.5t181 32q203 0 324 -147zM999 643h336q-15 240 -164 240q-67 0 -113 -58t-59 -182zM532 209q93 0 136 82.5t43 253.5q0 161 -42 245t-137 84q-93 0 -135.5 -80.5t-42.5 -248.5q0 -164 41 -250t137 -86z" />
    <glyph glyph-name="Scaron" unicode="&#x160;" horiz-adv-x="1204" 
d="M500 1608l-226 340h177l149 -146l152 146h174l-224 -340h-202zM625 -27q-397 0 -570 361l252 127q54 -108 134.5 -174t183.5 -66q96 0 148 47t52 125q0 36 -15.5 68t-36.5 54t-61 46t-71 39t-84 37q-163 69 -231 112q-182 116 -207 305q-4 33 -4 68q0 187 136 304.5
t345 117.5q349 0 510 -338l-242 -131q-106 213 -274 213q-80 0 -125 -42.5t-45 -108.5q0 -35 14 -66t34 -53t56.5 -45.5t66.5 -38.5t79 -37q161 -70 220 -104q179 -105 223 -262q17 -58 17 -125q0 -87 -33 -164.5t-95 -137.5t-159.5 -95.5t-217.5 -35.5z" />
    <glyph glyph-name="scaron" unicode="&#x161;" horiz-adv-x="950" 
d="M375 1204l-225 340h176l149 -145l152 145h174l-223 -340h-203zM477 -25q-294 0 -459 189l158 170q65 -67 148 -107.5t157 -40.5q68 0 106 25.5t38 75.5q0 41 -30.5 69.5t-79 46t-107 34.5t-117.5 41.5t-107.5 59.5t-79 97.5t-30.5 146.5q0 107 56 183.5t146 112.5t201 36
t219.5 -46t180.5 -128l-158 -168q-129 123 -244 123q-57 0 -88 -25t-31 -69q0 -40 30.5 -68.5t78.5 -45.5t106.5 -33.5t117.5 -41.5t107 -60t78.5 -97t30.5 -146q0 -106 -60.5 -183t-156 -114t-211.5 -37z" />
    <glyph glyph-name="Ydieresis" unicode="&#x178;" horiz-adv-x="1177" 
d="M432 0v594l-426 922h318l270 -639h4l270 639h303l-428 -920v-596h-311zM657 1599v283h254v-283h-254zM268 1599v283h256v-283h-256z" />
    <glyph glyph-name="Zcaron" unicode="&#x17d;" horiz-adv-x="1128" 
d="M461 1608l-225 340h176l149 -146l152 146h174l-223 -340h-203zM45 0v225l653 1028h-608v263h975v-232l-643 -1028h643v-256h-1020z" />
    <glyph glyph-name="zcaron" unicode="&#x17e;" horiz-adv-x="923" 
d="M360 1204l-225 340h176l150 -145l151 145h174l-223 -340h-203zM45 0v168l451 700h-414v224h772v-177l-451 -698h482v-217h-840z" />
    <glyph glyph-name="florin" unicode="&#x192;" horiz-adv-x="784" 
d="M197 690h-154l27 217h155l37 285q20 163 109.5 246.5t290.5 83.5q102 0 151 -11l-31 -225q-36 8 -80 8q-61 0 -97 -24t-44 -94l-35 -269h197l-29 -217h-196l-105 -796q-8 -58 -23 -103t-44 -84.5t-71.5 -65.5t-106 -40.5t-146.5 -14.5q-82 0 -154 8l29 220q31 -7 76 -7
q66 0 101 32t44 106z" />
    <glyph glyph-name="circumflex" unicode="&#x2c6;" horiz-adv-x="985" 
d="M166 1202l225 340h203l223 -340h-174l-151 144l-152 -144h-174z" />
    <glyph glyph-name="caron" unicode="&#x2c7;" horiz-adv-x="985" 
d="M391 1204l-225 340h176l150 -145l151 145h174l-223 -340h-203z" />
    <glyph glyph-name="breve" unicode="&#x2d8;" horiz-adv-x="985" 
d="M494 1186q-149 0 -226.5 96.5t-85.5 263.5h166q21 -174 146 -174q124 0 143 174h168q-8 -167 -85.5 -263.5t-225.5 -96.5z" />
    <glyph glyph-name="dotaccent" unicode="&#x2d9;" horiz-adv-x="985" 
d="M338 1196v262h311v-262h-311z" />
    <glyph glyph-name="ring" unicode="&#x2da;" horiz-adv-x="985" 
d="M494 1174q-93 0 -151 63.5t-58 161.5q0 96 58 159.5t151 63.5q91 0 148.5 -63.5t57.5 -159.5q0 -98 -57.5 -161.5t-148.5 -63.5zM494 1292q35 0 54 30.5t19 74.5q0 43 -19 72.5t-54 29.5q-36 0 -56 -29.5t-20 -72.5q0 -44 20 -74.5t56 -30.5z" />
    <glyph glyph-name="ogonek" unicode="&#x2db;" horiz-adv-x="985" 
d="M463 -395q-98 0 -151.5 45.5t-53.5 118.5q0 64 44 129.5t110 111.5h157q-56 -39 -86 -89t-30 -99q0 -82 79 -82q68 0 146 53l70 -88q-64 -48 -130.5 -74t-154.5 -26z" />
    <glyph glyph-name="tilde" unicode="&#x2dc;" horiz-adv-x="985" 
d="M633 1178q-45 0 -87 18t-68 39t-56 39t-55 18q-74 0 -74 -110h-158q0 325 217 325q46 0 88.5 -18t68.5 -39t56.5 -39t55.5 -18q35 0 53 25.5t18 84.5h158q0 -325 -217 -325z" />
    <glyph glyph-name="hungarumlaut" unicode="&#x2dd;" horiz-adv-x="985" 
d="M547 1202l186 340h301l-278 -340h-209zM186 1202l176 340h304l-271 -340h-209z" />
    <glyph glyph-name="Delta" unicode="&#x394;" horiz-adv-x="1239" 
d="M186 0v868h-155v224h155v100q0 58 7.5 103t30 89t60 72.5t100.5 46t148 17.5q131 0 158 -9v-223q-36 6 -76 6q-63 0 -96 -23.5t-33 -92.5v-86h197v-224h-197v-868h-299zM823 1231v262h303v-262h-303zM801 -414q-31 0 -89 4t-67 7v215q42 -7 74 -7q55 0 79.5 30.5
t24.5 94.5v1162h303v-1194q0 -58 -7.5 -102t-29 -85t-57 -67.5t-94 -42t-137.5 -15.5z" />
    <glyph glyph-name="Delta" unicode="&#x2206;" horiz-adv-x="1239" 
d="M186 0v868h-155v224h155v100q0 58 7.5 103t30 89t60 72.5t100.5 46t148 17.5q131 0 158 -9v-223q-36 6 -76 6q-63 0 -96 -23.5t-33 -92.5v-86h197v-224h-197v-868h-299zM823 1231v262h303v-262h-303zM801 -414q-31 0 -89 4t-67 7v215q42 -7 74 -7q55 0 79.5 30.5
t24.5 94.5v1162h303v-1194q0 -58 -7.5 -102t-29 -85t-57 -67.5t-94 -42t-137.5 -15.5z" />
    <glyph glyph-name="space.tab" unicode="&#x2007;" horiz-adv-x="577" 
 />
    <glyph glyph-name="endash.tab" unicode="&#x2012;" 
d="M72 506v256h1013v-256h-1013z" />
    <glyph glyph-name="endash" unicode="&#x2013;" horiz-adv-x="1187" 
d="M88 506v256h1014v-256h-1014z" />
    <glyph glyph-name="emdash" unicode="&#x2014;" horiz-adv-x="1585" 
d="M84 506v256h1417v-256h-1417z" />
    <glyph glyph-name="quoteleft" unicode="&#x2018;" horiz-adv-x="507" 
d="M102 961v288l140 267h143l-88 -246h109v-309h-304z" />
    <glyph glyph-name="quoteright" unicode="&#x2019;" horiz-adv-x="507" 
d="M123 961l86 243h-109v312h306v-289l-142 -266h-141z" />
    <glyph glyph-name="quotesinglbase" unicode="&#x201a;" horiz-adv-x="507" 
d="M123 -246l86 246h-109v311h306v-288l-142 -269h-141z" />
    <glyph glyph-name="quotedblleft" unicode="&#x201c;" horiz-adv-x="954" 
d="M549 961v288l141 267h141l-86 -246h109v-309h-305zM102 961v288l140 267h143l-88 -246h109v-309h-304z" />
    <glyph glyph-name="quotedblright" unicode="&#x201d;" horiz-adv-x="954" 
d="M571 961l88 243h-110v312h303v-289l-139 -266h-142zM123 961l86 243h-109v312h306v-289l-142 -266h-141z" />
    <glyph glyph-name="quotedblbase" unicode="&#x201e;" horiz-adv-x="954" 
d="M571 -246l88 246h-110v311h303v-288l-139 -269h-142zM123 -246l86 246h-109v311h306v-288l-142 -269h-141z" />
    <glyph glyph-name="dagger" unicode="&#x2020;" horiz-adv-x="1079" 
d="M381 -410l47 1180l-373 -27v273l373 -31l-47 531h315l-45 -531l371 31v-273l-371 27l45 -1180h-315z" />
    <glyph glyph-name="daggerdbl" unicode="&#x2021;" horiz-adv-x="1077" 
d="M381 -410l45 428l-342 -30v264l342 -29l-37 332l37 328l-342 -29v264l342 -31l-45 429h315l-45 -429l342 31v-264l-342 29l37 -328l-37 -332l342 29v-264l-342 30l45 -428h-315z" />
    <glyph glyph-name="bullet" unicode="&#x2022;" horiz-adv-x="948" 
d="M473 455q-113 0 -187.5 74.5t-74.5 187.5q0 114 74.5 189t187.5 75q114 0 189 -75t75 -189q0 -113 -75 -187.5t-189 -74.5z" />
    <glyph glyph-name="ellipsis" unicode="&#x2026;" horiz-adv-x="1505" 
d="M1098 0v311h311v-311h-311zM596 0v311h311v-311h-311zM94 0v311h312v-311h-312z" />
    <glyph glyph-name="perthousand" unicode="&#x2030;" horiz-adv-x="2652" 
d="M403 547q-168 0 -260 125.5t-92 369.5q0 241 92 366.5t260 125.5q169 0 260 -125t91 -367q0 -245 -91 -370t-260 -125zM434 0l768 1516h250l-768 -1516h-250zM2251 -18q-170 0 -261.5 125.5t-91.5 369.5q0 243 92 368.5t261 125.5q168 0 259 -125.5t91 -368.5
q0 -244 -91 -369.5t-259 -125.5zM1487 -18q-168 0 -260 125.5t-92 369.5q0 243 92 368.5t260 125.5q169 0 259.5 -125t90.5 -369q0 -245 -90.5 -370t-259.5 -125zM403 762q60 0 81.5 63t21.5 217q0 149 -22.5 212t-80.5 63q-60 0 -82 -62t-22 -213t23 -215.5t81 -64.5z
M2251 197q60 0 81 63t21 217q0 149 -22.5 212t-79.5 63q-61 0 -83 -62t-22 -213q0 -152 23 -216t82 -64zM1487 197q60 0 81 63t21 217q0 149 -22.5 212t-79.5 63q-60 0 -82.5 -62.5t-22.5 -212.5q0 -151 23.5 -215.5t81.5 -64.5z" />
    <glyph glyph-name="guilsinglleft" unicode="&#x2039;" horiz-adv-x="645" 
d="M313 0l-276 543l276 542h283l-266 -542l266 -543h-283z" />
    <glyph glyph-name="guilsinglright" unicode="&#x203a;" horiz-adv-x="645" 
d="M49 0l266 543l-266 542h285l274 -542l-274 -543h-285z" />
    <glyph glyph-name="fraction" unicode="&#x2044;" horiz-adv-x="974" 
d="M-20 0l743 1516h270l-743 -1516h-270z" />
    <glyph glyph-name="fraction" unicode="&#x2215;" horiz-adv-x="974" 
d="M-20 0l743 1516h270l-743 -1516h-270z" />
    <glyph glyph-name="Euro" unicode="&#x20ac;" horiz-adv-x="1292" 
d="M211 815h-178v180h192q40 278 174 413.5t340 135.5q208 0 331.5 -121t154.5 -344l-283 -49q-19 124 -65.5 192t-133.5 68q-91 0 -144 -72.5t-75 -222.5h291v-180h-303v-133h303v-180h-291q21 -145 74 -215t152 -70q84 0 136 67.5t77 207.5l278 -35q-17 -103 -57 -190
t-100.5 -154t-146.5 -104.5t-189 -37.5q-208 0 -343 130.5t-176 400.5h-196v180h180q-2 25 -2 78v55z" />
    <glyph glyph-name="trademark" unicode="&#x2122;" horiz-adv-x="1613" 
d="M731 645v871h270l132 -576l131 576h270v-871h-197v561l-129 -561h-166l-131 557v-557h-180zM242 645v686h-195v185h590v-185h-195v-686h-200z" />
    <glyph glyph-name="minus" unicode="&#x2212;" horiz-adv-x="1157" 
d="M111 573v250h936v-250h-936z" />
    <glyph glyph-name="radical" unicode="&#x221a;" horiz-adv-x="1079" 
d="M317 -2l-317 1094h305l119 -488q35 -136 63 -297h5q35 176 65 295l242 914h280l-438 -1518h-324z" />
    <glyph glyph-name="infinity" unicode="&#x221e;" horiz-adv-x="1939" 
d="M186 0v868h-155v224h155v100q0 58 7.5 103t30 89t60 72.5t100.5 46t148 17.5q131 0 158 -9v-223q-36 6 -76 6q-63 0 -96 -23.5t-33 -92.5v-86h197v-224h-197v-868h-299zM887 0v868h-156v224h156v100q0 58 7.5 103t30 89t60 72.5t100.5 46t148 17.5q131 0 158 -9v-223
q-36 6 -76 6q-63 0 -96 -23.5t-33 -92.5v-86h196v-224h-196v-868h-299zM1524 1231v262h303v-262h-303zM1524 0v1092h303v-1092h-303z" />
    <glyph glyph-name="approxequal" unicode="&#x2248;" horiz-adv-x="1232" 
d="M840 240q-71 0 -163.5 35.5t-171.5 71t-116 36.5q-33 2 -53.5 -16.5t-30.5 -69.5l-184 29q18 153 87 231t171 76q58 -1 128.5 -23t123.5 -49t108 -49t86 -23q34 -2 55 16t29 68l187 -24q-18 -155 -86 -233t-170 -76zM854 696q-56 1 -126.5 23.5t-124.5 49.5t-110 49.5
t-87 23.5q-36 0 -56 -17.5t-28 -68.5l-187 28q20 153 89 230.5t171 77.5q57 -1 127.5 -23.5t123.5 -49.5t108.5 -49.5t85.5 -23.5q34 0 56 18.5t30 67.5l184 -24q-18 -155 -86 -233.5t-170 -78.5z" />
    <glyph glyph-name="notequal" unicode="&#x2260;" horiz-adv-x="1411" 
d="M186 0v868h-155v224h155v100q0 58 7.5 103t30 89t60 72.5t100.5 46t148 17.5q131 0 158 -9v-223q-36 6 -76 6q-63 0 -96 -23.5t-33 -92.5v-86h197v-224h-197v-868h-299zM887 0v868h-156v224h156v100q0 58 7.5 103t30 89t60 72.5t100.5 46t148 17.5q131 0 158 -9v-223
q-36 6 -76 6q-63 0 -96 -23.5t-33 -92.5v-86h196v-224h-196v-868h-299z" />
    <glyph glyph-name="lessequal" unicode="&#x2264;" horiz-adv-x="1202" 
d="M1053 324l-914 362v188l914 373v-260l-580 -207l580 -194v-262zM127 55v232h942v-232h-942z" />
    <glyph glyph-name="greaterequal" unicode="&#x2265;" horiz-adv-x="1200" 
d="M154 324v262l579 194l-579 207v260l913 -373v-188zM133 55v232h942v-232h-942z" />
    <glyph glyph-name="lozenge" unicode="&#x25ca;" horiz-adv-x="0" 
 />
    <glyph glyph-name="apple" unicode="&#xf8ff;" horiz-adv-x="1566" 
d="M328 1210v66l342 -31l-43 271h313l-45 -271l344 31v-66h64l-31 -342l268 43v-313l-268 45l31 -344h-64v-59l-344 30l45 -270h-313l43 270l-342 -30v59h-64l31 344l-270 -45v313l270 -43l-31 342h64zM1081 1057l-200 14v-219h217zM686 852v219l-201 -14l-16 -205h217z
M881 657v-215l200 17l17 198h-217zM485 459l201 -17v215h-217z" />
    <glyph glyph-name="zero.tab" 
d="M580 -25q-257 0 -393 198.5t-136 584.5q0 387 136 584.5t393 197.5q255 0 389.5 -197.5t134.5 -584.5q0 -386 -134.5 -584.5t-389.5 -198.5zM580 223q115 0 171 126.5t56 408.5q0 280 -57 404t-170 124q-78 0 -128 -51t-77 -169t-27 -308q0 -279 59 -407t173 -128z" />
    <glyph glyph-name="one.tab" 
d="M180 0v248h273v983q-46 -29 -127.5 -49.5t-141.5 -20.5v256q82 3 158 28.5t117 70.5h297v-1268h237v-248h-813z" />
    <glyph glyph-name="two.tab" 
d="M76 0v33q0 83 13.5 158.5t33.5 134t55.5 116t67.5 97.5t82.5 88t86.5 77.5t93 73.5q79 60 124.5 104t78 107.5t32.5 134.5q0 74 -39 115t-114 41q-76 0 -141 -55t-111 -166l-246 108q159 377 518 377q206 0 320 -111.5t114 -293.5q0 -77 -21.5 -147t-51 -120.5
t-83.5 -107t-94 -90.5t-108 -86q-82 -63 -132.5 -110.5t-87 -107.5t-38.5 -120h616v-250h-968z" />
    <glyph glyph-name="three.tab" 
d="M551 -29q-187 0 -321 90.5t-201 245.5l241 111q44 -99 112.5 -151t154.5 -52q104 0 162.5 61.5t58.5 155.5q0 130 -79 189t-245 59h-69v231h81q158 0 218.5 52.5t60.5 160.5q0 75 -42.5 120.5t-131.5 45.5q-77 0 -144 -44t-114 -120l-209 138q180 278 491 278
q208 0 329.5 -105t121.5 -278q0 -133 -68.5 -225.5t-189.5 -124.5q291 -79 291 -385q0 -209 -140 -331t-368 -122z" />
    <glyph glyph-name="four.tab" 
d="M641 0v309h-586v223l545 984h340v-963h174v-244h-174v-309h-299zM342 553h305v543h-4z" />
    <glyph glyph-name="five.tab" 
d="M565 -29q-186 0 -318 92t-200 246l244 111q41 -96 107 -149.5t153 -53.5q223 0 223 285q0 137 -56 207.5t-159 70.5q-62 0 -120.5 -37.5t-98.5 -101.5l-217 49l51 826h813l-16 -263h-551l-27 -356q90 121 273 121q200 0 304.5 -131t104.5 -377q0 -253 -136.5 -396
t-373.5 -143z" />
    <glyph glyph-name="six.tab" 
d="M602 -29q-252 0 -391 193t-139 567q0 204 41 361t116.5 255t176.5 147.5t225 49.5q285 0 428 -268l-242 -125q-39 66 -84 105.5t-108 39.5q-236 0 -256 -446q145 127 319 127q193 0 304.5 -129t111.5 -361q0 -231 -135 -373.5t-367 -142.5zM618 209q96 0 145.5 71
t49.5 193q0 120 -44 188t-151 68q-139 0 -249 -104q12 -218 74 -317t175 -99z" />
    <glyph glyph-name="seven.tab" 
d="M238 0l491 1260h-608v256h923v-238l-495 -1278h-311z" />
    <glyph glyph-name="eight.tab" 
d="M578 -27q-247 0 -382 111t-135 295q0 247 289 414q-57 36 -94 67.5t-71 75t-50 100.5t-16 129q0 159 122 268t337 109q113 0 202.5 -30.5t144.5 -83.5t84 -120t29 -143q0 -115 -62 -211t-169 -159q70 -39 115.5 -72.5t88 -82.5t63 -113.5t20.5 -147.5q0 -185 -137 -295.5
t-379 -110.5zM578 201q100 0 157.5 54t57.5 140q0 84 -55.5 145t-176.5 122q-98 -60 -149.5 -124t-51.5 -143q0 -83 58 -138.5t160 -55.5zM592 913q82 51 121 104.5t39 123.5q0 69 -42 116.5t-128 47.5t-130 -45t-44 -113q0 -80 45 -132t139 -102z" />
    <glyph glyph-name="nine.tab" 
d="M526 -29q-287 0 -434 273l242 125q43 -73 88.5 -115.5t109.5 -42.5q234 0 254 455q-143 -125 -319 -125q-193 0 -303.5 128.5t-110.5 360.5q0 228 137.5 371t362.5 143q260 0 395 -191.5t135 -568.5q0 -403 -151 -608t-406 -205zM537 786q73 0 132.5 25.5t118.5 81.5
q-13 216 -75 311.5t-176 95.5q-95 0 -144 -68.5t-49 -189.5q0 -256 193 -256z" />
    <glyph glyph-name="plus.tab" 
d="M451 203v389h-340v248h340v387h256v-387h340v-248h-340v-389h-256z" />
    <glyph glyph-name="minus.tab" 
d="M117 592v248h923v-248h-923z" />
    <glyph glyph-name="multiply.tab" 
d="M293 205l-174 174l282 283l-282 280l176 176l283 -282l280 282l176 -174l-282 -282l286 -279l-176 -174l-284 280z" />
    <glyph glyph-name="divide.tab" 
d="M449 201v248h258v-248h-258zM111 592v248h936v-248h-936zM449 977v250h258v-250h-258z" />
    <glyph glyph-name="equal.tab" 
d="M117 338v223h923v-223h-923zM117 776v225h923v-225h-923z" />
    <glyph glyph-name="less.tab" 
d="M1034 125l-913 444v189l913 448v-264l-606 -278l606 -279v-260z" />
    <glyph glyph-name="greater.tab" 
d="M133 125v260l608 279l-608 278v264l914 -448v-189z" />
    <glyph glyph-name="dollar.tab" 
d="M475 -190v194q-316 47 -422 399l262 76q43 -118 105 -180.5t170 -62.5q97 0 151 41t54 122q0 50 -23.5 89.5t-64 66.5t-92.5 50t-109.5 45t-114.5 47t-109 60.5t-92.5 81t-64 113.5t-23.5 152q0 165 97 274t276 135v164h213v-164q145 -26 232.5 -117t142.5 -237
l-252 -100q-84 213 -248 213q-74 2 -120 -37t-46 -109q0 -49 23.5 -87.5t64 -64.5t92.5 -48.5t109.5 -44.5t114.5 -47t109 -60.5t92.5 -81t64 -113t23.5 -151.5q0 -170 -101.5 -285.5t-300.5 -140.5v-192h-213z" />
    <glyph glyph-name="cent.tab" horiz-adv-x="983" 
d="M262 -209l45 234q-120 60 -188 189t-68 331q0 143 37.5 254t102 177.5t146 100.5t175.5 35l31 162h229l-39 -207q49 -24 86.5 -60t61.5 -81t38 -83t27 -87l-266 -64q-24 101 -59.5 147t-96.5 46q-174 0 -174 -340q0 -166 39 -256t133 -90q62 0 104 47t64 155l260 -63
q-19 -78 -52.5 -141t-84 -113.5t-124 -78.5t-163.5 -28l-34 -186h-230z" />
    <glyph glyph-name="Euro.tab" 
d="M668 -25q-200 0 -328.5 128.5t-165.5 398.5h-160v186h144q-2 27 -2 123h-142v182h156q35 280 164 413.5t328 133.5q105 0 184.5 -31.5t132.5 -93t86 -140.5t53 -185l-266 -62q-28 142 -66.5 200t-121.5 58q-176 0 -207 -293h248v-182h-259q-2 -7 -2 -60.5t2 -62.5h259
v-186h-244q14 -143 63.5 -211t143.5 -68q85 0 127.5 64t66.5 215l264 -53q-23 -107 -57.5 -188.5t-88 -148t-132.5 -102t-180 -35.5z" />
    <glyph glyph-name="sterling.tab" 
d="M268 -25q-109 0 -181.5 60.5t-72.5 177.5q0 116 71 183t175 67q89 0 170 -66q4 25 2 43q0 99 -67 244h-242v184h149q-71 149 -71 271q0 175 112.5 288t290.5 113q206 0 305 -105.5t115 -299.5l-258 -48q-10 100 -44.5 155.5t-105.5 55.5q-57 0 -89.5 -38.5t-32.5 -114.5
q0 -105 86 -277h299v-184h-224q35 -110 35 -225q0 -114 -41 -207q65 -49 113 -49q58 0 81.5 48.5t26.5 188.5h244q0 -87 -7 -153t-27 -126.5t-53.5 -99.5t-87.5 -61.5t-128 -22.5q-160 0 -285 109q-106 -111 -258 -111zM272 139q84 0 123 80q-67 78 -123 78
q-34 0 -54.5 -21.5t-20.5 -58.5q0 -35 20.5 -56.5t54.5 -21.5z" />
    <glyph glyph-name="yen.tab" 
d="M422 0v184h-305v187h305v123h-305v184h286l-385 838h318l246 -596h2q5 14 245 596h306l-390 -838h291v-184h-307v-123h307v-187h-307v-184h-307z" />
    <glyph glyph-name="florin.tab" 
d="M72 -406l30 220q24 -7 74 -7q66 0 102 32t46 106l106 798h-156q0 15 29 218h156l30 231q10 81 31.5 136.5t65 101t119 68t184.5 22.5q86 0 149 -9l-30 -223q-42 6 -74 6q-65 0 -102 -23.5t-44 -92.5l-28 -217h192l-24 -218h-197l-115 -849q-10 -77 -30 -128.5t-61 -95
t-112.5 -64t-176.5 -20.5q-108 0 -164 8z" />
    <glyph glyph-name="numbersign.tab" 
d="M141 0l54 397h-132v232h162l39 260h-141v229h170l55 398h244l-55 -398h161l58 398h241l-55 -398h150v-229h-179l-41 -260h160v-232h-186l-55 -397h-244l53 397h-162l-55 -397h-242zM467 629h164l39 260h-162z" />
    <glyph glyph-name="percent.tab" horiz-adv-x="1748" 
d="M393 580q-163 0 -248.5 123t-85.5 350q0 231 87 355t249 124q161 0 247.5 -123.5t86.5 -349.5q0 -228 -86.5 -353.5t-249.5 -125.5zM395 780q53 0 77 67.5t24 207.5q0 141 -24 205.5t-77 64.5t-76.5 -64t-23.5 -202q0 -144 24 -211.5t76 -67.5zM1354 -16
q-161 0 -246.5 125t-85.5 350q0 229 86.5 354t247.5 125q162 0 248 -123.5t86 -351.5q0 -227 -86 -353t-250 -126zM1356 186q53 0 76.5 67t23.5 208q0 142 -24 205t-78 63q-53 0 -76 -63t-23 -203q0 -145 24 -211t77 -66zM440 0l670 1516h197l-668 -1516h-199z" />
    <glyph glyph-name="period.tab" horiz-adv-x="577" 
d="M123 0v313h330v-313h-330z" />
    <glyph glyph-name="comma.tab" horiz-adv-x="577" 
d="M172 -246l82 246h-131v313h330v-278l-144 -281h-137z" />
    <glyph glyph-name="colon.tab" horiz-adv-x="577" 
d="M123 0v311h328v-311h-328zM123 782v310h328v-310h-328z" />
    <glyph glyph-name="semicolon.tab" horiz-adv-x="577" 
d="M170 -246l80 246h-127v311h328v-272l-144 -285h-137zM123 782v310h328v-310h-328z" />
    <glyph glyph-name="parenleft.tab" horiz-adv-x="577" 
d="M434 -422q-442 432 -442 995q0 560 442 992l176 -131q-305 -408 -305 -861q0 -240 84 -467t225 -397z" />
    <glyph glyph-name="parenright.tab" horiz-adv-x="577" 
d="M147 -422l-182 131q309 404 309 862q0 240 -82.5 465.5t-222.5 397.5l176 131q443 -430 443 -994q0 -552 -441 -993z" />
    <glyph glyph-name="asterisk.tab" 
d="M449 676l-170 98l186 260l-320 -28v190l326 -33l-195 264l173 101l129 -295l133 295l172 -101l-191 -262l320 31v-190l-320 28l191 -260l-170 -98l-135 291z" />
    <glyph glyph-name="periodcentered.tab" horiz-adv-x="577" 
d="M119 459v311h342v-311h-342z" />
    <glyph glyph-name="slash.tab" 
d="M57 0l746 1516h299l-746 -1516h-299z" />
    </font>
</defs>
</svg>
